#TITLE:Streamline;
#SUBTITLE:;
#ARTIST:Pendulum;
#TITLETRANSLIT:;
#SUBTITLETRANSLIT:;
#ARTISTTRANSLIT:;
#CREDIT:;
#BANNER:streamline.png;
#BACKGROUND:streamline-bg.png;
#LYRICSPATH:;
#CDTITLE:;
#MUSIC:streamline.ogg;
#OFFSET:0.000;
#SAMPLESTART:27.586;
#SAMPLELENGTH:12.000;
#SELECTABLE:YES;
#BPMS:0.000=174.000;
#STOPS:;
#BGCHANGES:;

//---------------dance-single - Renard----------------
#NOTES:
     dance-single:
     Renard:
     Hard:
     7:
     0.480,0.549,0.290,0.372,0.000:
0000
0000
0000
0000
,
0000
0000
0000
0000
,
0000
0000
0000
0000
,
0000
0000
0000
0000
,
1001
0000
0000
1010
0000
0100
0001
0000
,
0011
0010
0110
0100
,
1100
0000
0000
1010
0000
0000
0000
0000
,
0101
0010
0101
0010
,
1010
0000
1000
0100
0000
0100
0010
0000
,
1001
0100
1010
0100
,
0011
0000
0100
0010
0000
0010
1000
0100
,
0020
0000
0001
0000
0100
0000
0001
0031
,
0011
0000
0000
0110
0000
0000
0000
0000
,
2100
0010
0001
3100
,
0011
0000
0000
0101
0000
0000
0000
0000
,
1002
0100
0010
0013
,
0011
0000
0000
1001
0000
0000
0000
0000
,
2010
0100
0001
3001
,
0101
0000
0001
0100
0000
1000
0100
0000
,
0202
0000
0000
0303
,
0001
0100
0010
0000
1000
0100
0010
0100
,
1000
0000
1000
0001
0000
0001
0100
0000
,
0010
0000
0010
1000
0000
1000
0100
0000
,
0010
0000
0001
0000
0010
0100
1000
0000
,
0010
0100
0001
0100
0010
1000
0100
0010
,
0001
1000
0001
0000
0001
1000
0000
1000
,
0001
0000
0001
0100
0000
0100
0010
0000
,
1000
0100
0010
0001
,
0010
0100
1000
0000
0010
0100
0000
0100
,
0001
0000
0001
0100
0000
0100
0010
0000
,
1000
0000
0100
0010
0000
0001
1000
0000
,
0001
0100
0010
1000
0001
0100
0001
1000
,
0100
0000
0100
1000
0010
0000
0010
0100
,
0001
0010
0001
0100
,
0010
0000
1000
0010
0100
0000
0001
0100
,
0000
1010
0000
1001
0000
1100
0000
0000
,
0011
0000
0100
0010
0000
0100
1000
0010
,
0100
0101
0110
1010
,
1001
0000
0100
0001
0000
1000
0010
0100
,
0002
1000
1000
1003
,
0002
0000
0000
0000
,
0100
0100
0100
0103
,
0020
0000
0000
0000
,
2030
0000
3200
0000
0000
0302
0000
0000
,
0203
0000
0000
2300
0000
0000
3020
0000
,
0000
0000
0000
0030
,
0002
0000
0000
0000
,
0013
0000
2000
0000
0000
3200
0000
0000
,
0302
0000
0000
0203
0000
0000
0320
0000
,
0000
0032
0000
0000
0203
0000
0000
0320
,
0000
0000
0000
0000
,
2030
0000
3200
0000
0000
0302
0000
0000
,
0203
0000
0000
0320
0000
0000
0032
0000
,
0000
2003
0000
0000
3020
0000
0000
0000
,
0230
0000
0000
0000
,
0302
0000
0000
0000
,
2003
0000
3200
0000
,
0320
0032
2003
3010
,
1000
0010
0100
0000
0100
0001
0000
0001
,
0010
0100
1000
0000
1000
0100
0000
0100
,
0001
0100
1000
0010
0000
0010
0100
0000
,
0100
0001
1000
0010
1000
0001
0010
0000
,
0100
1000
0001
0000
0100
0001
0000
1000
,
0100
0010
0001
0000
0001
1000
0000
1000
,
0010
0000
0010
0100
0000
0100
0001
0000
,
0010
0001
1000
0000
1000
0010
0100
0001
,
0000
0001
1000
0000
0100
0010
0001
1000
,
0010
0100
0001
0000
0001
1000
0000
1000
,
0001
0000
0001
0010
0000
0010
0100
0000
,
0100
1000
0010
0000
0010
0100
0001
0000
,
1000
0000
1000
0000
0001
0100
0010
0000
,
1000
0000
1000
0000
0100
0010
0001
0000
,
1000
0000
1000
0010
0000
0010
0100
0000
,
0001
0100
0010
0000
1000
0100
0010
0000
,
2002
0000
0000
0000
,
0000
0000
0000
3003
;

//---------------dance-single - Renard----------------
#NOTES:
     dance-single:
     Renard:
     Medium:
     5:
     0.333,0.408,0.009,0.426,0.000:
0000
0000
0000
0000
,
0000
0000
0000
0000
,
0000
0000
0000
0000
,
0000
0000
0000
0000
,
1000
0001
0100
0000
,
0001
1000
0001
1000
0001
0000
0000
1000
,
0000
0000
0000
0100
0000
1000
0000
0001
,
0000
0010
0000
0001
0000
0000
0000
0000
,
1000
0010
1000
0000
,
0001
0100
0001
0100
0001
0000
0000
1000
,
0000
0000
0000
0100
0000
1000
0001
0000
,
0100
0100
0010
1000
,
0100
0010
0001
0000
,
0010
0000
0100
1000
0100
0000
0000
1000
,
0000
0000
0000
0001
0000
0010
0000
0001
,
0000
1000
0000
1000
0000
0000
0000
0000
,
0010
0100
0001
0000
,
0100
0010
0100
0000
0010
0000
1000
0001
,
0000
0000
0000
1000
0000
0100
0020
0000
,
0000
0000
0000
0000
,
0031
0000
0010
0000
0000
0100
1000
0000
,
0001
0000
0200
0000
0000
0320
0000
0000
,
2030
0000
0000
3200
0000
0000
0320
0000
,
0000
0000
0031
0010
,
0100
0000
1000
0000
0000
0001
0100
0000
,
0010
0000
2000
0000
0000
3200
0000
0000
,
2300
0000
0000
3002
0000
0000
0023
0000
,
0000
0230
2300
3010
,
0100
0000
0001
0100
0010
0000
0100
0000
,
0010
0000
2000
0000
0000
3002
0000
0000
,
0023
0000
0000
0230
0000
0000
2300
0000
,
0000
3002
0000
0000
0203
0000
0000
0000
,
0310
0000
1000
0000
0000
0010
1000
0000
,
0001
0000
0100
0000
0000
0001
0100
0000
,
0001
0000
0010
0000
0100
0000
1000
0001
,
0000
0100
0000
0010
0000
1000
0000
0001
,
1000
0100
0010
0001
,
0020
0000
0032
0000
,
1003
0000
0000
0100
0000
1000
0100
0000
,
2000
0000
0000
0000
,
3001
0000
0000
0000
,
0000
0000
0000
0000
,
0000
0000
0000
0000
,
0000
0000
2000
0000
0000
3200
0000
0000
,
0320
0000
0000
0032
0000
0000
0023
0000
,
0000
0000
0000
0000
,
0030
0000
0000
0000
,
0000
0000
0200
0000
0000
2300
0000
0000
,
3020
0000
0000
0230
0000
0000
0302
0000
,
0000
0020
0003
0000
0230
0000
0000
0000
,
2300
0000
0000
0000
0000
0000
0000
3000
,
0000
0000
0020
0000
0000
0230
0000
0000
,
0302
0000
0000
0023
0000
0000
0230
0000
,
0000
2000
0300
0000
0002
3000
0000
0000
,
0203
0000
0000
0000
,
0320
0000
0000
0000
,
1030
0000
0010
0000
0000
1000
0010
0000
,
0100
0000
0001
0000
1000
0100
1000
0000
,
0001
0000
0010
0000
0000
0001
1000
0000
,
0001
0010
0100
0000
0000
1000
0000
0000
,
0001
0000
0000
0100
0000
0000
0010
0000
,
0000
1000
0000
0010
,
0100
0000
0001
0000
0000
0010
0001
0000
,
1000
0000
0100
0000
0000
1000
0000
0000
,
0001
0000
0000
0010
0000
0000
0001
0000
,
0000
1000
0000
0000
0010
0000
0000
0000
,
0100
0000
0001
0000
0000
0100
0010
0000
,
1000
0000
0100
0000
0000
1000
0001
0000
,
0010
0000
0001
0000
0000
1000
0100
0000
,
1000
0001
0010
0001
,
1000
1000
0000
0010
,
0100
0100
0000
0001
,
0010
0000
0001
0000
0000
1000
0100
0000
,
1000
0001
0010
0100
,
2002
0000
0000
0000
,
3003
0000
0000
0000
;

//---------------dance-single - Renard----------------
#NOTES:
     dance-single:
     Renard:
     Easy:
     2:
     0.180,0.238,0.000,0.054,0.000: // measure 1
0000
0000
0000
0000
,  // measure 2
0000
0000
0000
0000
,  // measure 3
0000
0000
0000
0000
,  // measure 4
0000
0000
0000
0000
,  // measure 5
0010
0000
0000
1000
0000
0000
0000
0000
,  // measure 6
0001
0000
0100
0000
,  // measure 7
0001
0000
0000
1000
0000
0000
0000
0000
,  // measure 8
0100
0000
1000
0000
,  // measure 9
0001
0000
0000
0001
0000
0000
0000
0000
,  // measure 10
0010
0000
0100
0000
,  // measure 11
1000
0000
0000
0001
0000
0000
0000
0000
,  // measure 12
0100
0000
0001
0000
,  // measure 13
0010
0000
0000
0100
0000
0000
0000
0000
,  // measure 14
1000
0000
0001
0000
,  // measure 15
1000
0000
0000
0010
0000
0000
0000
0000
,  // measure 16
0100
0000
0001
0000
,  // measure 17
1000
0000
0000
0100
0000
0000
0000
0000
,  // measure 18
1000
0000
0001
0000
,  // measure 19
0010
0000
0000
0100
0000
0000
0000
0000
,  // measure 20
1000
2000
0000
0000
0000
0000
0000
0000
,  // measure 21
3001
0000
0100
0000
,  // measure 22
0010
0000
1000
0000
0000
0010
0000
0000
,  // measure 23
1000
0000
0000
0010
0000
0000
1000
0000
,  // measure 24
0000
0000
0000
0000
,  // measure 25
0001
0000
0010
0000
,  // measure 26
0100
0000
1000
0000
0000
0001
0000
0000
,  // measure 27
0100
0000
0000
0001
0000
0000
1000
0000
,  // measure 28
0000
0001
0000
0000
0010
0000
0000
0000
,  // measure 29
0100
0000
1000
0000
,  // measure 30
0001
0000
0010
0000
0000
0001
0000
0000
,  // measure 31
1000
0000
0000
0001
0000
0000
0100
0000
,  // measure 32
0000
0010
0000
0000
1000
0000
0000
0000
,  // measure 33
0010
0000
0010
0000
,  // measure 34
0100
0000
0100
0000
,  // measure 35
0001
0000
1000
0000
,  // measure 36
0100
0000
0100
0010
,  // measure 37
0001
0000
1000
0000
,  // measure 38
0002
0000
2003
0000
,  // measure 39
3010
0000
0010
0000
,  // measure 40
0200
0000
0000
0000
,  // measure 41
0310
0000
0000
0000
,  // measure 42
0000
0000
0000
0000
,  // measure 43
0000
0000
0000
0000
,  // measure 44
0000
0000
0010
0000
0000
1000
0000
0000
,  // measure 45
0010
0000
0000
0100
0000
0000
0001
0000
,  // measure 46
0000
0000
0000
0000
,  // measure 47
0000
0000
0000
0000
,  // measure 48
0000
0000
0001
0000
0000
0010
0000
0000
,  // measure 49
0100
0000
0000
1000
0000
0000
0010
0000
,  // measure 50
0000
0100
0000
0000
0001
0000
0000
0000
,  // measure 51
0100
0000
0000
0000
,  // measure 52
0000
0000
0010
0000
0000
1000
0000
0000
,  // measure 53
0001
0000
0000
0100
0000
0000
0001
0000
,  // measure 54
0000
1000
0000
0000
0100
0000
0000
0000
,  // measure 55
0010
0000
0000
0000
,  // measure 56
0001
0000
0000
0000
,  // measure 57
0010
0000
0000
0000
,  // measure 58
0000
0000
0000
0000
,  // measure 59
0100
0000
0000
0000
,  // measure 60
0000
0000
1000
0000
0000
0001
0000
0000
,  // measure 61
0100
0000
0000
0010
0000
0000
1000
0000
,  // measure 62
0000
0000
0001
0000
,  // measure 63
0010
0000
0000
0000
,  // measure 64
0000
0000
0100
0000
0000
1000
0000
0000
,  // measure 65
0001
0000
0000
0010
0000
0000
0001
0000
,  // measure 66
0000
1000
0000
0000
0010
0000
0000
0000
,  // measure 67
0100
0000
0100
0000
,  // measure 68
0010
0000
1000
0001
,  // measure 69
1000
0000
0000
0001
0000
0000
0100
0000
,  // measure 70
0000
0010
0000
0000
1000
0000
0000
0000
,  // measure 71
0010
0000
0000
0000
,  // measure 72
0100
0000
0000
0000
,  // measure 73
0001
0000
1000
0000
,  // measure 74
0100
0200
0000
0000
0010
0020
0000
0000
,  // measure 75
0000
0000
0000
0000
,  // measure 76
0330
0000
0000
0000
;
