#TITLE:Stratofortress;
#SUBTITLE:;
#ARTIST:Stratovarius;
#TITLETRANSLIT:;
#SUBTITLETRANSLIT:;
#ARTISTTRANSLIT:;
#CREDIT:;
#BANNER:;
#BACKGROUND:;
#LYRICSPATH:;
#CDTITLE:;
#MUSIC:strat.ogg;
#OFFSET:0.000;
#SAMPLESTART:38.627;
#SAMPLELENGTH:12.000;
#SELECTABLE:YES;
#BPMS:0.000=180.000;
#STOPS:;
#BGCHANGES:;
#GENRE:Metal;

//---------------dance-single - ----------------
#NOTES:
     dance-single:
     Renard:
     Challenge:
     14:
     1.000,1.000,0.077,0.068,1.000: // measure 1
0000
0000
0000
0000
,  // measure 2
0000
0000
0000
0000
,  // measure 3
0000
0000
0000
0000
,  // measure 4
0000
0000
0000
0000
,  // measure 5
0000
0000
0000
0000
,  // measure 6
1000
0000
0001
0000
0100
0000
0010
0000
1000
0000
0010
1000
0010
0000
0100
0000
,  // measure 7
0001
0000
0010
0000
0100
0000
1000
0000
0001
0000
0010
0001
0010
0000
0001
0000
,  // measure 8
0100
0000
0010
0000
1000
0000
0001
0000
0100
0000
0010
1000
0010
0000
1000
0001
,  // measure 9
1000
0000
0001
0100
0001
0000
0100
0010
0100
0000
0010
1000
0010
0000
0000
0000
,  // measure 10
1000
0010
1000
0010
1000
0000
0010
0000
0100
0000
0001
0100
0001
0000
0100
0000
,  // measure 11
0001
0010
0001
0010
0001
0000
0010
0000
0100
0000
0010
0100
0010
0000
0100
0000
,  // measure 12
1000
0010
1000
0010
1000
0000
0010
0000
0100
0000
0001
0100
0001
0000
1000
0000
,  // measure 13
0100
0000
0010
0001
0010
0000
0100
1000
0001
0000
0010
0100
1000
0000
0001
0000
,  // measure 14
1000
0010
1000
0010
1000
0000
0010
0000
0100
0000
0001
0100
0001
0000
0100
0000
,  // measure 15
0010
1000
0010
1000
0010
0000
1000
0000
0100
0000
0010
0100
0010
0000
0100
0000
,  // measure 16
1000
0001
1000
0001
1000
0000
0001
0000
0100
0000
0010
0100
0010
0000
1000
0010
,  // measure 17
1000
0000
0001
0100
0001
0000
1000
0001
1000
0000
0001
1000
0001
0000
0000
0000
,  // measure 18
1000
0100
0010
0001
0010
0100
1000
0010
0100
0001
0100
0010
1000
0010
0100
0001
,  // measure 19
0100
0010
1000
0001
1000
0100
0010
0001
0010
0100
1000
0001
0010
0100
1000
0010
,  // measure 20
0100
0001
0100
0001
1000
0100
1000
0010
0100
0001
1000
0100
1000
0001
0010
0001
,  // measure 21
0100
0010
1000
0001
0100
0001
1000
0100
1000
0001
0010
0100
1000
0000
0000
0000
,  // measure 22
0001
0100
0001
0100
0001
0000
1000
0010
1000
0010
1000
0000
0001
1000
0001
1000
,  // measure 23
0001
1000
0001
1000
0001
0000
1000
0100
1000
0100
1000
0000
0100
0010
0100
0010
,  // measure 24
0100
0010
0100
0010
0100
0000
0010
0001
0010
0001
0010
0000
0001
1000
0001
1000
,  // measure 25
0001
1000
0001
1000
0001
0000
1000
0010
1000
0010
1000
0000
0001
0100
0001
0100
,  // measure 26
0001
0100
0001
0100
0001
0000
1000
0001
1000
0001
1000
0000
0100
1000
0100
1000
,  // measure 27
0100
1000
0100
1000
0100
0000
0010
0100
0010
0100
0010
0000
0001
0010
0001
0010
,  // measure 28
0001
0010
0001
0010
0001
0000
1000
0001
1000
0001
1000
0000
0010
1000
0010
1000
,  // measure 29
0010
0100
0010
0100
0010
0000
0100
0001
0100
0001
1000
0001
1000
0001
1000
0000
,  // measure 30
0001
0100
0100
0100
0100
0100
0100
0100
,  // measure 31
0100
0000
0100
0000
0100
0000
0100
0000
0010
1000
0100
0010
0001
0010
0100
1000
,  // measure 32
0000
1000
1000
1000
1000
1000
1000
1000
,  // measure 33
1000
0000
1000
0000
1000
0000
1000
0000
1000
0010
0100
0001
0010
0100
1000
0010
,  // measure 34
0000
0010
0010
0010
0010
0010
0010
0010
,  // measure 35
0010
0000
0010
0000
0010
0000
0010
0000
0010
0100
0001
0010
0100
1000
0001
0010
,  // measure 36
0000
0010
0010
0010
0010
0010
0010
0010
,  // measure 37
0010
0000
0010
0000
0010
0000
0010
0000
0010
0100
1000
0001
0100
0010
1000
0000
,  // measure 38
0001
0010
0100
1000
0100
0010
0001
1000
0010
0100
0001
0100
0010
1000
0001
0010
,  // measure 39
0100
1000
0100
0010
0001
1000
0100
0010
0001
1000
0010
0100
0001
0100
0010
1000
,  // measure 40
0001
0010
0100
1000
0001
0100
0001
1000
0100
1000
0001
0010
0001
1000
0010
1000
,  // measure 41
0001
0100
0101
0000
1000
0010
1010
0000
0001
0100
0101
0000
1000
0010
1010
0000
,  // measure 42
0001
0100
0010
1000
0100
0010
0001
0010
0100
1000
0010
0100
0001
0010
0100
0010
,  // measure 43
0001
0010
0100
0010
0001
1000
0010
0100
0001
0100
0010
1000
0001
0010
0100
0010
,  // measure 44
0001
0010
0100
1000
0010
0100
0001
0100
0010
1000
0001
0010
0100
1000
0001
0010
,  // measure 45
0100
1000
0010
0100
0001
0100
0010
1000
0001
0100
0010
1000
0001
0100
0010
0000
,  // measure 46
1000
0100
0010
0001
0010
0100
1000
0100
0010
0001
0010
0100
1000
0100
0010
0001
,  // measure 47
0010
0100
1000
0100
0010
0001
0010
0100
1000
0100
1000
0100
1000
0100
1000
0000
,  // measure 48
0001
0010
0100
1000
0100
0010
0001
0010
0100
1000
0100
0010
0001
0010
0100
1000
,  // measure 49
0100
0010
0001
0010
0100
1000
0100
0010
0001
0010
0001
0010
0001
0010
0001
0000
,  // measure 50
1000
0010
0100
0001
0100
0010
1000
0010
0100
0001
0100
0010
1000
0010
0100
0001
,  // measure 51
0100
0010
1000
0010
0100
0001
0100
0010
1000
0010
1000
0010
1000
0010
1000
0000
,  // measure 52
0001
0100
0010
1000
0010
0100
0001
0100
0010
1000
0010
0100
0001
0100
0010
1000
,  // measure 53
0010
0100
0001
0100
0010
1000
0010
0100
0001
0100
0001
0100
0001
0000
0101
0000
,  // measure 54
0001
0100
0010
1000
0100
1000
0001
0010
0100
1000
0001
0010
0001
1000
0010
0100
,  // measure 55
0001
1000
0010
1000
0001
0010
0100
1000
0001
0010
0001
1000
0100
1000
0001
1000
,  // measure 56
0001
0100
0010
1000
0100
1000
0001
0010
0100
1000
0001
0010
0001
1000
0010
0100
,  // measure 57
0001
0100
0001
1000
0100
0010
0100
1000
0001
0010
0100
0010
0001
1000
0010
0100
,  // measure 58
0001
1000
0001
0100
0001
1000
0100
1000
0001
0010
0001
1000
0010
0100
0001
1000
,  // measure 59
0100
1000
0001
0010
0001
1000
0010
0100
0001
0100
0010
1000
0100
1000
0001
0010
,  // measure 60
0001
0010
0100
1000
0100
0010
0001
0100
0010
1000
0010
0100
0001
1000
0100
0010
,  // measure 61
0001
0010
0001
1000
0100
1000
0001
0100
0001
1000
0010
1000
0100
0010
0001
0010
,  // measure 62
0100
1000
0100
0010
0001
0010
0100
1000
0010
0100
0001
0010
0100
1000
0010
0100
,  // measure 63
0001
0100
0010
1000
0100
1000
0001
0010
0100
1000
0001
0010
0001
1000
0010
0100
,  // measure 64
0001
1000
0010
1000
0001
0010
0100
1000
0001
0010
0001
1000
0100
1000
0001
1000
,  // measure 65
0001
0100
0010
1000
0100
1000
0001
0010
0100
1000
0001
0010
0001
1000
0010
0100
,  // measure 66
0001
0100
0001
1000
0100
0010
0100
1000
0001
0010
0100
0010
0001
1000
0010
0100
,  // measure 67
0001
1000
0001
0100
0001
1000
0100
1000
0001
0010
0001
1000
0010
0100
0001
1000
,  // measure 68
0100
1000
0001
0010
0001
1000
0010
0100
0001
0100
0010
1000
0100
1000
0001
0010
,  // measure 69
0001
0010
0100
1000
0100
0010
0001
0100
0010
1000
0010
0100
0001
1000
0100
1000
,  // measure 70
2002
0000
0000
0000
,  // measure 71
0000
0000
0000
0000
,  // measure 72
3003
0000
0000
0220
0000
0000
0000
0000
,  // measure 73
0000
0000
0000
0000
,  // measure 74
0000
0000
0000
0330
0000
0000
2002
0000
,  // measure 75
0000
0000
0000
0000
,  // measure 76
0000
0000
0000
0000
,  // measure 77
0000
0000
0000
0000
,  // measure 78
0000
0000
0000
0000
,  // measure 79
0000
0000
0000
0000
,  // measure 80
0000
0000
0000
3003
,  // measure 81
0000
0220
0000
0000
0000
0000
0000
0000
,  // measure 82
0000
0000
0000
0000
,  // measure 83
0000
0000
0000
0000
,  // measure 84
0000
0000
0000
0000
,  // measure 85
0000
0000
0000
0000
0000
0330
0000
0000
;
