#TITLE:Stranger in Town;
#SUBTITLE:;
#ARTIST:Pat Metheny Group;
#TITLETRANSLIT:;
#SUBTITLETRANSLIT:;
#ARTISTTRANSLIT:;
#CREDIT:;
#BANNER:stranger.png;
#BACKGROUND:stranger-bg.png;
#LYRICSPATH:;
#CDTITLE:;
#MUSIC:stranger.ogg;
#OFFSET:0.000;
#SAMPLESTART:40.703;
#SAMPLELENGTH:12.000;
#SELECTABLE:YES;
#BPMS:0.000=147.405,214.000=151.105,216.000=147.385;
#STOPS:;
#BGCHANGES:;

//---------------dance-single - Renard----------------
#NOTES:
     dance-single:
     Renard:
     Challenge:
     11:
     0.824,0.732,0.000,0.000,0.997:
0000
0000
0000
0000
,
0000
0000
0000
0000
,
0000
0000
0000
0000
,
0000
0000
0000
0000
,
0001
1000
0100
1000
0001
0000
0000
1000
0000
0010
1000
0100
1000
0000
0000
0000
,
0001
1000
0100
1000
0001
0000
0010
0000
0000
0100
1000
0001
0100
0010
1000
0100
,
1000
0100
1000
0001
0010
0000
0000
0001
0000
1000
0010
1000
0010
0000
0000
0000
,
1000
0010
0100
0001
0010
0000
0100
0000
0000
1000
0001
0100
0010
1000
0100
1000
,
0001
0000
1000
0000
0100
0000
0000
0100
1000
0000
0010
0000
0100
0000
0100
0001
,
0010
0000
0100
0000
1000
0000
0001
0100
0001
0000
0100
0000
0010
0000
1000
0010
,
1000
0000
0100
0000
1000
0000
0000
0001
0010
0000
0100
0000
1000
0000
0010
0100
,
0010
0000
0100
0000
0010
0000
1000
0010
1000
0000
0001
0000
0100
0000
0001
1000
,
0001
0000
1000
0000
0100
0000
0000
0100
1000
0000
0010
0000
0100
0000
0000
0100
,
0001
0000
0010
0000
0100
0000
1000
0100
1000
0000
0010
0000
0100
0000
0001
0000
,
0100
0000
0001
0100
0001
0000
1000
0000
0001
0000
1000
0100
1000
0000
0001
0000
,
0010
0000
0001
1000
0001
0000
1000
0000
0010
1000
0010
1000
0001
0000
1000
0000
,
0100
0000
0000
0100
1000
0000
0010
0000
0100
0010
0100
0000
0010
0000
1000
0000
,
0100
0000
0000
0100
1000
0000
0001
0000
0010
0001
0010
0000
0001
0000
0100
0000
,
0010
0000
0100
0001
0100
0000
0001
0000
1000
0001
1000
0000
0001
0000
0100
0000
,
0001
0000
1000
0001
1000
0000
0100
0000
1000
0000
0001
1000
0001
0000
1000
0000
,
0001
0000
0010
0001
0010
0000
0100
0000
1000
0000
0100
1000
0100
0000
1000
0000
,
0010
0000
1000
0001
0100
0010
1000
0100
,
1000
0000
0000
1000
0001
0000
0010
0000
0100
0000
0000
0100
1000
0000
0010
0000
,
0100
0000
0001
0100
0001
0000
1000
0010
0000
1000
0100
0000
1000
0001
0010
0100
,
1000
0100
0010
0001
0010
0000
0000
0100
0000
1000
0010
0100
0001
0000
0100
0000
,
0010
1000
0100
1000
0001
0000
0010
0000
0000
0100
0010
0001
0010
0100
1000
0001
,
1000
0010
1000
0001
1000
0000
0000
0100
0000
1000
0010
1000
0001
0000
1000
0000
,
0100
0010
0001
0010
0100
0000
1000
0000
0000
0001
0100
0010
1000
0100
0010
0001
,
0010
0100
0010
0100
0000
0000
0010
0000
0100
1000
0100
1000
0000
0000
0100
0000
,
1000
0010
1000
0010
0000
0000
1000
0000
0001
0100
0001
0100
0000
0000
0001
0000
,
0010
0001
0010
0001
0010
0000
0100
0000
0010
0100
0010
0100
0010
0000
0100
0000
,
1000
0100
1000
0100
1000
0000
0100
0000
1000
0010
1000
0010
1000
0000
0010
0000
,
0100
0010
0100
0010
0000
0000
0100
0000
0001
0100
0001
0100
0000
0000
0001
0000
,
1000
0100
1000
0100
0000
0000
1000
0000
0001
0010
0001
0010
0000
0001
0000
0000
,
1000
0010
1000
0010
1000
0000
0010
0000
0100
0001
0100
0001
0100
0000
0001
0000
,
0010
0001
0010
0001
0010
0000
0100
0000
1000
0000
0001
0000
0100
0000
0010
0000
,
1000
0000
0000
1000
0010
0000
0100
0000
0001
0000
0000
0001
0010
0000
0100
0000
,
1000
0000
0000
1000
0010
0000
0100
0000
0001
0000
0100
0001
0100
0000
0001
0000
,
1000
0000
0000
1000
0100
0000
0010
0000
0001
0000
0010
0000
0100
0000
1000
0100
,
1000
0000
0010
0000
0100
0000
0001
0100
0001
0000
0100
0010
0000
1000
0010
0000
,
1000
0000
0100
1000
0000
0100
1000
0000
0001
0000
0010
0001
0000
0010
0001
0000
,
0010
0000
0100
0010
0000
0100
0010
0000
0100
0000
1000
0100
0000
1000
0100
0000
,
1000
0000
0010
1000
0000
0010
1000
0000
0001
0000
0100
0001
0000
0100
0001
0000
,
0010
0000
0001
0010
0000
0001
0010
0000
0100
0000
0010
0100
0000
0010
0100
0000
,
1000
0000
0100
1000
0000
0100
1000
0000
0010
0000
1000
0010
0000
1000
0010
0000
,
0100
0000
0010
0100
0000
0010
0100
0000
0010
0000
1000
0000
0001
0000
0100
0000
,
0001
0000
0100
0001
0100
0000
0010
0000
1000
0010
1000
0010
1000
0000
0010
0000
,
1000
0000
0100
1000
0100
0000
1000
0000
0001
0010
0001
0010
0001
0000
0010
0000
,
0100
0000
1000
0100
1000
0000
0100
0000
1000
0010
1000
0010
1000
0000
0010
0000
,
0100
0000
0001
0100
0001
0000
0100
0000
0001
1000
0001
1000
0001
0000
1000
0000
,
0100
0000
1000
0100
1000
0000
0001
0000
0010
0001
0010
0001
0010
0000
0100
0000
,
1000
0000
0100
1000
0100
0000
1000
0000
0010
1000
0010
1000
0010
0000
0100
0000
,
0001
0100
0000
0001
0100
0000
0001
0010
0000
0001
0010
0000
0100
0010
0000
0100
,
1000
0000
0100
1000
0000
0010
1000
0000
0001
1000
0100
1000
0001
0000
1000
0000
,
0100
0010
0001
0010
0100
0000
0000
1000
0000
0010
0100
0001
0100
0000
0010
0000
,
1000
0100
0010
0001
0010
0000
0100
0000
0000
1000
0010
0100
0001
0100
0010
1000
,
0100
0010
0001
0010
0100
0000
0000
1000
0000
0010
0100
0001
0100
0000
0010
0000
,
1000
0100
0010
0001
0010
0000
0100
0000
0000
1000
0010
0100
0001
0100
0010
1000
,
0100
0010
0001
0010
0100
0000
0000
1000
0000
0010
0100
0001
0100
0000
0010
0000
,
1000
0100
1000
0001
0010
0000
0001
0000
0000
1000
0010
0100
0001
1000
0010
1000
,
0100
0010
0001
1000
0001
0000
0000
0100
0000
0001
0100
0001
0100
0000
0001
0000
,
0010
0100
1000
0100
0010
0000
0001
0000
0000
1000
0100
0010
0001
0100
0010
1000
;

//---------------dance-single - Renard----------------
#NOTES:
     dance-single:
     Renard:
     Hard:
     9:
     0.566,0.585,0.009,0.000,0.369:
0000
0000
0000
0000
,
0000
0000
0000
0000
,
0000
0000
0000
0000
,
0000
0000
0000
0000
,
0001
0000
1000
0100
1000
0000
0000
0001
0000
0000
0010
0001
0010
0000
0000
0000
,
0001
0000
1000
0000
0010
0000
0100
0000
0000
0000
0001
0100
0001
0000
0100
0000
,
0010
0000
1000
0000
0100
0000
0000
0010
0000
0000
0001
0010
0001
0000
0000
0000
,
0010
0000
0100
0000
1000
0000
0001
0000
0000
0000
0100
0010
0100
0000
0010
0000
,
1000
0100
0010
0001
0010
0100
1000
0010
,
0100
0001
0010
0001
1000
0000
0000
0010
,
0100
0001
0010
0100
1000
0001
0100
0000
,
0000
0001
1000
0100
0010
0000
0110
0000
,
0010
0001
1000
0001
0100
0000
0001
0000
,
0000
0000
1000
0000
0100
0000
1000
0001
1000
0000
0001
0000
0100
0000
0000
0000
,
0010
1000
0010
0100
0001
0000
0010
0000
,
0001
0010
0100
1000
0001
0000
0100
0000
,
0001
0000
0000
1000
0100
0000
1000
0000
0001
0000
0010
0000
0001
0000
1000
0000
,
0001
0000
0000
0100
0001
0000
0100
0000
0001
0000
0010
0000
0100
0000
1000
0000
,
0001
0000
0000
0100
0010
0000
1000
0000
0100
0000
0010
0000
0001
0000
0010
0000
,
0100
0000
1000
0000
0001
0000
0010
0000
0001
0000
0000
1000
0010
0000
0100
0000
,
0001
0000
0000
0000
0000
0100
0010
0000
1000
0000
0100
0000
0010
0000
0001
0010
,
0001
0000
0000
0000
0010
0000
0100
0000
1000
0000
0001
0000
0100
0000
0010
0100
,
0010
0000
0100
0010
1000
0100
0010
0001
,
1000
0001
0010
0100
1000
0000
0001
0000
,
0100
0000
0010
1000
0010
0000
0000
0100
0000
0000
0001
0000
0010
0000
0000
0000
,
0100
1000
0001
0010
0001
0000
1000
0000
0000
0000
0010
0100
0010
0000
0100
0000
,
0001
0010
0001
0000
0010
0000
0000
0100
0000
0000
1000
0000
0001
0000
0000
0000
,
0100
0010
0100
0000
0010
0000
1000
0000
0000
0000
0010
0000
0100
0000
0001
0000
,
1000
0000
0000
1000
0000
0000
1000
0000
0001
0000
0000
0001
0000
0000
0001
0000
,
0100
0000
0000
0100
0000
0000
0100
0000
0010
0000
0000
0010
0000
0000
0010
0000
,
1000
0000
0000
1000
0000
0000
1000
0000
0001
0000
0000
0001
0000
0000
0001
0000
,
0010
0000
0000
0010
0000
0000
0010
0000
0100
0000
0000
0100
0000
0000
0100
0000
,
1000
0000
0001
1000
0010
0100
0100
0001
,
0010
0000
0000
0100
0000
0000
1000
0000
0001
0000
0000
0010
0000
0000
0001
0000
,
1000
0000
0000
0010
0000
0000
0100
0000
0001
0000
0000
0100
0000
0000
0010
0000
,
1000
0100
0010
0001
,
0010
0000
0100
1000
0100
0000
1000
0001
,
1000
0000
0001
0010
0001
0000
1000
0010
,
1000
0000
0001
0100
0010
1000
0100
0010
,
0001
0000
0010
0100
1000
0001
0100
0010
,
1000
0000
0000
0010
0000
0000
1000
0010
1000
0000
0000
0001
0000
0000
0100
0000
,
0001
0000
0000
0010
0000
0000
0100
1000
0100
0000
0000
1000
0000
0000
0001
0000
,
0010
0000
0000
0001
0000
0000
1000
0010
1000
0000
0000
0010
0000
0000
0100
0000
,
0001
0000
0000
0100
0000
0000
0010
1000
0010
0000
0000
1000
0000
0000
0100
0000
,
0010
0000
0000
0001
0000
0000
0010
0100
0010
0000
0000
0100
0000
0000
1000
0000
,
0010
0100
0001
0100
0010
1000
0010
1000
,
0001
0000
1000
0100
1000
0000
0001
0010
,
0001
0000
1000
0010
0100
0001
0010
0001
,
1000
0000
1000
0010
0100
0000
0100
0001
,
0010
0000
0000
0000
0010
0000
0100
0000
1000
0000
0001
1000
0000
0001
1000
0000
,
0010
0000
0100
0001
0010
0000
0100
1000
,
0001
0000
0000
0100
0010
0000
0100
0010
0100
0000
0010
0100
0000
0010
0100
0000
,
0010
1000
0100
0010
0001
0010
0100
1000
,
0001
0010
0100
1000
0001
0000
0000
0000
,
1000
0000
0100
1000
0100
0000
0000
1000
0000
0000
0001
0000
0010
0000
0001
0000
,
1000
0000
0010
1000
0010
0000
1000
0000
0000
0000
0001
0100
0001
0000
0100
0000
,
0010
1000
0010
1000
0001
0000
0000
1000
0000
0000
0100
0000
1000
0000
0000
0000
,
0001
0010
0001
0000
0010
0000
0001
0000
0000
0000
1000
0000
0010
0000
0100
0000
,
0001
1000
0001
1000
0001
0000
0000
1000
0000
0000
0100
0000
0010
0000
0000
0000
,
0001
0010
0001
0010
0001
0000
0010
0000
0000
0000
0100
1000
0100
0000
1000
0000
,
0001
0100
0001
0100
0010
0000
0000
1000
0000
0000
0100
0000
0010
0000
0000
0000
,
0001
0010
0100
1000
0001
0000
0100
0000
0000
0000
0010
1000
0001
0100
0010
1000
;

//---------------dance-single - Renard----------------
#NOTES:
     dance-single:
     Renard:
     Medium:
     5:
     0.392,0.409,0.000,0.000,0.000:
0000
0000
0000
0000
,
0000
0000
0000
0000
,
0000
0000
0000
0000
,
0000
0000
0000
0000
,
1000
0001
1000
0000
0010
0000
0010
0000
,
1000
0001
0100
0010
0000
1000
0010
0100
,
0001
0000
0010
0000
0001
1000
0001
0000
,
1000
0100
0010
0001
0000
1000
0001
0000
,
0100
0000
0100
0010
1000
0000
0010
0000
,
0100
0000
0100
0001
1000
0000
0100
0000
,
1000
0000
1000
0001
0010
0000
0100
0000
,
0100
0000
1000
0001
0100
0000
0001
0000
,
1000
0000
0100
1000
0100
0000
1000
0000
,
0001
0000
0010
0001
0010
0000
0001
0000
,
1000
0000
0010
1000
0010
0000
1000
0000
,
0001
0000
0100
0001
1000
0000
0100
0000
,
1000
0000
0001
0010
0001
0000
1000
0000
,
0010
0000
1000
0001
1000
0000
0100
0000
,
0010
0000
0001
1000
0001
0000
0100
0000
,
0010
0000
1000
0001
1000
0000
0100
0000
,
0010
0000
0000
0000
0001
0010
0100
1000
,
0001
0000
0000
0000
0001
0010
0100
1000
,
0001
0000
0000
0000
0001
0010
0100
1000
,
0001
0000
0001
0010
0100
0000
1000
0000
,
0001
1000
0001
0000
0100
0000
0100
0000
,
0010
1000
0001
0100
0000
0001
1000
0100
,
0010
0001
0010
0000
0100
0000
1000
0000
,
0001
0100
0010
1000
0000
0001
0100
0010
,
1000
0000
1000
0010
0100
0000
0100
0001
,
0010
0000
0010
0100
1000
0000
1000
0010
,
0100
0000
0100
0001
0010
0000
0010
0000
,
0001
0001
1000
1000
,
0010
0000
0010
0100
0001
0000
0001
0010
,
0100
0100
1000
0010
,
0100
0000
0100
0001
1000
0000
1000
0100
,
1000
0001
0010
0100
,
1000
0000
1000
0010
0100
0000
0001
0000
,
0010
0000
0100
1000
0010
0000
0100
0001
,
0010
0000
0000
0000
0000
0000
0000
0010
,
0100
0000
1000
0010
,
0100
0000
0000
0001
0100
0000
0000
0100
,
0010
1000
0100
0010
,
0001
0000
0000
0001
1000
0000
0000
1000
,
0100
0010
0001
1000
,
0010
0000
0000
0010
0100
0000
0000
0001
,
0100
0010
1000
0001
,
1000
0000
0100
1000
0100
0000
0000
0000
,
1000
0001
0010
0001
,
1000
0000
0010
1000
0001
0000
1000
0000
,
0001
0000
0100
0000
0010
0000
1000
0010
,
1000
0000
0000
0001
0100
0000
0001
0000
,
1000
0100
0010
0001
,
0010
0100
1000
0001
,
0010
0100
1000
0000
,
0001
0100
0010
1000
0010
0100
0001
0000
,
0001
0100
0010
1000
0000
0010
0100
0000
,
0001
0100
0010
0000
1000
0000
0010
0000
,
0100
0001
0100
0010
0000
1000
0010
0100
,
0001
0100
0010
0000
1000
0010
0100
0000
,
0001
0100
0010
1000
0000
0010
0100
0000
,
0001
0100
0010
0000
1000
0000
0010
0000
,
0100
0001
0100
0010
0000
1000
0010
1000
;

//---------------dance-single - Renard----------------
#NOTES:
     dance-single:
     Renard:
     Easy:
     2:
     0.259,0.263,0.009,0.123,0.000: // measure 1
0000
0000
0000
0000
,  // measure 2
0000
0000
0000
0000
,  // measure 3
0000
0000
0000
0000
,  // measure 4
0000
0000
0000
0000
,  // measure 5
1000
0100
0010
0001
,  // measure 6
0010
0100
1000
0000
,  // measure 7
0001
0010
0100
1000
,  // measure 8
0100
0010
0001
0000
,  // measure 9
2000
0000
0001
0010
,  // measure 10
0010
0000
3010
0000
,  // measure 11
0001
0002
1000
0100
,  // measure 12
0100
0000
0100
0003
,  // measure 13
2000
0000
0100
0010
,  // measure 14
0010
0000
0010
3000
,  // measure 15
0002
0000
0010
0100
,  // measure 16
1000
0000
1003
0000
,  // measure 17
2000
0000
3200
0000
,  // measure 18
0310
0001
0010
0100
,  // measure 19
2000
0000
3001
0010
,  // measure 20
0200
0000
1300
0001
,  // measure 21
0020
0000
0000
0031
,  // measure 22
2000
0000
0000
3010
,  // measure 23
0200
0000
0000
0301
,  // measure 24
0020
0000
0230
0000
,  // measure 25
1300
0100
0010
0001
,  // measure 26
0001
0010
0100
0000
,  // measure 27
1000
0100
0010
0001
,  // measure 28
0001
0010
0100
0000
,  // measure 29
1000
1000
0001
0001
,  // measure 30
0100
0100
0010
0010
,  // measure 31
1000
1000
0010
0100
,  // measure 32
0001
0000
0100
0000
,  // measure 33
0010
0000
0010
1000
,  // measure 34
0100
0000
0100
0010
,  // measure 35
0001
0000
0001
0100
,  // measure 36
0010
0000
0010
1000
,  // measure 37
0100
0000
0100
0010
,  // measure 38
0001
0000
0001
0010
,  // measure 39
0100
0000
0000
0000
,  // measure 40
0100
0000
0100
1000
,  // measure 41
0001
0000
0010
0000
,  // measure 42
0001
1000
0010
1000
,  // measure 43
0001
0000
0010
0000
,  // measure 44
0001
1000
0010
1000
,  // measure 45
0001
0000
0100
0001
,  // measure 46
1000
0100
0010
0000
,  // measure 47
0010
0000
0001
0000
,  // measure 48
0010
0100
1000
0001
,  // measure 49
0010
0000
0001
0000
,  // measure 50
1000
0100
0010
0001
,  // measure 51
0010
0000
0001
0000
,  // measure 52
0010
0100
1000
0001
,  // measure 53
0100
0000
0100
0010
,  // measure 54
1000
0000
1001
0000
,  // measure 55
1000
0100
0010
0001
,  // measure 56
1000
0100
0010
0001
,  // measure 57
0001
0010
0100
1000
,  // measure 58
0001
0010
0100
1000
,  // measure 59
1000
0010
0100
0001
,  // measure 60
0001
0100
0010
1000
,  // measure 61
1000
0001
0010
0100
,  // measure 62
0010
0001
1000
0010
;
