#TITLE:Steroids;
#SUBTITLE:;
#ARTIST:Jinx;
#TITLETRANSLIT:;
#SUBTITLETRANSLIT:;
#ARTISTTRANSLIT:;
#CREDIT:;
#BANNER:steroids.png;
#BACKGROUND:steroids-bg.png;
#LYRICSPATH:;
#CDTITLE:;
#MUSIC:steroids.ogg;
#OFFSET:0.000;
#SAMPLESTART:45.059;
#SAMPLELENGTH:12.000;
#SELECTABLE:YES;
#BPMS:0.000=255.209;
#STOPS:;
#BGCHANGES:;

//---------------dance-single - Renard----------------
#NOTES:
     dance-single:
     Renard:
     Challenge:
     9:
     0.766,0.874,0.608,0.000,0.000:
0000
0000
0000
0000
,
0000
0000
0000
0000
,
0000
0000
0000
0000
,
0000
0000
0000
0000
,
0000
0000
0000
0000
,
0000
0000
0000
0000
,
0000
0000
0000
0000
,
0000
0000
0000
0000
,
0000
0000
0000
0000
,
0000
0000
0000
0000
,
0000
0000
0000
0000
,
0000
0000
0000
0000
,
0001
0010
0000
0000
0100
1000
0100
1000
,
0100
1000
0000
0000
0001
0100
0001
0100
,
0001
0100
0000
0000
0010
1000
0010
1000
,
0010
1000
0000
0000
0100
1000
0100
1000
,
0100
1000
0000
0000
0001
0010
0001
0010
,
0001
0010
0000
0000
0100
1000
0100
1000
,
0100
1000
0000
0000
0001
0100
0001
0100
,
0001
0100
0000
0000
0010
1000
0010
1000
,
0010
1000
0000
0000
0001
0100
0001
0100
,
0001
0100
0000
0000
0010
1000
0010
1000
,
0100
1000
0000
0000
0001
0010
0001
0010
,
0001
0100
0000
0000
0001
1000
0001
1000
,
0001
1000
0000
0000
1001
0000
0001
0100
,
0000
0010
1000
0001
0100
0001
0000
0000
,
0001
1000
0000
1000
0001
0000
0001
0100
,
0000
0110
0000
0010
1000
0100
0010
0001
,
0010
0001
0000
0001
0010
0000
0010
0100
,
0000
1100
0000
0010
0100
0001
0000
0000
,
0000
0110
0000
0000
1010
0000
0000
1001
,
0000
1100
0000
1000
0100
0010
0000
0000
,
0010
0001
0000
0010
0100
0000
0000
1100
,
0000
1100
0000
1000
0100
1000
0000
0000
,
0001
0010
0000
0000
1001
0000
0000
1010
,
0000
1001
0000
0001
0100
0010
0000
0000
,
0000
0110
0000
0000
1010
0000
0000
1001
,
0000
1100
0000
1000
0100
0010
0000
0000
,
0000
0011
0000
0000
0110
0000
0000
1100
,
0000
1100
0000
0001
1000
0001
0000
0000
,
1000
0000
0001
0000
1001
0000
0001
0100
,
0010
1000
0000
0100
1000
0000
0000
0000
,
0000
0001
0010
0000
0001
0000
0010
0100
,
1000
0001
0000
0010
0100
0000
1000
0000
,
0010
0000
0100
0000
0001
0000
0100
0010
,
1000
0100
0000
1000
0100
0000
0000
0000
,
0000
0010
0001
0000
0010
0000
0100
1000
,
0001
0100
0000
0010
0100
0000
0010
0000
,
1000
0010
1010
1000
,
0100
0010
0000
0001
0010
0000
0000
0000
,
0100
1000
1100
1000
,
0001
0010
0100
1000
0001
0000
0100
0000
,
0010
0100
0110
0000
,
0010
1000
0000
0001
1000
0000
0100
0000
,
1000
0001
0010
0100
,
1001
1001
1001
1001
,
1001
0000
1001
0000
0010
0000
1000
0100
,
0010
0001
0000
0010
0001
0000
0000
0000
,
0000
0010
0100
0000
1000
0000
0010
0100
,
0001
0100
0000
0010
1000
0000
0100
0010
,
0001
0000
0010
0000
0011
0000
0010
0100
,
1000
0001
0000
1000
0001
0000
0000
0000
,
0000
0100
0001
0000
0100
0000
0010
1000
,
0100
0010
0000
0001
0010
0000
0100
0000
,
0110
0000
0110
0000
1100
0000
1000
0100
,
0010
0001
0000
0001
0010
0000
0000
0000
,
0000
0010
0100
0000
1000
0000
0010
0100
,
0001
0100
0000
0010
0100
0000
0110
0000
,
0110
0000
0110
0000
1001
0000
1000
0100
,
0010
0001
0000
0001
0010
0000
0000
0000
,
0100
0000
0100
0000
0010
0001
0000
0001
,
0000
1000
0001
0000
0000
1001
0000
0000
,
1000
0100
1000
0100
0010
0001
0010
0001
,
0100
0001
0100
0001
0100
0010
0100
0010
,
1000
0010
1000
0010
1000
0001
1000
0001
,
0100
0001
0100
0001
0100
0010
0100
0010
,
1000
0010
1000
0010
1000
0001
1000
0001
,
0100
0010
0100
0010
1000
0010
1000
0010
,
1000
0100
1000
0100
0010
0001
0010
0001
,
1000
0100
0010
0001
0010
0000
1001
0000
,
0001
0010
0001
0010
0100
1000
0100
1000
,
0010
1000
0010
1000
0010
0100
0010
0100
,
0001
0100
0001
0100
0001
1000
0001
1000
,
0010
1000
0010
1000
0010
0100
0010
0100
,
0001
0100
0001
0100
0001
1000
0001
1000
,
0010
0100
0010
0100
0001
0100
0001
0100
,
0001
0010
0011
0000
,
0010
0100
0000
0000
1001
0000
0000
0000
,
0000
1001
0000
0000
0110
0000
0000
0010
,
0000
1000
0000
0001
1000
0001
0000
0000
,
0000
0110
0000
0000
1001
0000
0000
0101
,
0000
0101
0000
1000
0010
1000
0000
0000
,
0000
1100
0000
0000
0011
0000
0000
1001
,
0000
1001
0000
0001
0100
0001
0000
0000
,
0000
0110
0000
0000
1010
0000
0000
1001
,
0000
1001
0000
1000
0100
1000
0000
0000
,
0000
0011
0000
0000
0110
0000
0000
0100
,
0000
1000
0000
0100
1000
0100
0000
0000
,
0000
1010
0000
0000
1001
0000
0000
0101
,
0000
0101
0000
0001
1000
0001
0000
0000
,
0000
1100
0000
0000
0011
0000
0000
1001
,
0000
1001
0000
0001
0100
0001
0000
0000
,
0110
0000
1001
0000
,
0110
0000
1001
0000
,
0001
1000
0000
0000
0010
0100
0010
0100
,
0010
0100
0000
0000
0010
1000
0010
1000
,
0010
1000
0000
0000
0001
0100
0001
0100
,
0001
0100
0000
0000
0001
0010
0001
0010
,
0001
0010
0000
0000
0100
0010
0100
0010
,
0100
0010
0000
0000
0100
1000
0100
1000
,
0100
1000
0000
0000
0010
1000
0010
1000
,
0010
1000
0000
0000
0001
0100
0001
0100
,
0001
0100
0000
0000
0001
0010
0001
0010
,
0001
0010
0000
0000
0100
0010
0100
0010
,
0100
0010
0000
0000
0100
1000
0100
1000
,
0100
1000
0000
0000
0001
1000
0001
1000
,
0001
0100
0000
0000
0010
0100
0010
0100
,
0010
0100
0000
0000
0010
1000
0010
1000
,
0001
1000
0000
0000
0100
1000
0100
1000
,
0001
0010
0000
0000
0100
0010
0100
0010
,
0110
0000
0000
0000
;

//---------------dance-single - Renard----------------
#NOTES:
     dance-single:
     Renard:
     Hard:
     8:
     0.535,0.565,0.111,0.000,0.000:
0000
0000
0000
0000
,
0000
0000
0000
0000
,
0000
0000
0000
0000
,
0000
0000
0000
0000
,
0000
0000
0000
0000
,
0000
0000
0000
0000
,
0000
0000
0000
0000
,
0000
0000
0000
0000
,
0000
0000
0000
0000
,
0000
0000
0000
0000
,
0000
0000
0000
0000
,
0000
0000
0000
0000
,
1000
0100
0000
0000
1000
0000
1000
0000
,
0001
0010
0000
0000
0001
0000
0001
0000
,
1000
0010
0000
0000
0100
0000
0100
0000
,
0001
0100
0000
0000
0001
0000
0001
0000
,
1000
0100
0000
0000
1000
0000
1000
0000
,
0001
0010
0000
0000
0001
0000
0001
0000
,
1000
0010
0000
0000
1000
0000
1000
0000
,
0001
0100
0000
0000
0001
0000
0001
0000
,
1000
0100
0000
0000
1000
0000
1000
0000
,
0001
0010
0000
0000
0010
0000
0001
0000
,
1000
0010
0000
0000
1000
0000
0010
0000
,
0100
0001
0000
0000
0100
0000
0001
0000
,
1000
0001
0000
0000
0100
0000
0000
0010
,
0000
1000
0000
0010
1000
0010
0000
0000
,
0100
0001
0000
0000
0010
0000
0000
0100
,
0000
1000
0000
0001
0010
0001
0000
0000
,
0010
0001
0000
0000
0010
0000
0000
0100
,
0000
1000
0000
0001
0100
0001
0000
0000
,
0100
0010
0000
0000
1000
0000
0000
0010
,
0000
0100
0000
0001
1000
0001
0000
0000
,
1000
0100
0000
0000
0010
0000
0000
0001
,
0000
0001
0000
0010
0100
1000
0000
0000
,
0000
0001
0000
0000
0100
0000
0000
0010
,
0000
1000
0000
0010
0100
0001
0000
0000
,
0000
0100
0000
0000
0010
0000
0000
1000
,
0000
0100
0000
0010
0001
0010
0000
0000
,
0000
0100
0000
0000
1000
0000
0000
0000
,
0001
0100
0001
0100
,
0010
0000
1000
0000
0010
0000
0100
0001
,
0100
0001
0000
0100
0010
0000
0000
0000
,
0000
1000
0010
0000
1000
0000
0100
0000
,
0010
0001
0010
0100
,
1000
0000
0001
0000
0010
0000
0001
1000
,
0001
1000
0000
0001
0100
0000
0000
0000
,
0000
0100
0010
0000
1000
0000
0100
0000
,
1000
0001
0010
0001
,
1000
1000
0010
0100
,
0001
0010
0000
0000
0110
0000
0000
0000
,
0100
1000
0010
0100
,
0001
1000
0000
0000
1001
0000
0000
0000
,
1000
0100
0010
0001
,
1000
0010
0000
0000
1010
0000
0000
0000
,
1000
0010
0100
0001
,
0010
0010
0010
0010
,
0001
0010
0100
0000
,
1000
0100
0000
1000
0100
0000
0000
0000
,
1000
0100
0010
0001
,
1000
0010
0100
0001
,
0010
0100
1000
0001
,
0010
0001
0000
0010
0001
0000
0000
0000
,
0010
0100
1000
0001
,
0100
0010
1000
0100
,
1000
0001
0010
0100
,
1000
0100
0000
1000
0100
0000
0000
0000
,
1000
0100
0010
0001
,
1000
0010
0100
0001
,
0010
0100
1000
0001
,
0010
0001
0000
0010
0001
0000
0000
0000
,
0010
0000
0010
0000
0000
0100
0000
1000
,
0000
0010
0100
0000
0000
0010
0000
0000
,
1000
0010
0100
0001
,
0010
0001
0000
0010
0001
0000
0010
0000
,
0100
1000
0001
0100
,
0010
1000
0000
0010
0100
0000
0001
0000
,
0010
0100
1000
0100
,
0010
0001
0000
0010
0100
0000
1000
0000
,
0001
0100
0010
1000
,
0100
0010
0000
0001
0010
0000
0100
0000
,
1000
0001
0100
0010
,
1000
0010
0000
0100
0001
0000
0100
0000
,
0010
1000
0100
0010
,
0001
0010
0000
0100
1000
0000
0001
0000
,
0100
0010
1000
0100
,
0010
0001
0000
0010
0100
0000
0000
0000
,
0010
0100
1000
0010
,
0100
0001
0101
0000
,
0001
0100
0000
0000
0010
0000
0000
1000
,
0000
0001
0000
1000
0100
1000
0000
0000
,
0000
0001
0000
0000
0010
0000
0000
0100
,
0000
1000
0000
0001
0100
0001
0000
0000
,
0000
0100
0000
0000
0010
0000
0000
1000
,
0000
0001
0000
1000
0100
1000
0000
0000
,
0000
0001
0000
0000
0010
0000
0000
0001
,
0000
1000
0000
0010
0100
0010
0000
0000
,
0000
1001
0000
0000
0110
0000
0000
0010
,
0000
1000
0000
0010
0100
0010
0000
0000
,
0000
0110
0000
0000
0101
0000
0000
0001
,
0000
0010
0000
0100
1000
0100
0000
0000
,
0000
1100
0000
0000
0110
0000
0000
0010
,
0000
0001
0000
0010
0100
0010
0000
0000
,
0110
0000
1100
0000
,
0011
0000
0000
0000
0001
1000
0000
0000
,
0010
1000
0000
0000
0010
0000
0010
0000
,
0100
0001
0000
0000
0001
0000
0001
0000
,
0010
0100
0000
0000
1000
0000
1000
0000
,
0010
0100
0000
0000
0001
0000
1000
0000
,
0010
0100
0000
0000
0001
0000
0001
0000
,
1000
0100
0000
0000
1000
0000
1000
0000
,
0001
0010
0000
0000
0001
0000
0010
0000
,
0100
1000
0000
0000
0001
0000
0001
0000
,
0100
0010
0000
0000
1000
0000
1000
0000
,
0010
0100
0000
0000
0001
0000
0001
0000
,
0100
0010
0000
0000
0010
0000
0010
0000
,
1000
0010
0000
0000
0010
0000
1000
0000
,
0100
0010
0000
0000
0001
0000
0010
0000
,
0100
1000
0000
0000
0001
0000
0010
0000
,
0001
1000
0000
0000
0010
0000
0100
0000
,
0001
0010
0000
0000
0100
1000
0100
1000
,
0100
0000
0000
0000
;

//---------------dance-single - Renard----------------
#NOTES:
     dance-single:
     Renard:
     Medium:
     7:
     0.420,0.463,0.017,0.000,0.000:
0000
0000
0000
0000
,
0000
0000
0000
0000
,
0000
0000
0000
0000
,
0000
0000
0000
0000
,
0000
0000
0000
0000
,
0000
0000
0000
0000
,
0000
0000
0000
0000
,
0000
0000
0000
0000
,
0000
0000
0000
0000
,
0000
0000
0000
0000
,
0000
0000
0000
0000
,
0000
0000
0000
0000
,
0000
0000
0000
0000
,
0000
0000
0000
0000
,
0000
0000
0000
0000
,
0000
0000
0000
0000
,
0000
0000
0000
0000
,
0000
0000
0000
0000
,
0000
0000
0000
0000
,
0000
0000
0000
0000
,
1000
0000
1000
0100
,
0010
0000
0001
0010
,
0100
0000
1000
0001
,
0100
0000
0010
1000
,
0010
0010
1000
0001
,
0100
0100
0010
1000
,
0100
0100
0010
0010
,
0001
0010
0100
1000
,
0001
0001
0100
0010
,
1000
1000
0010
0100
,
0001
0001
1000
0100
,
0010
0001
0010
0100
,
1000
1000
0001
0010
,
0100
0100
0010
0001
,
0010
0010
0001
1000
,
0001
0001
0010
0100
,
1000
1000
0100
0010
,
0100
0100
0010
0100
,
0010
0010
0001
1000
,
0001
0010
0100
1000
,
0001
0100
0010
0000
,
1000
0000
1000
0000
,
0010
1000
0001
0100
,
0010
1000
0100
0010
,
0001
0001
0010
0100
,
1000
0000
0001
0000
,
0010
0001
1000
0010
,
0100
0001
1000
0100
,
0010
0001
0010
0100
,
1000
0001
0100
0000
,
0010
1000
0001
0100
,
0001
1000
0100
0010
,
0001
0010
0100
1000
,
0001
0100
0010
0000
,
1000
0010
1000
0001
,
0100
0100
0100
0100
,
0010
1000
0010
0100
,
0001
1000
0100
0000
,
1000
0001
0010
0001
,
1000
0010
0100
0001
,
1000
0100
1000
0001
,
0010
0001
1000
0000
,
0001
0100
0001
1000
,
0010
1000
0001
1000
,
0100
1000
0001
0010
,
0001
1000
0001
0000
,
0100
0001
1000
0010
,
1000
0001
0100
0001
,
1000
0100
0010
0001
,
1000
0001
0010
0000
,
0100
1000
0001
0000
,
0100
0000
0100
0000
,
0010
1000
0010
1000
,
0001
0100
0001
0100
,
0010
1000
0010
1000
,
0001
0100
0001
0100
,
0010
1000
0010
1000
,
0001
0100
0001
0100
,
0010
1000
0010
1000
,
0001
0100
0010
1000
,
0100
1000
0100
1000
,
0001
0010
0001
0010
,
0100
1000
0100
1000
,
0001
0010
0001
0010
,
0100
1000
0001
0010
,
0100
1000
0100
0010
,
0001
1000
0100
0010
,
0001
0000
1001
0000
,
0000
0001
0000
0000
1000
0000
0000
0001
,
0000
1000
0000
0000
0001
0000
0000
0000
,
0000
0100
0000
0000
0010
0000
0000
0100
,
0000
0010
0000
0000
0100
0000
0000
0000
,
0000
0010
0000
0000
1000
0000
0000
0010
,
0000
1000
0000
0000
0010
0000
0000
0000
,
0000
0100
0000
0000
0001
0000
0000
0100
,
0000
0001
0000
0000
0100
0000
0000
0000
,
0000
0001
0000
0000
1000
0000
0000
0100
,
0000
1000
0000
0000
0001
0000
0000
0000
,
0000
0010
0000
0000
0001
0000
0000
1000
,
0000
0010
0000
0000
0100
0000
0000
0000
,
0000
0001
0000
0000
1000
0000
0000
0100
,
0000
1000
0000
0000
0001
0000
0000
0000
,
0010
0000
0001
0000
,
1000
0000
0100
1000
,
0001
0000
0001
0001
,
0010
0000
0010
0010
,
0100
0000
0100
0100
,
1000
0000
1000
1000
,
1000
0000
1000
1000
,
0010
0000
0010
0010
,
0100
0000
0100
0100
,
0001
0000
0001
0001
,
0001
0000
0001
0001
,
0010
0000
0010
0010
,
0100
0000
0100
0100
,
1000
0000
1000
1000
,
1000
0000
1000
1000
,
0010
0000
0010
0010
,
0100
0000
0100
0100
,
0001
0000
0001
1000
,
1001
0000
0000
0000
;

//---------------dance-single - Renard----------------
#NOTES:
     dance-single:
     Renard:
     Easy:
     4:
     0.361,0.463,0.026,0.034,0.000: // measure 1
0000
0000
0000
0000
,  // measure 2
0000
0000
0000
0000
,  // measure 3
0000
0000
0000
0000
,  // measure 4
0000
0000
0000
0000
,  // measure 5
0000
0000
0000
0000
,  // measure 6
0000
0000
0000
0000
,  // measure 7
0000
0000
0000
0000
,  // measure 8
0000
0000
0000
0000
,  // measure 9
0000
0000
0000
0000
,  // measure 10
0000
0000
0000
0000
,  // measure 11
0000
0000
0000
0000
,  // measure 12
0000
0000
0000
0000
,  // measure 13
1000
0000
0001
0001
,  // measure 14
0001
0000
0100
0100
,  // measure 15
0100
0000
0010
0010
,  // measure 16
0010
0000
1000
0001
,  // measure 17
1000
0000
0001
0001
,  // measure 18
0001
0000
1000
0010
,  // measure 19
1000
0000
0001
0001
,  // measure 20
0001
0000
1000
0000
,  // measure 21
0100
0000
0100
0010
,  // measure 22
0010
0000
0000
0000
,  // measure 23
0010
0000
0001
0001
,  // measure 24
0001
0000
0000
0000
,  // measure 25
1000
0000
0001
1000
,  // measure 26
0001
1000
0010
0000
,  // measure 27
1000
0000
0001
1000
,  // measure 28
0001
1000
0100
0000
,  // measure 29
1000
0000
0001
1000
,  // measure 30
0001
1000
0010
0000
,  // measure 31
1000
0000
0001
0000
,  // measure 32
0100
0100
0100
0000
,  // measure 33
0010
1000
0010
0000
,  // measure 34
0100
0000
0100
0000
,  // measure 35
0001
0010
0001
0000
,  // measure 36
0010
0000
0100
0000
,  // measure 37
1000
0001
1000
0000
,  // measure 38
0010
0000
0100
0000
,  // measure 39
0001
0000
1001
0000
,  // measure 40
1000
0100
1000
0000
,  // measure 41
0001
0001
0001
0000
,  // measure 42
0010
0000
0200
0000
,  // measure 43
0300
1000
0010
0000
,  // measure 44
0100
0000
0001
0000
,  // measure 45
0100
0100
0010
0000
,  // measure 46
1000
0000
0200
0000
,  // measure 47
0000
1300
0001
0000
,  // measure 48
0010
0000
0001
1000
,  // measure 49
0010
0100
0001
0000
,  // measure 50
1000
0000
0200
0000
,  // measure 51
0000
1300
0001
0000
,  // measure 52
0010
0001
1000
0000
,  // measure 53
0010
0100
0001
0000
,  // measure 54
1000
0010
0100
0000
,  // measure 55
0000
0001
0020
0000
,  // measure 56
0000
0130
0100
0100
,  // measure 57
1000
0100
1000
0000
,  // measure 58
0001
0000
0010
0000
,  // measure 59
0000
0001
1000
0010
,  // measure 60
0100
0000
0001
0100
,  // measure 61
0010
1000
0001
0000
,  // measure 62
1000
0000
0100
0000
,  // measure 63
0000
1000
0001
0010
,  // measure 64
0001
0000
1000
0010
,  // measure 65
0100
0001
0100
0010
,  // measure 66
1000
0000
0001
0000
,  // measure 67
0000
0010
0001
1000
,  // measure 68
0001
0100
0010
1000
,  // measure 69
0100
0000
1000
0000
,  // measure 70
0001
0010
0001
0000
,  // measure 71
1000
0000
1010
0000
,  // measure 72
0000
1000
0000
0001
,  // measure 73
1000
0001
1000
0000
,  // measure 74
0001
1000
0001
0000
,  // measure 75
1000
0001
1000
0001
,  // measure 76
1000
0001
1000
0001
,  // measure 77
0100
0010
0100
0000
,  // measure 78
0010
0100
0010
0000
,  // measure 79
0000
0100
0010
0100
,  // measure 80
0010
0100
0010
0100
,  // measure 81
0010
1000
0010
0000
,  // measure 82
0100
0001
0100
0000
,  // measure 83
0001
0010
0001
0000
,  // measure 84
0010
0100
0010
0000
,  // measure 85
0100
1000
0001
0000
,  // measure 86
0010
0001
1000
0000
,  // measure 87
0001
0000
0100
0000
,  // measure 88
0010
1000
0010
0000
,  // measure 89
0000
0100
0100
0000
,  // measure 90
0100
0000
0100
0000
,  // measure 91
0000
0010
0010
0000
,  // measure 92
0010
0000
0010
0000
,  // measure 93
0000
1000
1000
0000
,  // measure 94
1000
0000
1000
0000
,  // measure 95
0000
0001
0001
0000
,  // measure 96
0001
0000
0001
0000
,  // measure 97
0100
0000
0000
0000
,  // measure 98
0000
0000
0000
0000
,  // measure 99
0010
0000
1000
0000
,  // measure 100
0100
0010
0001
0000
,  // measure 101
1001
0000
0000
0000
,  // measure 102
0001
0000
0100
0000
,  // measure 103
0010
0000
0010
0000
,  // measure 104
0010
0000
1000
0001
,  // measure 105
0100
0000
0100
0100
,  // measure 106
0100
0000
0010
0010
,  // measure 107
0010
0000
1000
1000
,  // measure 108
1000
0000
0001
0001
,  // measure 109
0001
0000
0010
0010
,  // measure 110
0010
0000
0100
0100
,  // measure 111
0100
0000
1000
1000
,  // measure 112
1000
0000
0001
0001
,  // measure 113
0010
0000
0010
0001
,  // measure 114
1000
0000
1000
0001
,  // measure 115
0010
0000
0001
1000
,  // measure 116
0100
0000
1000
0001
,  // measure 117
0100
0000
0100
0010
,  // measure 118
1000
0000
0001
0010
,  // measure 119
0100
0000
1000
0010
,  // measure 120
0100
0001
0010
0010
,  // measure 121
0010
0000
0000
0000
;
