#TITLE:Speedy;
#SUBTITLE:;
#ARTIST:Kitsune²;
#TITLETRANSLIT:;
#SUBTITLETRANSLIT:;
#ARTISTTRANSLIT:;
#CREDIT:;
#BANNER:speedy.png;
#BACKGROUND:speedy-bg.png;
#LYRICSPATH:;
#CDTITLE:;
#MUSIC:speedy.ogg;
#OFFSET:0.000;
#SAMPLESTART:19.692;
#SAMPLELENGTH:12.000;
#SELECTABLE:YES;
#BPMS:0.000=390.000;
#STOPS:;
#BGCHANGES:;

//---------------dance-single - Renard----------------
#NOTES:
     dance-single:
     Renard:
     Hard:
     10:
     0.845,1.000,0.025,0.025,0.000:
0000
0000
0000
0000
,
0000
0000
0000
0000
,
0000
0000
0000
0000
,
0000
0000
0000
0000
,
0000
0000
0000
0000
,
0000
0000
0000
0000
,
0000
0000
0000
0000
,
0000
0000
0000
0000
,
1000
0001
0100
0010
,
1000
0100
0010
0001
,
1000
0000
0001
0000
0100
0000
0000
0010
,
0000
1000
0100
0010
,
0001
0010
0000
0000
0100
0000
1000
0000
,
0001
0100
0010
0000
,
1000
0010
0100
0000
,
0001
0000
1001
0000
,
1000
0000
0000
0000
0001
0100
0001
0100
,
0001
0000
1000
0000
,
0100
0000
0000
0100
0010
0000
0001
0000
,
0010
0000
0100
0000
,
1000
0000
0000
0000
0010
1000
0010
1000
,
0010
0000
0100
0000
,
0001
0000
1000
0001
1000
0000
0001
1000
,
0001
0000
1000
0000
,
0010
0000
0000
0010
0100
0000
0001
0000
,
0010
0000
0100
0000
,
1000
0001
0100
0010
,
1000
0000
0001
0000
,
0100
0000
0000
0000
0010
0000
1000
0010
,
1000
0000
0100
0000
,
0010
0000
0001
0010
0001
0000
1000
0100
,
1000
0000
0000
0000
0001
0100
0001
0100
,
0001
0000
0000
0000
1000
0010
1000
0010
,
1000
0000
0001
0000
,
0010
0000
0000
0010
0100
0000
1000
0000
,
0100
0000
0010
0000
,
0001
0000
0000
0000
0100
0001
0100
0001
,
0100
0000
0010
0000
,
1000
0000
0001
1000
0001
0000
1000
0001
,
1000
0000
0001
0000
,
0100
0000
0000
0100
0010
0000
1000
0000
,
0100
0000
0010
0000
,
0001
1000
0010
0100
,
0001
0000
1000
0000
,
0010
0000
0000
0000
0100
0000
0001
0100
,
0001
0000
0010
0000
,
0100
0000
1000
0100
1000
0000
0001
0010
,
0001
0000
1000
0000
,
0001
0000
0001
0100
,
0000
0100
0010
0000
,
1000
0010
0100
0001
,
0010
0000
0001
0000
1000
0001
1000
0000
,
0001
0000
0001
0100
,
0000
0100
0001
0000
,
1000
0100
1000
0000
0001
0010
0001
0000
,
1000
0010
0100
0001
,
0010
0000
0010
0100
,
0000
0100
1000
0000
,
0001
0000
0100
0001
0100
0000
0001
0000
,
1000
0000
0100
1000
0100
0000
0010
0000
,
0001
1000
0010
0100
,
0001
0100
0010
1000
,
0001
0100
0001
1000
,
0100
0010
0001
1000
,
0001
0000
1000
0001
1000
0000
0001
0000
,
0100
0010
1000
0100
,
0010
0000
0100
0010
0100
0000
1000
0000
,
0010
0000
1000
0010
1000
0000
0010
0000
,
0100
0000
0001
0100
0001
0000
0010
0000
,
0100
0000
0010
0100
0010
0000
0100
0000
,
1000
0001
1000
0001
1000
0000
0000
0000
,
0001
1000
0001
1000
0001
0000
0000
0000
,
1000
0010
0100
0001
,
0010
0000
0001
0010
0001
0000
0010
0000
,
0100
1000
0001
0100
,
0010
0000
1000
0010
1000
0000
0010
0000
,
1000
0000
0010
0100
0010
0000
0100
0000
,
0001
0000
1000
0001
1000
0000
0001
0000
,
1000
0000
0100
1000
0100
0000
0010
0100
,
0010
0000
0001
0010
0001
0000
1000
0000
,
0001
0100
0001
1000
,
0000
1000
0010
0000
,
0010
0100
0001
0010
,
0100
0000
0100
0000
,
1000
0000
1000
0010
,
0000
0010
0100
0000
,
0100
0000
0001
0000
0010
0000
0001
1000
,
0001
0000
1000
0000
,
0001
0000
0001
0100
,
0000
0100
0010
0000
,
1000
0000
0001
0000
0100
0000
0001
1000
,
0001
0000
1000
0000
,
0100
0000
0100
0010
,
0000
0010
0001
0000
,
1000
0000
0001
0100
0001
0000
1000
0100
,
1000
0001
0010
0001
,
1000
0000
1000
0010
,
0000
0010
0100
0000
,
0001
0100
0001
0100
0001
0000
0000
0000
,
1000
0010
1000
0010
1000
0000
0000
0000
,
0001
0000
0001
0100
,
0000
0100
0010
0000
,
1000
0100
1000
0100
1000
0000
0000
0000
,
0001
0010
0001
0010
0001
0000
0000
0000
,
0001
0000
0001
0100
,
0000
0100
0010
0000
,
1000
0001
0100
0010
,
1000
0000
0000
0000
0001
1000
0001
1000
,
0001
0000
1000
0010
,
0100
0000
0001
0100
,
0001
0000
0100
0000
,
0010
1000
0010
1000
0010
0000
1000
0000
,
0010
0100
0001
0010
,
0001
0010
0001
0000
1000
0000
0010
0000
,
0100
0001
1000
0100
,
0010
0100
0010
0000
0100
0000
1000
0000
,
0010
0000
0100
0000
0001
0100
0001
0000
,
1000
0000
0010
0000
1000
0001
1000
0000
,
0001
1000
0001
0000
1000
0010
0100
0001
,
0010
0100
1000
0001
1000
0000
1000
0000
,
0010
1000
0001
0100
,
0010
1000
0010
1000
0010
0000
0100
0000
,
0001
0010
0100
1000
,
0001
0100
0001
0100
0001
0000
0100
0000
,
0010
0000
1000
0000
0100
0010
0100
0000
,
0010
0000
0100
0000
1000
0001
1000
0000
,
0001
0100
0010
1000
0001
0100
0010
1000
,
0001
0100
0010
1000
,
2002
0000
0000
0000
,
3003
0000
0000
0000
;

//---------------dance-single - Renard----------------
#NOTES:
     dance-single:
     Renard:
     Medium:
     8:
     0.584,0.720,0.088,0.000,0.000:
0000
0000
0000
0000
,
0000
0000
0000
0000
,
0000
0000
0000
0000
,
0000
0000
0000
0000
,
0000
0000
0000
0000
,
0000
0000
0000
0000
,
0000
0000
0000
0000
,
0000
0000
0000
0000
,
0000
0000
0000
0000
,
0000
0000
0000
0000
,
0000
0000
0000
0000
,
0000
0000
0000
0000
,
0000
0000
0000
0000
,
0000
0000
0000
0000
,
0000
0000
0000
0000
,
0000
0000
0000
0000
,
1001
0000
1000
0100
,
0010
0000
0001
0000
,
0010
0000
0100
1000
,
0001
0000
0010
0000
,
0001
0000
1000
0010
,
0100
0000
0001
0000
,
0100
0010
1000
0100
,
0010
0000
0001
0000
,
0010
0000
0100
1000
,
0001
0000
0010
0000
,
0001
0100
0010
1000
,
0100
0000
1000
0000
,
0001
0010
0100
1000
,
0001
0000
0100
0000
,
0001
1000
0100
0010
,
0001
0000
0010
0100
,
1000
0001
0100
0010
,
1000
0000
0010
0000
,
1000
0010
0100
0001
,
0010
0000
0001
0000
,
0010
0100
1000
0001
,
0100
0000
0001
0000
,
1000
0100
0010
0001
,
0010
0000
0011
0000
,
0010
0000
0100
1000
,
0001
0000
0101
0000
,
0110
0000
0010
1000
,
0100
0000
1100
0000
,
0110
0000
0010
0001
,
1000
0000
0010
0000
,
0010
0100
0001
0010
,
0100
0000
1000
0010
,
0100
0000
0100
0010
,
0000
0010
1000
0000
,
0100
0010
0001
0010
,
0100
1000
0001
0100
,
0010
0000
0010
1000
,
0000
1000
0010
0000
,
0100
0001
0010
0100
,
1000
0100
0010
0001
,
0100
0000
0100
0010
,
0000
0010
0100
0000
,
0001
0010
0100
1000
,
0100
0010
0001
1000
,
0100
0000
0100
1000
,
0001
0000
0001
0010
,
0100
0000
1000
0000
,
1000
0000
0001
0000
,
0100
0000
0100
0010
,
1000
0000
0010
0000
,
0100
0000
0001
0010
,
0100
0000
0110
0000
,
0100
0000
1000
0010
,
0100
0000
0001
0000
,
0010
0100
0010
0001
,
1000
0000
0100
0000
,
0010
0000
0100
1000
,
0010
0000
0100
0000
,
0001
0100
0010
1000
,
0100
0000
0010
0000
,
0001
0000
0010
0100
,
1000
0000
0001
0000
,
0100
0010
1000
0100
,
0010
0000
0001
0000
,
0010
0000
0000
0100
,
0000
0000
1000
0000
,
0010
0000
0100
0000
,
0010
0000
0100
0000
,
0001
0000
0000
0010
,
0000
0000
0100
0000
,
1000
0000
0001
0000
,
1000
0000
0001
0000
,
0100
0000
0000
0010
,
0000
0000
1000
0000
,
0010
0000
0100
0000
,
0010
0000
0100
0000
,
0001
0000
0010
0100
,
1000
0000
0010
0100
,
0001
0000
0100
0000
,
0010
0000
1000
0000
,
0100
0000
0100
0010
,
0000
0010
0001
0000
,
0001
1000
0000
1000
,
0010
0000
0100
0000
,
0001
0000
0001
1000
,
0000
1000
0100
0000
,
0100
0000
0100
0010
,
0000
0010
0001
0000
,
1000
0000
1000
0010
,
0000
0010
0100
0000
,
0001
0000
0010
0000
,
0100
1000
0100
0010
,
0001
0000
0001
0010
,
0100
0000
0100
1000
,
0010
0000
0100
0000
,
0001
0000
0100
0000
,
0010
1000
0010
1000
,
0001
0100
0001
0100
,
0001
0010
0001
0010
,
0100
1000
0100
1000
,
0001
0100
0001
0100
,
0010
1000
0010
1000
,
0100
1000
0100
0010
,
0001
0010
0001
0010
,
0100
1000
0100
1000
,
0001
0100
0001
0100
,
0010
1000
0010
1000
,
0100
1000
0100
1000
,
0001
0010
0100
1000
,
0100
0010
0001
1000
,
0100
0010
0001
0010
,
0100
1000
0001
0010
,
0100
0000
0000
0000
;

//---------------dance-single - Renard----------------
#NOTES:
     dance-single:
     Renard:
     Easy:
     4:
     0.397,0.560,0.050,0.163,0.000: // measure 1
0000
0000
0000
0000
,  // measure 2
0000
0000
0000
0000
,  // measure 3
0000
0000
0000
0000
,  // measure 4
0000
0000
0000
0000
,  // measure 5
0000
0000
0000
0000
,  // measure 6
0000
0000
0000
0000
,  // measure 7
0000
0000
0000
0000
,  // measure 8
0000
0000
0000
0000
,  // measure 9
1001
0000
0000
0000
,  // measure 10
1000
0000
0001
0000
,  // measure 11
1001
0000
0000
0000
,  // measure 12
0001
0000
1000
0000
,  // measure 13
1001
0000
0000
0000
,  // measure 14
0001
0000
1000
0000
,  // measure 15
0001
0000
0100
0000
,  // measure 16
0010
0000
0000
0000
,  // measure 17
1000
0000
1000
0000
,  // measure 18
0010
0000
1000
0000
,  // measure 19
0001
0000
0000
0000
,  // measure 20
0100
0000
0001
0000
,  // measure 21
1000
0000
0100
0000
,  // measure 22
1000
0000
0000
0000
,  // measure 23
0001
0000
0010
0000
,  // measure 24
0001
0000
0000
0000
,  // measure 25
1000
0000
0001
0000
,  // measure 26
0100
0000
0001
0000
,  // measure 27
1000
0000
0000
0000
,  // measure 28
0100
0000
1000
0000
,  // measure 29
0001
0000
0000
0000
,  // measure 30
0010
0000
0001
0000
,  // measure 31
1000
0000
0001
0000
,  // measure 32
0100
0000
0001
0100
,  // measure 33
0001
0000
1000
0000
,  // measure 34
0100
0000
1000
0000
,  // measure 35
0001
0000
0000
0010
,  // measure 36
0001
0000
0010
0000
,  // measure 37
0100
0000
0000
1000
,  // measure 38
0100
0000
0000
0000
,  // measure 39
1000
0000
0000
0010
,  // measure 40
1000
0000
0000
0000
,  // measure 41
0001
0000
0100
0001
,  // measure 42
0100
0000
0000
0000
,  // measure 43
0001
0000
1000
0000
,  // measure 44
0100
0000
0010
0000
,  // measure 45
0001
0000
0000
1000
,  // measure 46
0001
0000
1000
0000
,  // measure 47
0001
0000
0010
0000
,  // measure 48
0100
0000
1000
0000
,  // measure 49
0001
0000
0000
1000
,  // measure 50
0000
0000
0001
0000
,  // measure 51
0100
0000
0010
0000
,  // measure 52
0100
0000
0010
0000
,  // measure 53
1000
0000
0000
0001
,  // measure 54
0000
0000
1000
0000
,  // measure 55
0100
0000
0010
0000
,  // measure 56
0100
0000
0010
0000
,  // measure 57
0001
0000
0000
1000
,  // measure 58
0000
0000
0001
0000
,  // measure 59
0010
0000
0100
0000
,  // measure 60
0010
0000
0100
0000
,  // measure 61
1000
0000
0001
0000
,  // measure 62
0010
0000
0100
0000
,  // measure 63
1000
0000
0100
0000
,  // measure 64
0010
0000
0001
0000
,  // measure 65
1000
0000
1000
0000
,  // measure 66
0001
0000
0001
0000
,  // measure 67
0010
0000
0100
0010
,  // measure 68
0100
0000
0000
0000
,  // measure 69
1000
0000
1000
0000
,  // measure 70
0001
0000
0001
0000
,  // measure 71
0100
0000
0010
0100
,  // measure 72
0010
0000
0000
0000
,  // measure 73
1000
0000
0000
0000
,  // measure 74
0010
0000
0000
0000
,  // measure 75
0100
0000
0001
0100
,  // measure 76
0001
0000
0000
0000
,  // measure 77
1000
0000
0000
0000
,  // measure 78
0100
0000
0000
0000
,  // measure 79
0010
0000
0001
0000
,  // measure 80
0010
0000
0100
0000
,  // measure 81
1000
0000
0000
0001
,  // measure 82
0000
0000
0010
0000
,  // measure 83
0100
0000
0000
0000
,  // measure 84
0100
0000
0000
0000
,  // measure 85
1000
0000
0000
0010
,  // measure 86
0000
0000
0100
0000
,  // measure 87
0001
0000
0000
0000
,  // measure 88
0001
0000
0000
0000
,  // measure 89
0100
0000
0000
0010
,  // measure 90
0000
0000
1000
0000
,  // measure 91
0100
0000
0000
0000
,  // measure 92
0100
0000
1000
0000
,  // measure 93
0001
0000
0001
0010
,  // measure 94
0100
0000
0100
1000
,  // measure 95
0100
0000
1000
0000
,  // measure 96
0001
0000
0010
0000
,  // measure 97
0001
0000
0000
1000
,  // measure 98
0000
0000
0010
0000
,  // measure 99
0200
0000
0000
0000
,  // measure 100
0302
0000
0000
0000
,  // measure 101
2003
0000
0000
0000
,  // measure 102
3200
0000
0000
0000
,  // measure 103
0320
0000
0000
0000
,  // measure 104
0032
0000
0023
0000
,  // measure 105
0230
0000
0000
0000
,  // measure 106
0000
0000
0000
0000
,  // measure 107
2300
0000
0000
0000
,  // measure 108
3020
0000
0000
0000
,  // measure 109
0230
0000
0000
0000
,  // measure 110
0302
0000
0000
0000
,  // measure 111
2000
0000
0000
0000
,  // measure 112
0000
0000
3003
0000
,  // measure 113
1000
0000
0001
0000
,  // measure 114
0100
0001
0100
0000
,  // measure 115
0001
1000
0001
0000
,  // measure 116
0000
0000
0000
0000
,  // measure 117
1000
0000
0100
0000
,  // measure 118
1000
0001
1000
0000
,  // measure 119
0001
0100
0001
0000
,  // measure 120
0000
0000
0000
0000
,  // measure 121
0001
0000
1000
0000
,  // measure 122
0001
1000
0001
0000
,  // measure 123
1000
0100
1000
0000
,  // measure 124
0000
0000
1000
0000
,  // measure 125
0001
0000
0010
0000
,  // measure 126
0001
1000
0001
0000
,  // measure 127
1000
0001
1000
0000
,  // measure 128
0001
0000
1000
0000
,  // measure 129
1001
0000
0000
0000
;
