#TITLE:Sordid;
#SUBTITLE:;
#ARTIST:Amon Tobin;
#TITLETRANSLIT:;
#SUBTITLETRANSLIT:;
#ARTISTTRANSLIT:;
#CREDIT:;
#BANNER:sordid.png;
#BACKGROUND:sordid-bg.png;
#LYRICSPATH:;
#CDTITLE:;
#MUSIC:sordid.ogg;
#OFFSET:0.000;
#SAMPLESTART:82.832;
#SAMPLELENGTH:12.000;
#SELECTABLE:YES;
#BPMS:0.000=113.000,122.000=226.000,124.000=113.000,138.000=226.000,140.000=113.000,144.000=56.500,145.000=113.000;
#STOPS:44.750=0.531
,45.750=0.531
,46.750=1.593
,75.750=1.593
,123.000=0.531
,139.000=0.531
;
#BGCHANGES:;

//---------------dance-single - Renard----------------
#NOTES:
     dance-single:
     Renard:
     Challenge:
     11:
     0.743,1.000,0.509,0.058,0.981:
0000
0000
0000
0000
,
0000
0000
0000
0000
,
0000
0000
0000
0000
,
0000
0000
0000
0000
,
0000
0000
0000
0000
,
1000
0000
0001
0000
0101
0100
0000
0010
1000
0000
0100
1000
0001
0000
1000
0000
,
1001
0000
1000
0000
1010
1000
0000
0010
0100
0000
0001
0010
0100
0000
1000
0000
,
1100
0000
1000
0000
1010
0010
0000
0010
0100
0000
0001
0010
0100
0000
1000
0000
,
1001
0000
0001
0000
0101
0100
0000
0000
0110
0000
0000
0010
1000
0000
0000
0000
,
0101
0100
0110
0000
1010
1000
1100
0000
,
0110
0010
0011
0000
0110
0100
1100
0000
,
2002
0000
0000
3003
0220
0000
0000
0330
2002
0000
0000
3003
0010
0000
1000
0010
,
0000
1000
0001
0000
1000
0000
0100
0010
0001
0000
0010
0000
0100
0000
1000
0010
,
0000
0100
0001
0000
0100
0000
0010
1000
0001
0000
1000
0000
0100
0000
1000
0001
,
0000
0010
0100
0000
1000
0000
0001
1000
0001
0000
0100
0000
0010
0000
1000
0100
,
0000
0010
0001
0000
0010
0000
0100
1000
0001
0000
0100
0000
0110
0000
1010
0000
,
1000
0100
0000
0010
0001
0000
0010
0100
1000
0000
0001
0000
0011
0000
0110
0000
,
0100
1000
0000
0000
0110
0000
0000
0001
0100
0000
0010
0000
1001
0000
1100
0000
,
0000
0010
0000
0000
0011
0000
0110
1000
0000
0000
0000
0000
1001
0000
0101
0000
,
0001
0000
0001
1000
0000
1000
0100
0000
0100
1000
0010
0100
0001
0010
0100
1000
,
0001
0000
0001
0100
0000
0100
0010
1000
0100
1000
0001
0010
0100
1000
0001
0100
,
0010
0000
0010
1000
0000
1000
0001
1000
0100
0010
0001
0010
0100
1000
0001
0100
,
0010
0000
0010
1000
0000
1000
0100
1000
0001
0010
0100
1000
0001
0100
0010
1000
,
0001
0000
0001
1000
0000
1000
0010
0000
0100
0001
0100
0001
0100
0010
1000
0000
,
0001
0000
0000
0100
0000
0000
1000
0000
0000
0100
0000
0000
0010
0000
0000
0000
0000
0000
0110
0000
0000
0000
0000
0000
0010
0000
0000
1000
0000
0000
0000
0000
0000
1000
0000
0000
0100
0000
1000
0000
0100
0000
1000
0000
0100
0000
1000
0000
,
0001
0010
0100
1000
0000
1000
0010
0100
0001
0100
0010
1000
0001
1000
0001
1000
,
1001
0000
0000
0000
0000
0000
0001
0000
0000
0101
0000
0000
0000
0000
0000
0010
0000
0000
1000
0000
0000
0000
0000
0000
0001
0000
0100
0000
0001
0000
0100
0000
0000
0000
0001
0000
0000
0000
0000
0000
0100
0000
0001
0000
0100
0000
0001
0000
,
1000
0000
0100
1000
0000
0010
0100
0001
0010
0100
1000
0001
0100
0010
1000
0100
,
1000
0001
1000
0001
1000
0001
1000
0001
0100
0010
0100
0010
0100
0010
0100
0010
1000
0001
1000
0001
1000
0001
1000
0001
0100
0010
0100
0010
0100
0010
0100
0010
,
1000
0000
1000
0001
0000
0001
0100
0000
0100
0010
1000
0100
0010
0001
0010
0100
,
1000
0000
0001
0100
0000
0000
0001
0000
1000
0100
0000
0000
1001
0000
0000
0000
0000
0000
0000
0000
0000
0000
0000
0000
,
1000
0100
1000
0100
1000
0100
0010
0001
0010
0001
0010
0001
0100
0001
0100
0001
0100
0001
1000
0010
1000
0010
1000
0010
,
0100
0000
0000
0100
0001
0000
0100
0000
0000
0100
0001
0000
1000
0000
0000
0000
0001
0100
0001
0100
0001
0100
0001
0100
0001
0000
0100
0000
0001
0000
0100
0000
,
0001
0000
0000
0000
0000
0000
1000
0000
0000
0100
0000
0000
0010
0000
0001
0000
1000
0000
0100
0000
0010
0000
0001
0000
1000
0000
0100
0000
0010
0000
0001
0000
0010
0000
0100
0000
1000
0000
0001
0000
0010
0000
0100
0000
1000
0000
0100
0000
,
0010
0001
1000
0100
0010
0001
0010
0100
1000
0001
0010
0100
1001
0000
0000
0000
0000
0000
0000
0000
0000
0000
0000
0000
,
0001
0100
0000
0100
0010
0000
1010
0000
1000
0000
0100
0000
0110
0000
0100
1000
,
0001
0100
0010
1001
0110
0000
1001
0000
1100
0000
0000
1000
0010
0100
0001
0000
,
0100
0000
1001
0000
1000
0100
0010
0000
0110
0000
0100
1000
0010
0100
0001
0000
,
0100
0000
0101
0000
1000
0100
0010
0000
0110
0000
0010
0100
1000
0010
0100
0000
,
0001
0000
0101
0000
1000
0000
0100
1000
0001
0000
1000
0000
0001
0100
0010
0000
,
1000
0000
1010
0000
1000
0100
0010
0000
0011
0000
0010
0100
1000
0001
0100
0000
,
0010
0000
1010
0000
1000
0100
0010
0000
0011
0000
0010
0000
0100
1000
0001
0000
,
0100
0000
1010
0000
1000
0000
0001
0000
0101
0000
0000
0000
0001
1000
0100
0000
,
1000
0000
0010
0000
0100
0001
1000
0100
0000
0000
1000
0000
0010
0000
0100
0000
,
0001
0010
0100
0000
1000
0001
0100
0010
0000
0000
0010
0000
1000
0000
0100
0000
,
0010
0001
0000
0000
0010
0000
0000
0100
0000
0000
0000
0000
1000
0000
0010
0000
,
0000
0100
0000
0000
0001
0000
0000
1001
0000
0000
0000
0000
0000
0000
0000
0000
;

//---------------dance-single - Renard----------------
#NOTES:
     dance-single:
     Renard:
     Hard:
     8:
     0.435,0.491,0.173,0.019,0.365:
0000
0000
0000
0000
,
0000
0000
0000
0000
,
0000
0000
0000
0000
,
0000
0000
0000
0000
,
0000
0000
0000
0000
,
1000
0000
0100
0000
1100
0000
0000
0000
0010
0000
0000
0001
1000
0000
0000
0000
,
0001
0000
0100
0000
0101
0000
0000
0000
0100
0000
0000
0010
1000
0000
0000
0000
,
0100
0000
1000
0000
1100
0000
0000
0000
1000
0000
0000
0001
0010
0000
0000
0000
,
0001
0000
1000
0000
1001
0000
0000
0000
0100
0000
0000
0010
1000
0000
0000
0000
,
0010
1000
1100
0000
0010
0001
0101
0000
,
0010
1000
1100
0000
0010
0001
0101
0000
,
0010
0000
1000
0000
0001
0000
0100
0000
0001
0000
1000
0000
0100
0000
0100
1000
,
0000
1000
0001
0000
0010
0000
0000
0000
1001
0000
0000
0000
0001
0000
0001
0010
,
0000
0100
0000
0000
1000
0000
0000
0010
0100
0000
0000
0000
0001
0000
0001
0100
,
0000
0100
0010
0000
1000
0000
0000
0100
0010
0000
0000
0000
0001
0000
0001
1000
,
0000
0100
0000
0000
0010
0000
0000
0001
1000
0000
0000
0000
0010
0000
0010
0100
,
0000
0100
0001
0000
0100
0000
0000
0010
1000
0000
0000
0000
0001
0000
0001
0100
,
0000
0001
0000
0000
1000
0000
0000
0100
1000
0000
0000
0000
0001
0000
0001
0000
,
0000
0010
0000
0000
0100
0000
0000
1000
0000
0000
0000
0000
0010
0000
0100
0000
,
0000
0000
0010
1000
0000
1000
0010
0000
0100
0000
0001
0000
0010
0000
0001
1000
,
0001
0000
0001
0100
0000
0100
0010
0000
1000
0000
0100
0000
0010
0000
0001
1000
,
0001
0000
0001
0010
0000
0010
0100
0000
1000
0000
0001
0000
0100
0000
0010
1000
,
0010
0000
0010
1000
0000
0100
0010
0000
0001
0000
0010
0000
0100
0000
1000
0000
,
0001
0000
0001
0100
0000
0100
0010
0000
1000
0000
0100
0000
0010
0000
0001
0000
,
1000
0000
0001
0100
0001
0000
0100
0000
0000
0010
0000
1000
0010
0000
0000
0000
,
1000
0000
0000
0100
0000
0000
0010
0000
0000
0001
0000
0000
0010
0000
0100
1000
,
0100
0000
0100
1000
0000
1000
0001
0000
0010
0000
0000
0000
0000
0000
0000
0000
,
0001
0000
0000
0001
1000
0000
0010
0000
0100
0000
0001
1000
0001
0000
1000
0000
,
0100
0010
0001
1000
,
0100
0000
0100
1000
0000
1000
0001
0000
0001
0010
0000
0010
0100
1000
0001
0010
,
0100
1000
0001
0000
0010
0100
1000
0000
0001
0000
0000
0000
0000
0000
0000
0000
,
1000
0000
1000
0100
0000
0100
0010
0001
,
1000
0000
1000
0001
0000
0100
0010
0000
1000
0100
0000
0010
0001
0000
0010
0000
,
0100
2000
0002
0000
0000
0000
0000
0000
,
0000
0000
0000
3003
,
1000
0001
0100
0110
0010
1000
1100
0000
,
1000
0000
0000
0001
0000
0000
0000
0000
0100
0000
0010
1000
0010
0000
1000
0000
,
0100
0000
0010
0000
0010
0001
0010
0000
0100
0000
1000
0001
0100
0000
0010
0000
,
1000
0000
0100
0000
1000
0001
0010
0000
0001
0000
1000
0010
0100
0000
0001
0000
,
0100
0000
1010
0000
1000
0000
0001
0000
0101
0000
0001
1000
0100
0000
1000
0000
,
0001
0000
0011
0000
0010
0100
1000
0000
0001
0000
0100
0010
0100
0000
0010
0000
,
1000
0000
1010
0000
1000
0000
0001
0000
0101
0000
0001
0100
0010
0000
1000
0000
,
0000
1010
0000
1000
1001
0000
1000
0100
,
0000
1000
0000
0000
0001
0000
0000
0010
0001
0000
0000
0000
1000
0000
0010
0000
,
0000
1000
0000
0000
0001
0000
0000
0100
0001
0000
0000
0000
0100
0000
0000
0000
,
0000
0010
0000
0000
1000
0000
0000
0100
0000
0000
0000
0000
0010
0000
0000
0000
,
0000
0001
0000
0000
0100
0000
0000
0010
0000
0000
0000
0000
0000
0000
0000
0000
;

//---------------dance-single - Renard----------------
#NOTES:
     dance-single:
     Renard:
     Medium:
     5:
     0.354,0.402,0.231,0.087,0.000:
0000
0020
0000
0000
,
0000
0000
0000
0000
0000
0030
0000
0000
,
0000
0000
0010
1000
0101
1001
1011
1100
,
1011
1000
1001
0001
0000
0000
0000
0000
,
0000
0000
0000
0000
,
1000
0100
0010
0000
0001
0000
0011
0000
,
0001
0010
0100
0000
1000
0000
1100
0000
,
1000
0100
0010
0000
0001
0000
0011
0000
,
0001
0010
0100
0000
1000
0000
1100
0000
,
2000
0000
3010
0000
0100
0001
0010
0000
,
0002
0000
0013
0000
0100
1000
0010
0000
,
0200
0000
0320
0000
2030
0000
3100
1000
,
0001
0010
0001
0000
1001
0000
0001
0100
,
0010
1000
0001
0000
1001
0000
1000
0100
,
0010
0001
1000
0000
1001
0000
0001
0100
,
0010
0000
1000
0000
1001
0000
1000
0100
,
1000
0001
1000
0000
1001
0000
0001
1000
,
0001
0100
0001
0000
1001
0000
1000
0100
,
0010
0000
0001
0000
0000
0000
0100
1000
,
0010
0100
0001
0100
0010
0100
0001
0000
,
0100
0010
0100
0001
0100
0000
0110
0000
,
1000
0010
0100
0010
1000
0010
0100
0000
,
0010
1000
0010
0100
0010
1000
0001
0000
,
1000
0100
0010
0001
1000
0001
0010
0100
,
1000
0000
1000
0001
0100
0010
1000
0000
,
0001
0000
0100
0001
1000
0100
0010
0001
,
1000
0001
0100
0000
,
0010
0000
1000
0001
0000
0100
0001
1000
,
0100
0100
0010
0010
,
0001
0000
1000
0000
0001
0100
0010
1000
,
0001
0001
1000
1000
1001
0000
0000
0000
,
1000
0001
0100
0100
,
0010
1000
0100
0010
,
2002
0000
0000
0000
,
0000
0000
0000
3003
,
1000
0000
0001
0000
0100
0010
1000
0000
,
0020
0000
1030
0100
1000
0000
0001
0010
,
0001
1000
0000
0001
0100
0000
0010
1000
,
0001
0100
0000
0001
0010
0000
0100
1000
,
0001
1000
0000
0000
1010
0000
0001
0100
,
0001
0010
0000
0000
0011
0000
0010
0100
,
1000
0001
0000
0000
0110
0000
0010
1000
,
0100
1000
0000
0001
1000
0000
0100
0000
,
1000
0001
0010
0000
0011
0000
0001
0000
,
1000
0010
1000
0000
1001
0000
1000
0000
,
0000
0001
0000
0100
,
0000
0010
1000
0000
;

//---------------dance-single - Renard----------------
#NOTES:
     dance-single:
     Renard:
     Easy:
     2:
     0.192,0.246,0.077,0.019,0.000: // measure 1
0000
0000
0000
0000
,  // measure 2
0000
0000
0000
0000
,  // measure 3
0000
0000
0000
0000
,  // measure 4
0000
0000
0000
0000
,  // measure 5
0000
0000
0000
0000
,  // measure 6
1000
0000
0001
0100
,  // measure 7
0001
0000
1000
0100
,  // measure 8
1000
0000
0001
0010
,  // measure 9
0001
0000
1000
0010
,  // measure 10
1000
0000
1000
0000
0010
0100
0010
0000
,  // measure 11
0100
0100
0001
0000
,  // measure 12
0010
0100
1000
0001
,  // measure 13
0100
0001
1001
0001
,  // measure 14
1000
0100
1001
1000
,  // measure 15
0001
1000
0110
0001
,  // measure 16
1000
0001
0000
1000
,  // measure 17
0100
1000
0001
1000
,  // measure 18
0100
1000
0010
1000
,  // measure 19
0000
0001
0000
0200
,  // measure 20
0310
0010
0100
0010
,  // measure 21
1000
0000
1000
0000
0010
0000
1000
0001
,  // measure 22
1000
1000
0001
0100
,  // measure 23
0001
0000
0010
0001
0010
0000
0001
0000
,  // measure 24
1000
0001
0100
0010
,  // measure 25
1000
1000
1000
1000
0000
0000
0010
0000
,  // measure 26
0100
0000
0001
0000
,  // measure 27
1000
0100
1001
0000
,  // measure 28
0001
0000
0010
0100
,  // measure 29
1000
0000
0000
0000
,  // measure 30
0001
1000
0001
0100
,  // measure 31
0020
0000
1030
0000
,  // measure 32
1000
0000
0000
0000
,  // measure 33
0001
0001
0100
0100
,  // measure 34
0010
1000
0000
0000
,  // measure 35
0000
0000
1001
0000
,  // measure 36
1000
0000
0001
0100
,  // measure 37
0010
1000
0010
0100
,  // measure 38
0000
0001
0000
0000
1000
0000
0000
0000
,  // measure 39
0000
0100
0000
0000
0010
0000
0000
0000
,  // measure 40
0000
0001
0000
0000
1000
0000
0000
0000
,  // measure 41
0000
0010
0000
0000
0100
0000
0000
0000
,  // measure 42
0000
0001
0000
0000
0010
0000
0000
0000
,  // measure 43
0000
0100
0000
0000
1000
0000
0100
0000
,  // measure 44
0000
1000
1100
0001
,  // measure 45
0000
0010
0011
0001
,  // measure 46
0000
0100
0010
1000
,  // measure 47
0000
0100
0011
0000
;
