#TITLE:Sonic Boomstick;
#SUBTITLE:;
#ARTIST:Scott Brown;
#TITLETRANSLIT:;
#SUBTITLETRANSLIT:;
#ARTISTTRANSLIT:;
#CREDIT:;
#BANNER:boom.png;
#BACKGROUND:boom-bg.png;
#LYRICSPATH:;
#CDTITLE:;
#MUSIC:boom.ogg;
#OFFSET:0.000;
#SAMPLESTART:86.984;
#SAMPLELENGTH:12.000;
#SELECTABLE:YES;
#BPMS:0.000=176.300;
#STOPS:32.000=10.550
;
#BGCHANGES:;

//---------------dance-single - Renard----------------
#NOTES:
     dance-single:
     Renard:
     Challenge:
     11:
     0.643,0.866,1.000,0.186,0.049:
0000
0000
0000
0000
,
0000
0000
0000
0000
,
0000
0000
0000
0000
,
0000
0000
0000
0000
,
0000
0000
0000
0000
,
0000
0000
0000
0000
,
0000
0000
0000
0000
,
0000
0000
0000
0000
,
1001
0000
0011
0100
1010
0000
1100
0000
,
1001
0000
0011
0100
1010
0000
1001
0000
,
0110
0000
1010
0100
1001
0000
0011
0000
,
1001
0000
0011
0100
1001
0100
2M2M
0M3M
,
02MM
33MM
1100
0010
0011
0000
1100
0000
,
1010
0000
1010
0100
0101
0000
0011
0000
,
1100
0000
1100
0100
0101
0000
0110
0000
,
0011
0000
0000
0000
0011
0000
0110
0000
1100
0000
MMMM
0000
1000
0001
1000
0000
,
0110
1001
0101
0010
1100
0010
0101
0000
,
1100
0000
1100
0010
0101
0010
1100
0000
,
0101
0000
0011
0100
1010
0100
0011
0000
,
1100
0000
1010
0100
0012
0000
M2M0
0000
,
1010
M3M3
0011
0100
1001
0100
0011
0000
,
1001
0000
1010
0100
1001
0100
1010
0000
,
1001
0000
0201
0000
0010
0010
1000
0000
,
0010
0000
0310
0000
0010
0100
0010
0000
2000
0000
0200
0000
001M
0000
00M1
0000
,
0011
33MM
0110
1001
0110
0000
1010
0000
,
0101
0011
0110
1100
,
0110
0000
0110
1001
0110
0000
0110
0000
,
0011
0000
1100
0000
1001
0000
1000
1000
,
1000
M000
0101
1010
0101
0000
0110
0000
,
1100
0000
0110
0000
0101
0000
0001
1000
,
0100
0000
1100
0011
1100
0000
1000
0000
,
0010
0100
0MM1
M11M
1MM0
0MM1
M11M
1MM0
,
0001
0100
0001
0100
0001
0000
0001
0000
0201
0000
000M
0000
0010
0000
00M0
0000
,
1000
M000
0010
00M0
0001
000M
1000
M010
,
0301
0100
0001
0100
0001
0000
0020
0000
1000
0000
M000
0000
0100
0000
0M00
0000
,
0001
000M
1000
0100
0001
0100
2030
3020
,
M032
00M0
0013
01MM
0110
0000
1100
0000
,
0101
0000
0100
1000
0020
0000
0100
0001
,
0001
000M
0031
0010
1000
0010
0100
0001
,
0100
1000
0200
0001
0301
0010
1100
MM10
,
1001
M00M
0200
0000
M0M1
000M
0000
0000
,
0000
0000
0000
0000
0000
M01M
00M0
0000
,
0000
0000
0000
0000
10MM
M000
0000
0000
,
0000
0000
0000
0000
0000
M01M
00M0
0000
,
0000
0000
0000
0000
M0M1
000M
0000
0000
,
0000
0000
0000
0000
0000
M01M
00M0
0000
,
0000
0000
0000
0000
10MM
M000
0000
0000
,
0000
0000
0000
0000
0000
M01M
00M0
0000
,
0000
0000
0000
0000
M01M
00M0
0000
0000
,
0000
0000
0000
0000
0000
10MM
M000
0000
,
0000
0000
0000
0000
M0M1
000M
0000
0000
,
0000
0000
0000
0000
0000
10MM
M000
0000
,
0000
0000
0000
0000
M01M
00M0
0000
0000
,
0000
0000
0000
0000
0000
M0M1
000M
0000
,
0000
0000
0000
0000
10MM
M000
0000
0000
,
0000
0300
MM2M
MM0M
MM0M
M20M
M00M
M00M
,
M00M
M330
0101
0010
1001
0010
0101
0010
,
1001
0000
1100
0010
1001
0010
1100
0010
,
1001
0000
0110
1000
0110
0001
0110
1000
,
0110
0000
0000
0001
0001
0000
000M
0000
1001
0000
0000
0000
0110
0000
0110
0000
,
1001
1001
1010
0100
1001
0010
1001
0100
,
1010
0000
0011
0100
1010
0100
0011
0000
,
1010
0000
1010
0100
0011
0100
1001
0010
,
1001
0000
1001
0000
0220
0000
0000
0000
1001
0000
0330
0000
0001
0100
0001
0000
,
0100
0100
0101
0100
0110
0100
1100
0100
,
0110
0100
0101
0100
0110
0100
1100
0100
,
0110
0000
1010
0010
0011
0010
0110
0010
,
1010
0010
0110
0010
0011
0000
0110
0110
,
1001
1001
0101
0M01
1001
100M
1100
1M00
,
1001
M001
0101
0M01
1001
100M
1100
1M00
,
1001
M001
0011
00M1
1001
100M
1010
10M0
,
1001
0000
M001
0000
1000
1000
0001
0000
0200
0000
0000
0000
0310
0000
0110
0000
,
0001
1000
0001
1000
1001
0000
0110
0000
0000
0000
0000
0000
0000
0000
0000
0000
;

//---------------dance-single - Renard----------------
#NOTES:
     dance-single:
     Renard:
     Hard:
     9:
     0.475,0.546,0.372,0.053,0.000:
0000
0000
0000
0000
,
0000
0000
0000
0000
,
0000
0000
0000
0000
,
0000
0000
0000
0000
,
0000
0000
0000
0000
,
0000
0000
0000
0000
,
0000
0000
0000
0000
,
0000
0000
0000
0000
,
1001
0000
0001
0100
0010
0100
1000
0100
,
0010
0100
0001
0010
0100
0010
1000
0010
,
0100
0010
0001
0100
0010
0100
1000
0100
,
0010
0100
0001
0010
0100
0000
1100
0000
,
1010
0000
1000
0100
0010
0100
0001
0100
,
0010
0100
1000
0100
0010
0100
0001
0100
,
0010
0100
1000
0010
0100
0010
0001
0010
,
0100
0010
1000
0010
0100
0010
0001
0010
,
0100
0100
0010
1000
0100
0010
0100
0001
,
0100
0010
0100
1000
0010
0100
0001
0100
,
0010
0100
1000
0100
0010
0100
0001
0010
,
0100
0010
1000
0010
0100
1000
0001
0000
,
0101
0000
0001
0100
0010
0100
1000
0100
,
0010
0100
0001
0010
0100
1000
0010
0100
,
0010
1000
0100
0010
0001
0010
0100
0010
,
1000
0010
0100
0010
0001
0000
0010
0100
,
1000
0000
1001
0000
0110
0000
0010
1000
,
0100
0010
0001
0000
1001
0000
0110
0000
,
1001
0000
1100
0000
0011
0000
0010
0001
,
0010
0100
1000
0000
1001
0000
0110
0000
,
1001
0000
1000
0100
0010
0000
0011
0000
,
0110
0000
0100
1000
0010
0100
0001
0000
,
0101
0000
0110
0000
0010
1000
0100
0000
,
0110
0000
0010
0100
1000
0010
0100
0100
,
0010
0000
1000
0010
0100
0000
0101
0000
,
0110
0000
0010
1000
0100
0000
0110
0000
,
0011
0000
0001
0010
0100
0000
0110
0000
,
1100
0000
1000
0100
0010
0001
2000
0000
,
3001
0000
0100
0010
1000
0100
0010
0000
,
0110
0000
0010
0001
0100
0010
0100
0000
,
0110
0000
0010
1000
0100
0010
0001
0100
,
0010
1000
0100
0010
0001
0000
1000
0010
,
0100
0001
0020
0000
0001
0000
0000
0000
,
0000
0000
0000
0000
0000
0100
0000
0000
,
0000
0000
1000
0000
,
0000
0000
0000
0000
0000
0100
0000
0000
,
0000
0000
0001
0000
,
0000
0000
0000
0000
0000
0100
0000
0000
,
0000
0000
1000
0000
,
0000
0000
0000
0000
0000
0100
0000
0000
,
0000
0000
0001
0000
,
0000
0000
0000
0000
0000
1000
0000
0000
,
0000
0000
0100
0000
,
0000
0000
0000
0000
0000
1000
0000
0000
,
0000
0000
0001
0000
,
0000
0000
0000
0000
0000
1000
0000
0000
,
0000
0000
0001
0000
,
0000
0000
0200
0000
0300
0200
0330
0MM0
,
0000
0000
0010
0100
1000
0000
0110
0000
,
0101
0000
0001
0100
0010
0000
1000
0000
,
0100
0010
0001
0010
0001
0000
0011
0000
,
0110
0000
0100
1000
0010
0100
0001
0001
,
0010
0000
0001
0010
0100
0000
0110
0000
,
1100
0000
1000
0010
0100
0001
1000
0000
,
1100
0000
1000
0001
0010
0000
0011
0000
,
0001
0010
0100
0100
1000
1000
0001
0010
,
0001
0010
0001
0010
0100
0000
0100
0000
,
1000
0000
0010
0100
0001
0100
0010
0000
,
0110
0000
1010
0000
1001
0000
1000
0100
,
0010
0000
0001
0010
0100
1000
0001
0100
,
0010
0000
0010
0100
0001
0000
1100
0000
,
1001
0000
1000
0100
0010
0001
0010
0000
,
0110
0000
0100
1000
0010
0000
0100
0000
,
0101
0000
0100
0010
1000
0100
0010
0001
,
0010
0000
2000
0002
3003
0000
0000
0000
;

//---------------dance-single - Renard----------------
#NOTES:
     dance-single:
     Renard:
     Medium:
     5:
     0.308,0.417,0.089,0.009,0.000:
0000
0000
0000
0000
,
0000
0000
0000
0000
,
0000
0000
0000
0000
,
0000
0000
0000
0000
,
0000
0000
0000
0000
,
0000
0000
0000
0000
,
0000
0000
0000
0000
,
0000
0000
0000
0000
,
1001
1000
1000
0001
,
0001
0000
1000
0001
1000
0000
0001
0000
,
0001
0100
0100
0010
,
0010
0000
0100
0010
0100
0000
0010
0000
,
1010
1000
1000
0001
,
0001
0000
0100
0010
0100
0000
0010
0000
,
0010
1000
1000
0001
,
0001
0000
0010
0100
0010
0000
0100
0000
,
0100
1000
1000
0001
,
0001
0000
0100
0000
0100
0000
0010
1000
,
0010
0010
0100
0001
,
1000
0000
0100
0000
1000
0000
0001
1000
,
0001
1000
0010
0001
,
0001
0010
1000
0100
,
0100
0001
0100
1000
,
0001
0000
0100
0010
0100
0000
0010
1000
,
0001
1000
1000
1100
,
1100
1000
1100
1100
,
0000
0010
0010
0011
,
0011
0010
0011
0011
,
0000
0001
0100
0001
,
0100
0001
0100
0000
0001
0000
0100
0000
,
0001
1000
0010
1000
,
0010
1000
0010
0000
1000
0000
0010
1000
,
0001
1000
1000
0100
,
0100
0010
0010
0001
,
1000
0001
1000
0000
0001
0000
0010
0000
,
0100
1000
0001
0100
,
0001
1000
1000
0100
,
0100
0010
0001
0000
0001
0010
0100
0000
,
0100
1000
0001
0000
0100
0000
0010
0000
,
1000
0000
0001
1000
0001
1000
0001
1000
,
0001
2000
0001
0000
,
0000
0000
0000
0000
0000
0001
0000
0000
,
0000
0000
0001
0000
,
0000
0000
0000
0000
0000
0001
0000
0000
,
0000
0000
0001
0000
,
0000
0000
0000
0000
0000
0001
0000
0000
,
0000
0000
0001
0000
,
0000
0000
0000
0000
0000
0001
0000
0000
,
0000
0000
0001
0000
,
0000
0000
0000
0000
0000
0001
0000
0000
,
0000
0000
0001
0000
,
0000
0000
0000
0000
0000
0001
0000
0000
,
0000
0000
0001
0000
,
0000
0000
0000
0000
0000
0001
0000
0000
,
0000
0000
0001
0000
,
0000
0000
0000
0000
0000
0001
3000
0000
,
0000
0000
1000
0001
1000
0000
0001
0000
,
1000
0000
0001
1000
0001
0000
1000
0000
,
0001
0000
0010
0100
0010
0000
0100
0000
,
0010
0000
0100
0000
1000
0000
0001
1000
,
0001
0100
0100
0010
,
0010
0000
1000
0000
0001
1000
0001
0000
,
0000
0010
0100
1000
,
0001
0100
0010
0010
,
0000
0000
1000
0010
1000
0000
0001
0000
,
0100
0000
0001
0000
1000
0001
0000
0000
,
0000
0000
1000
0100
1000
0000
0000
0000
,
0000
0000
0001
0000
0010
0001
0000
0000
,
0000
0000
1000
0010
1000
0000
0001
0000
,
0100
0000
0010
0000
1000
0010
0000
0000
,
1000
0000
0001
0100
0001
0000
1000
0000
,
0010
0000
1000
0000
0100
0000
0010
0001
,
0010
0000
0100
1000
0000
0000
0000
0000
;

//---------------dance-single - Renard----------------
#NOTES:
     dance-single:
     Renard:
     Easy:
     3:
     0.192,0.288,0.009,0.009,0.000: // measure 1
0000
0000
0000
0000
,  // measure 2
0000
0000
0000
0000
,  // measure 3
0000
0000
0000
0000
,  // measure 4
0000
0000
0000
0000
,  // measure 5
0000
0000
0000
0000
,  // measure 6
0000
0000
0000
0000
,  // measure 7
0000
0000
0000
0000
,  // measure 8
0000
0000
0000
0000
,  // measure 9
1001
1000
1000
0001
,  // measure 10
0001
0000
0001
0100
0001
0000
0000
0000
,  // measure 11
0000
1000
1000
0001
,  // measure 12
0000
0000
1000
0100
1000
0000
0000
0000
,  // measure 13
0000
0001
0000
0010
,  // measure 14
0000
0000
0001
1000
0001
0000
0000
0000
,  // measure 15
0000
1000
0000
0010
,  // measure 16
0000
0000
1000
0010
1000
0000
0000
0000
,  // measure 17
0000
0001
0000
0100
,  // measure 18
0000
0000
0010
1000
0010
0000
0000
0000
,  // measure 19
0000
0000
0000
1000
0100
0000
0000
0000
,  // measure 20
0000
0000
0000
0010
0001
0000
0000
0000
,  // measure 21
0000
1000
0000
0010
,  // measure 22
0000
0000
0100
0001
0100
0000
0000
0000
,  // measure 23
0000
0000
0000
0001
1000
0000
0000
0000
,  // measure 24
0000
0000
0000
0010
0100
0000
0000
0000
,  // measure 25
0000
0010
0000
0010
,  // measure 26
0010
0010
0000
0010
,  // measure 27
0010
0100
0000
0100
,  // measure 28
0100
0100
0000
0100
,  // measure 29
0000
0001
0000
0001
,  // measure 30
0001
0001
0000
0001
,  // measure 31
0000
1000
0000
1000
,  // measure 32
0000
0100
0100
0020
,  // measure 33
0000
0031
0000
0001
,  // measure 34
0000
0010
0000
0001
,  // measure 35
0000
0010
0010
0010
,  // measure 36
0000
0100
0100
1000
,  // measure 37
0000
0001
0000
1000
,  // measure 38
0000
0010
0000
0100
,  // measure 39
0000
0001
0000
0000
,  // measure 40
0000
1000
0100
0010
,  // measure 41
0001
0000
1000
0000
,  // measure 42
0000
0000
0000
0000
0000
0001
0000
0000
,  // measure 43
0000
0000
1000
0000
,  // measure 44
0000
0000
0000
0000
0000
0001
0000
0000
,  // measure 45
0000
0000
1000
0000
,  // measure 46
0000
0000
0000
0000
0000
0001
0000
0000
,  // measure 47
0000
0000
1000
0000
,  // measure 48
0000
0000
0000
0000
0000
0001
0000
0000
,  // measure 49
0000
0000
1000
0000
,  // measure 50
0000
0000
0000
0000
0000
0001
0000
0000
,  // measure 51
0000
0000
1000
0000
,  // measure 52
0000
0000
0000
0000
0000
0001
0000
0000
,  // measure 53
0000
0000
1000
0000
,  // measure 54
0000
0000
0000
0000
0000
0001
0000
0000
,  // measure 55
0000
0000
1000
0000
,  // measure 56
0000
0000
0000
0000
0000
0001
0000
0000
,  // measure 57
0000
0000
0000
1000
0000
1000
0000
1000
,  // measure 58
0000
1000
0000
0001
0000
0001
0000
0001
,  // measure 59
0000
0001
0000
1000
0000
1000
0000
1000
,  // measure 60
0000
1000
0000
0001
0000
0001
0000
0000
,  // measure 61
0000
0000
0000
0100
0000
0100
0000
0100
,  // measure 62
0000
0100
0000
0010
0000
0010
0000
0010
,  // measure 63
0000
0010
0000
0100
0000
0100
0000
0010
,  // measure 64
0000
0010
0000
0000
0000
0000
0000
0000
,  // measure 65
0000
0000
0000
1000
0000
1000
0000
0000
,  // measure 66
0010
0000
0000
0100
0000
0100
0000
0000
,  // measure 67
0001
0000
0000
0010
0000
0010
0000
0000
,  // measure 68
0100
0000
0000
1000
0000
1000
0000
0000
,  // measure 69
0001
0000
0000
0100
0000
0100
0000
0000
,  // measure 70
0010
0000
0000
1000
0000
1000
0000
0000
,  // measure 71
0010
0000
0000
0100
0000
0100
0000
0000
,  // measure 72
0001
0010
0100
1000
,  // measure 73
0001
0100
0000
0000
;
