#TITLE:Solar Flare;
#SUBTITLE:;
#ARTIST:Kettu;
#TITLETRANSLIT:;
#SUBTITLETRANSLIT:;
#ARTISTTRANSLIT:;
#CREDIT:;
#BANNER:flare.png;
#BACKGROUND:flare-bg.png;
#LYRICSPATH:;
#CDTITLE:;
#MUSIC:flare.ogg;
#OFFSET:0.000;
#SAMPLESTART:13.239;
#SAMPLELENGTH:12.000;
#SELECTABLE:YES;
#BPMS:0.000=145.000;
#STOPS:;
#BGCHANGES:;
#GENRE:Loop-play;

//---------------dance-single - Renard----------------
#NOTES:
     dance-single:
     Renard:
     Challenge:
     10:
     0.767,0.872,0.323,0.054,0.772:
0000
0000
0000
0000
,
0000
0000
0000
0000
,
0000
0000
0000
0000
,
0000
0000
0000
0000
,
1000
0000
0001
0000
0100
0000
0010
1000
0000
1000
0000
0010
0100
0000
0001
0000
,
0010
0000
0100
0000
1000
0000
0001
0010
0000
0010
0000
0100
1000
0000
0001
0000
,
0100
0000
0010
0000
1000
0000
0100
0010
0000
0010
0000
0001
0010
0000
0100
0000
,
1000
0000
0001
0010
0100
0000
1000
0001
0010
0000
0100
1000
0001
0000
0010
0100
,
1000
0100
1000
0100
1000
0000
0000
0100
0000
1000
0000
0000
0011
0000
0000
0000
,
0001
0100
0001
0100
0001
0000
0000
0100
0000
0001
0000
0000
1010
0000
0000
0000
,
1000
0100
1000
0100
1000
0000
0000
0010
0000
1000
0000
0000
0101
0000
0000
0000
,
0001
0100
0001
0100
0001
0000
0000
0010
0000
0001
0000
0000
1100
0000
0000
0000
,
1000
0010
1000
0010
1000
0000
0000
0010
0000
0100
0000
0000
0101
0000
0000
0000
,
0001
0010
0001
0010
0001
0000
0000
0010
0000
0100
0000
0000
1100
0000
0000
0000
,
1000
0010
0100
0001
1000
0100
0010
0001
0010
0100
1000
0001
0010
0000
0100
0000
,
1000
0000
0001
0100
0010
0000
1000
0001
0100
0000
0010
1000
0001
0000
0100
0000
,
0010
0000
0010
1000
0000
1000
0010
0000
0000
0000
0100
0000
0001
0000
0010
0000
,
0100
0000
0100
1000
0000
1000
0001
0000
0000
0000
0010
0000
0100
0000
1000
0000
,
0001
0000
0001
0100
0000
0100
0010
0000
0000
0000
1000
0000
0010
0000
0100
0000
,
0001
0000
0001
1000
0000
1000
0001
0000
1000
0000
0100
0000
0010
0000
0000
0000
,
0001
0000
0001
0010
0000
0010
0100
0000
0000
0000
1000
0000
0010
0000
0100
0000
,
0001
0000
0001
0100
0000
0100
0010
0000
0000
0000
1000
0000
0010
0000
0100
0000
,
0001
0000
0001
0010
0000
0010
0100
0000
0000
0000
1000
0000
0001
0000
0010
0000
,
0100
0000
0000
0010
0000
0000
0001
0000
0000
1000
0000
0000
0100
0000
0100
0000
0100
0000
0010
0000
0010
0000
0010
0000
,
0001
0000
0010
0000
0100
0000
1000
0000
0010
0100
0001
0000
0100
0000
0000
0000
,
0010
0000
1000
0000
0100
0000
0010
0000
0001
0000
0010
0000
0100
1000
0001
0000
,
1000
0000
0010
0000
0100
0000
0001
0000
0100
0000
0010
1000
0010
0000
0000
0000
,
0100
0000
0001
0000
0010
0000
0100
0000
1000
0000
0001
0000
1000
0100
1000
0000
,
0001
0000
0010
0000
0100
0000
1000
0000
0001
0000
0100
0010
1000
0000
0000
0000
,
0010
0000
0100
0000
0001
0000
0100
0000
0010
0000
1000
0000
0001
1000
0001
0000
,
1000
0000
0100
0000
0010
0000
0001
0000
0010
0000
0100
1000
0001
0000
0000
0000
,
1001
1001
0000
0110
0000
0110
1001
0000
,
1000
0000
0010
0000
0100
0000
0001
0100
0001
0000
0100
0010
0000
1000
0010
0000
,
0100
0000
0001
0000
0010
0000
0100
1000
0001
0000
0000
0001
0000
0000
0001
0000
,
0010
0000
0100
0000
1000
0000
0001
0100
0010
0000
1000
0010
0000
0100
0001
0000
,
0100
0000
0010
0000
1000
0000
0100
0010
0001
0000
0000
0001
0000
0000
0001
0000
,
0010
0000
0100
0000
1000
0000
0001
0100
0010
0000
1000
0010
0000
0100
0001
0000
,
0100
0000
0010
0000
1000
0000
0010
1000
0001
0000
0000
1000
0000
0000
0100
0000
,
0010
0000
0001
0000
0010
0000
0100
1000
0001
0000
0010
0100
0000
1000
0010
0000
,
0100
0000
0001
0000
0100
0000
0010
1000
0010
0000
0000
0010
0000
0000
0010
0000
,
1010
0000
0000
0000
0000
0000
0100
0000
0001
0000
0000
0010
0000
0000
0100
0000
,
1000
0000
0000
0000
0000
0000
0001
0010
0100
0000
0000
0110
0000
0000
1100
0000
,
1001
0000
0000
0000
0000
0000
0001
0000
0100
0000
0000
0010
0000
0000
1000
0000
,
0010
0000
0000
0000
0000
0000
0100
0001
0100
0000
0000
0110
0000
0000
1001
0000
,
1100
0000
0000
0000
0000
0000
0001
0000
0010
0000
0000
0100
0000
0000
1000
0000
,
0001
0000
0000
0000
0000
0000
1000
0001
0100
0000
0000
0110
0000
0000
1010
0000
,
1010
0000
0000
0000
0000
0000
0100
0000
0001
0000
0000
0010
0000
0000
0100
0000
,
0110
0000
0000
0000
0000
0000
0100
1000
0001
0000
0000
1001
0000
0000
1010
0000
,
0201
0000
0000
0010
0000
0000
1000
0000
0000
0010
0000
0000
0301
0000
0000
0000
,
0100
0100
0001
0000
0001
0000
0010
0010
0100
0000
0100
0000
1000
0100
0010
0001
,
1000
0100
0010
0001
0100
0000
0001
0100
0000
0010
1000
0000
0101
0000
0010
0000
,
1000
0001
0010
0100
1000
0000
0001
0010
0000
0100
1000
0000
0011
0000
0100
0000
,
1000
0010
0100
0001
0100
0000
0010
1000
0000
0001
0100
0000
1010
0000
0001
0000
,
1000
0100
0010
0001
0010
0000
0100
1000
0000
0001
0010
0000
1100
0000
0001
0000
,
0010
0100
1000
0001
0100
0000
0010
1000
0000
0001
0100
0000
1010
0000
0010
0000
,
1000
0010
0100
0001
0010
0000
0100
1000
0000
0001
0010
0000
0011
0000
0010
0000
,
0100
1000
0001
0010
0100
0000
0010
0001
0000
1000
0001
0000
0100
0000
0001
0000
,
0100
0010
1000
0001
0100
0000
0010
1000
0001
0100
0010
0000
1000
0000
0010
0000
,
0100
0001
0100
0010
1000
0000
0001
0100
0000
0010
1000
0000
1010
0000
0000
0000
,
0010
1000
0100
0010
0001
0000
0010
0100
0000
1000
0001
0000
0011
0000
0000
0000
,
0001
0010
0100
1000
0001
0000
0100
0010
0000
1000
0010
0000
1010
0000
0000
0000
,
0010
0100
0001
0010
0100
0000
1000
0000
0001
0000
1000
0000
0001
1000
0001
0000
,
1000
0000
0001
0000
0100
0000
0010
1000
0010
0000
1000
0000
1010
0000
0010
0000
,
0100
0000
0001
0000
0010
0000
0001
0010
0001
0000
0010
0000
0011
0000
0001
0000
,
0010
0000
0100
1000
0001
0000
0010
0100
1000
0000
0001
0100
0010
0000
1000
0010
,
0100
0001
0010
0100
1000
0001
0010
0100
1000
0001
0100
0010
1000
0001
0100
0010
,
2000
0000
0000
0020
3000
0000
0200
0030
0000
0002
0300
0000
0020
0000
0000
0000
,
0033
0000
0000
0000
;

//---------------dance-single - Renard----------------
#NOTES:
     dance-single:
     Renard:
     Hard:
     9:
     0.628,0.631,0.108,0.081,0.278:
0000
0000
0000
0000
,
0000
0000
0000
0000
,
0000
0000
0000
0000
,
0000
0000
0000
0000
,
1000
0000
0000
0000
0001
0000
0100
0000
0000
0000
0010
0000
1000
0000
0010
0100
,
0010
0000
0000
0000
0100
0000
0001
0000
0000
0000
0010
0000
0100
0000
1000
0100
,
1000
0000
0100
0010
0000
0001
1000
0001
,
0100
0010
1000
0000
0001
0100
0010
0000
1000
0010
1000
0000
0001
0000
1000
0000
,
0001
0000
0100
0000
0010
0000
1000
0010
0000
0010
0000
1000
0010
0000
0000
0000
,
0100
0001
0010
0100
1000
0001
0010
0100
,
1000
0000
0001
0000
0100
0000
0010
1000
0000
1000
0010
0000
0100
0000
0000
0000
,
0001
0010
0100
1000
0001
0010
0100
1000
,
0001
0000
0100
0000
0010
0000
1000
0010
0000
0010
0000
0000
1000
0000
0010
0000
,
0100
0000
0001
0000
0010
0000
0100
1000
0000
1000
0000
0001
0010
0000
0100
0000
,
1000
0001
0100
0010
1000
0010
0100
0001
,
1000
0100
0010
0001
0010
0100
1000
0001
,
1000
0000
0001
1000
0000
0001
1000
0000
0000
0000
0001
0000
0100
0000
0010
0000
,
1000
0001
0010
0100
1000
0000
0001
0000
,
1000
0000
0001
1000
0000
0001
1000
0000
0000
0000
0001
0000
0100
0000
0010
0000
,
1000
0100
0010
0001
0010
0100
1000
0000
,
0001
0000
1000
0001
0000
1000
0001
0000
0000
0000
1000
0000
0010
0000
0100
0000
,
0001
0010
0100
1000
0001
0000
1000
0000
,
0010
0000
0100
0010
0000
0100
0010
0000
0000
0000
1000
0000
0010
0000
0100
0000
,
0001
0000
0000
0010
0000
0000
0100
0000
0000
1000
0000
0000
0001
0000
1000
0000
0001
0000
0100
0000
0010
0000
0100
0000
,
0010
1000
0010
0100
0001
0100
0010
0000
,
1000
0000
0100
0000
0010
0000
0001
0000
0010
0000
0100
0000
1000
0100
1000
0000
,
0100
1000
0010
0100
0001
0010
0001
0000
,
0010
0000
0100
0000
1000
0000
0001
0000
0100
0000
0010
0000
1000
0010
1000
0000
,
0010
0100
0001
0010
0100
1000
0001
0000
,
0010
0000
0100
0000
1000
0000
0001
0000
0010
0000
0001
0000
1000
0001
1000
0000
,
0001
0100
0010
1000
0010
0100
0001
0000
,
0100
0010
0000
1010
0000
0101
1001
0000
,
1000
0000
0000
0000
0000
0000
0001
0000
0100
0000
0000
0010
0000
0000
1000
0000
,
0010
0000
0000
0000
0000
0000
0100
0001
0100
0000
0000
0010
0000
0000
1000
0000
,
0100
0000
0000
0000
0000
0000
0010
0000
0001
0000
0000
0010
0000
0000
0100
0000
,
1000
0000
0000
0000
0000
0000
0001
0100
0001
0000
0000
0100
0000
0000
0010
0000
,
1000
0000
0000
0000
0000
0000
0100
0000
0010
0000
0000
0001
0000
0000
0010
0000
,
0100
0000
0000
0000
0000
0000
1000
0100
1000
0000
0000
0010
0000
0000
0100
0000
,
0001
0000
0000
0000
0000
0000
0100
0000
0010
0000
0000
1000
0000
0000
0010
0000
,
0100
0000
0000
0000
0000
0000
0001
0100
0010
0000
0000
1000
0000
0000
0010
0000
,
1000
0100
0010
0001
0010
0100
1000
0001
,
0100
0010
1000
0010
0100
0000
1001
0000
,
1000
0100
0010
0001
0010
0100
1000
0001
,
0010
0100
1000
0010
0100
0000
0101
0000
,
0001
0100
0010
1000
0100
0000
1100
0000
,
1000
0010
0100
0001
0010
0000
0011
0000
,
0001
0010
0100
1000
0010
0000
1010
0000
,
0010
0000
0000
0000
0000
0000
1000
0000
0001
0000
0000
0100
0000
0000
0010
0000
,
2000
0000
0000
3002
0000
0000
2003
0000
0000
3002
0000
0000
1003
0000
0000
0000
,
0001
0100
0001
0000
0100
0000
0001
0100
0001
0000
0100
0000
0010
1000
0010
0000
,
1000
0010
0100
0001
0010
0100
0110
0000
,
0100
0000
1000
0000
0010
0000
0100
0000
0001
0000
1000
0000
0001
1000
0001
0000
,
1000
0001
0100
0010
1000
0010
1010
0000
,
0010
0000
1000
0000
0100
0000
0010
0000
0001
0000
1000
0000
0001
1000
0001
0000
,
0100
0010
1000
0100
0010
0001
0011
0000
,
0001
0000
0010
0000
0100
0000
1000
0000
0001
0000
1000
0000
0001
1000
0001
0000
,
1000
0010
0100
0001
0010
0100
0110
0000
,
0100
0000
1000
0000
0010
0000
0100
0000
0001
0000
0100
0000
0001
0100
0001
0000
,
0100
0010
1000
0010
0100
0001
0100
0010
,
1000
0000
0100
0000
0010
0000
0001
0000
0010
0000
0100
0000
1000
0001
1000
0001
,
1000
0001
0100
0010
1000
0100
0010
0001
,
0010
0000
0100
0000
1000
0000
0001
0000
0100
0000
0010
0000
0100
0010
0100
0010
,
0100
0010
1000
0100
0010
0001
0010
0100
,
1000
0000
0001
0000
0010
0000
0100
0000
1000
0000
0001
0000
1000
0001
1000
0001
,
1000
0001
0100
0010
1000
0100
0010
0001
,
0010
0000
0100
0000
1000
0000
0010
0000
0100
0000
0001
0000
0100
0010
0100
0010
,
2000
0000
0000
3020
0000
0000
0230
0000
0000
0302
0000
0000
0023
0000
0000
0000
,
0030
0000
0000
0000
;

//---------------dance-single - Renard----------------
#NOTES:
     dance-single:
     Renard:
     Medium:
     7:
     0.439,0.504,0.108,0.027,0.049:
0000
0000
0000
0000
,
0000
0000
0000
0000
,
0000
0000
0000
0000
,
0000
0000
0000
0000
,
1000
0000
0001
1000
0000
1000
0001
0000
,
0100
0000
0010
0100
0000
0100
0010
0000
,
1000
0000
0010
1000
0000
1000
0010
0000
,
0100
0000
0001
0000
1000
0001
1000
0001
,
0100
0010
1000
0000
0010
0000
1000
0000
,
0001
0100
0001
0000
0100
0000
0001
0000
,
0010
0001
0010
0000
0100
1000
0100
0000
,
1000
0001
1000
0001
1000
0001
1000
0000
,
0001
0100
0001
0000
0100
0000
0101
0000
,
1000
0010
1000
0000
0010
0000
1010
0000
,
1000
0001
1000
0001
1000
0001
1000
0001
,
0100
0001
0100
0001
1000
0001
1000
0100
,
1000
1000
0001
0001
,
0100
0000
0000
0010
0000
0000
1000
0000
0000
0000
0000
0000
0000
0000
0000
0000
,
0010
0010
0100
0100
,
0001
0000
0000
0010
0000
0000
0100
0000
0000
0000
0000
0000
0000
0000
0000
0000
,
1000
0001
0100
0010
,
1000
0000
0000
0010
0000
0000
0100
0000
0000
0000
0000
0000
0000
0000
0000
0000
,
0001
0010
0100
1000
,
0001
0000
0000
1000
0000
0000
0001
1000
0001
1000
0001
1000
,
0001
0100
0010
0000
1000
0010
0100
0000
,
0001
0100
1001
1001
,
1000
0100
1000
0000
0001
0010
0001
0000
,
1000
0010
1001
1001
,
0001
0100
0010
0000
1000
0010
0100
0000
,
0001
1000
1001
1001
,
1000
0000
0100
0000
0010
0001
0010
0000
,
0100
1000
0000
1001
0000
0001
1000
0000
,
0001
0000
0100
0010
1000
0000
0010
0000
,
0100
0000
0000
0000
0001
0000
0010
0000
0100
0000
0000
0100
0000
0000
0100
0000
,
1000
0000
0010
0100
0001
0000
1000
0000
,
0100
0000
0000
0000
0010
0000
0001
0000
1000
0000
0000
1000
0000
0000
1000
0000
,
0001
0000
0010
0100
1000
0000
0001
0000
,
0100
0000
0000
0000
0010
0000
1000
0000
0010
0000
0000
0010
0000
0000
0010
0000
,
0100
0000
0001
1000
0100
0000
0010
0000
,
0001
0000
0000
0000
1000
0000
0001
0000
0100
0000
0000
0100
0000
0000
0100
0000
,
0010
0000
1000
0000
0010
0100
0001
0000
,
0100
0010
1001
0000
,
1000
0000
0100
0000
0010
0000
0001
0010
,
0100
1000
1001
0000
,
0001
0000
0100
0010
0100
0000
0100
0000
,
0010
0000
1000
0100
0010
0000
0010
0000
,
0001
0000
0010
0100
1000
0000
0001
0000
,
2001
0100
0002
0000
,
0020
0000
0000
3033
,
1000
1000
1000
0000
0001
0001
0001
0000
,
0001
0100
0001
0100
0010
0100
0010
0100
,
0010
1000
0010
1000
0010
0000
0000
0000
,
1000
0100
1000
0100
0010
0100
0010
0100
,
0010
0001
0010
0001
0010
0000
0000
0000
,
0001
1000
0001
1000
0010
1000
0010
1000
,
0001
0100
0001
0100
0001
0000
0000
0000
,
1000
0100
1000
0000
0001
0010
0001
0000
,
1000
0000
0010
0000
0100
0001
0100
0000
,
0001
0001
1000
1000
,
0001
0010
0100
1000
0001
0010
0100
1000
,
0001
0001
1000
1000
,
1000
0010
0100
0001
1000
0010
0100
0001
,
1000
1000
0001
0001
,
1000
0100
0010
0001
1000
0100
0010
0001
,
1000
1000
0001
0001
,
0001
0010
0100
1000
0001
0100
0010
1000
,
0001
0000
0000
0000
;

//---------------dance-single - Renard----------------
#NOTES:
     dance-single:
     Renard:
     Easy:
     3:
     0.249,0.296,0.000,0.018,0.000: // measure 1
0000
0000
0000
0000
,  // measure 2
0000
0000
0000
0000
,  // measure 3
0000
0000
0000
0000
,  // measure 4
0000
0000
0000
0000
,  // measure 5
0001
0001
0001
0001
,  // measure 6
1000
0010
0100
0001
,  // measure 7
1000
1000
1000
1000
,  // measure 8
0001
0100
0010
1000
,  // measure 9
0001
1000
0100
0010
,  // measure 10
0001
0000
1000
0000
0001
1000
0001
0000
,  // measure 11
0100
0010
1000
0001
,  // measure 12
1000
0000
0001
0000
,  // measure 13
1000
0100
0010
0001
,  // measure 14
1000
0000
0000
0000
0001
1000
0001
0000
,  // measure 15
0100
0000
0010
0000
,  // measure 16
1000
0001
1000
0000
,  // measure 17
0001
0000
0001
0000
,  // measure 18
0100
0000
0100
0000
,  // measure 19
0010
0000
0010
0000
,  // measure 20
1000
1000
1000
0000
,  // measure 21
1000
0000
1000
0000
,  // measure 22
0100
0000
0100
0000
,  // measure 23
0010
0000
0010
0000
,  // measure 24
0001
0000
0100
0000
0010
0020
0000
0000
,  // measure 25
1030
1000
0010
0010
,  // measure 26
0100
0100
0001
0001
,  // measure 27
0010
0000
0010
0000
,  // measure 28
0100
1000
0001
0000
,  // measure 29
0100
0000
0100
0000
,  // measure 30
0001
1000
0001
0000
,  // measure 31
0100
0000
0010
0000
,  // measure 32
1000
0001
1000
0001
,  // measure 33
0100
0000
0100
0000
,  // measure 34
0001
0000
1000
1000
,  // measure 35
0001
0000
1000
0000
,  // measure 36
0100
0000
0010
0010
,  // measure 37
0001
0000
1000
0000
,  // measure 38
0010
0000
0100
0100
,  // measure 39
0001
0000
1000
0000
,  // measure 40
0010
0000
0100
0000
0001
0002
0000
0000
,  // measure 41
1003
1000
1000
0000
,  // measure 42
0001
0001
0001
0000
,  // measure 43
0100
0100
0100
0000
,  // measure 44
0010
0010
0010
0000
,  // measure 45
1000
0000
0001
0000
,  // measure 46
0100
0000
0010
0000
,  // measure 47
1000
0001
0100
0010
,  // measure 48
1000
0001
1000
0001
,  // measure 49
1000
0000
0000
0000
,  // measure 50
0001
0000
0001
0000
0100
0010
0100
0000
,  // measure 51
0010
1000
0001
0100
,  // measure 52
0001
1000
0100
0010
,  // measure 53
0001
1000
0001
0100
,  // measure 54
0010
0000
0010
0000
,  // measure 55
1000
0010
0100
0001
,  // measure 56
1000
0001
0100
0010
,  // measure 57
1000
0000
0001
0000
,  // measure 58
0100
0001
1000
0001
,  // measure 59
1000
0000
0100
0010
,  // measure 60
0001
0000
0010
0100
,  // measure 61
1000
0000
0001
0100
,  // measure 62
0010
0000
1000
0010
,  // measure 63
0100
0000
0001
0100
,  // measure 64
0010
0000
1000
0100
,  // measure 65
0010
0000
0001
0010
,  // measure 66
0100
1000
0001
0100
,  // measure 67
0010
0000
0000
0000
;
