#TITLE:Smartbomb;
#SUBTITLE:;
#ARTIST:BT;
#TITLETRANSLIT:;
#SUBTITLETRANSLIT:;
#ARTISTTRANSLIT:;
#CREDIT:;
#BANNER:smartbomb.png;
#BACKGROUND:smartbomb-bg.png;
#LYRICSPATH:;
#CDTITLE:;
#MUSIC:smartbomb.ogg;
#OFFSET:-0.010;
#SAMPLESTART:23.980;
#SAMPLELENGTH:12.000;
#SELECTABLE:YES;
#BPMS:0.000=100.000;
#STOPS:;
#BGCHANGES:;

//---------------dance-single - Renard----------------
#NOTES:
     dance-single:
     Renard:
     Challenge:
     10:
     0.689,0.625,0.412,0.123,0.793:
0000
0000
0000
0000
,
0000
0000
0000
0000
0000
0000
0000
0000
0000
0000
0000
0000
0000
0000
0000
0000
0000
0000
0000
0000
0000
0000
1000
0001
1000
0000
1000
0000
0001
0000
0001
0000
,
1000
0000
0000
0100
0010
0002
0000
0000
1003
0001
0000
0100
0001
0100
0001
0000
,
1000
0100
0000
1000
0100
0000
0010
0001
0000
0010
0001
1000
0001
0100
0010
0000
,
1000
0010
1000
0001
0100
0020
0000
0000
1030
0000
0000
0010
0100
0001
0100
0000
,
0010
0000
1000
0000
0101
0000
0110
0000
1000
0010
1000
0000
0001
0000
1001
0000
,
0110
0000
0010
1000
0001
0000
0010
0100
1000
0001
0010
0000
0001
0000
1000
0001
,
0100
0010
0100
0010
0100
0010
0100
0010
0100
0010
0100
0010
0100
0010
0110
0000
,
1010
0000
0001
0100
0010
0000
1000
0100
0010
0001
1000
0000
0001
0000
0010
0100
,
0010
0100
0010
0100
0010
0100
0010
0100
0010
0100
0010
0100
0220
0000
0000
0330
,
0001
0010
0100
0000
0110
0000
0000
0100
1000
0010
0100
0000
0101
0000
0110
0000
,
1010
0000
0001
0100
0000
0010
1000
0100
0010
0000
0001
0000
1000
0001
0100
0000
,
0010
0000
1000
0001
0100
0000
0010
1000
0001
0000
0100
0001
0000
1000
0010
0000
,
0100
0001
0100
0000
0110
0000
1000
0010
1000
0001
0100
0000
1001
0000
1000
0001
,
1000
0100
0010
0000
0110
0000
0000
0010
0001
0100
0010
0000
1010
0000
0110
0000
,
0101
0000
1000
0010
0000
0100
0001
0010
0100
0000
1000
0000
0001
1000
0010
0000
,
0100
0000
0001
1000
0010
0000
0100
0001
1000
0000
0010
1000
0000
0001
0100
0000
,
0010
1000
0010
0000
0110
0000
0001
0100
0001
1000
0010
0000
0100
0000
0001
0000
,
1000
0000
0001
0100
0101
0000
1000
0010
0000
0010
1000
0000
0101
0000
0010
1000
,
0100
0010
0001
1000
0100
0010
0100
0010
0001
1000
0100
0010
0100
0010
0001
0000
,
1000
0000
0000
0001
0000
0000
0100
0000
0000
0010
0000
0000
0000
0000
0000
0010
0000
0000
1000
0000
0000
0000
0000
0000
0001
0000
0100
0000
0001
0000
1000
0000
0100
0000
1000
0000
0001
0000
0000
0000
0000
0000
1000
0000
0000
0100
0000
0000
,
0010
0001
1000
0001
1000
0100
1000
0100
0010
0100
0010
0001
0010
0001
1000
0000
,
0001
0000
0100
0000
1010
0000
0010
0100
0001
0010
0001
0000
0011
0000
0100
1000
,
0010
0000
0000
0100
0000
0000
0001
0000
0000
1000
0000
0000
0010
0000
0000
0100
0000
0000
0010
0000
0000
0100
0000
0000
0001
0000
0000
0000
0000
0000
1010
0000
0000
0000
0000
0000
0001
0000
0100
0000
0001
0000
0100
0000
0000
0000
0000
0000
,
0101
0000
0010
1000
1010
0000
1000
0100
0010
0001
0010
0000
0011
0000
0100
1000
,
0001
0001
0010
0010
0100
0000
1000
0001
0100
0010
1000
0000
1001
0000
0110
0000
,
0010
1000
0001
0000
0100
0000
0010
1000
0000
0000
0101
0000
0010
1000
0100
0000
,
0010
0001
1000
0000
0100
0000
0010
0001
0000
0000
1100
0000
0010
0001
1000
0000
,
0010
0100
0001
0000
1000
0000
0000
0101
0000
0000
1010
0000
1000
0100
0010
0000
,
0001
0000
0000
0010
0000
0000
0100
0000
0000
0000
0000
0000
1000
0000
0000
0000
0000
0000
0001
0000
0000
0010
0000
0000
0000
0000
0000
0000
0000
0000
1000
0000
0100
0000
1000
0000
0001
0000
0010
0000
0001
0000
1000
0000
0001
0000
1000
0000
,
0002
0000
0100
0000
0010
0000
0000
1000
0000
0000
1000
0000
0013
0000
0010
0001
,
0100
0000
0010
1000
0001
0000
1000
0001
0000
0001
0100
0000
0020
0000
0000
0000
,
1030
0000
0100
0000
0011
0000
0100
1000
0000
0001
0100
0000
0110
0000
0010
1000
,
0001
0000
0100
0000
0101
0000
0010
1000
0000
0001
1000
0000
2000
0000
3002
0000
,
0100
0000
0100
0000
0010
0000
0000
1000
0000
0000
1000
0000
0013
0000
0001
0010
,
0100
0000
0000
0000
0000
0000
1000
0000
0001
0000
1000
0000
0001
0000
0000
0000
0000
0000
0001
0000
0000
0102
0000
0000
0000
0000
0000
0000
0000
0000
1003
0000
0000
0000
0000
0000
1000
0000
0000
1000
0000
0000
0001
0000
0000
0100
0000
0000
,
0020
0000
0000
0000
0000
0000
2000
0000
0000
0030
0000
0000
0001
0000
0000
0001
0000
0000
0000
0000
0000
3010
0000
0000
0000
0000
0000
0010
0000
0000
0100
0000
0001
0000
0100
0000
0010
0000
0000
0000
0000
0000
0010
0000
0000
1000
0000
0000
,
1100
0000
0000
0000
0011
0000
0001
0010
0000
1000
0100
0010
0001
1000
0001
0000
,
0100
0100
0010
0000
1000
0000
0100
0010
0000
0001
0010
0000
0110
0000
0100
1000
,
0001
0100
0010
1000
0001
0100
0110
0000
,
0010
1000
0100
0000
0110
0000
0000
0000
0010
0001
0100
0000
0001
0000
1000
0100
,
1000
0000
0001
0010
0000
0001
1000
0000
0001
0000
0100
0000
0110
0000
0000
0000
,
0010
1000
0001
0000
0101
0000
0000
0001
0000
0100
0010
0000
1010
0000
1000
0100
,
0010
0000
0001
0000
1000
0000
0100
0010
0000
0010
0001
0000
0011
0000
0000
0000
,
0010
0100
1000
0000
0001
0000
0010
0100
0000
1000
0001
0000
0110
0000
0010
1000
,
0001
0100
0001
0100
0001
0100
0002
0000
0000
0000
0000
0000
1003
0000
0000
0001
0000
0000
0220
0000
0000
0000
0000
0000
,
0330
0000
0000
0000
;

//---------------dance-single - Renard----------------
#NOTES:
     dance-single:
     Renard:
     Hard:
     8:
     0.481,0.541,0.123,0.000,0.372:
0000
0000
0000
0000
,
0000
0000
0000
0000
,
0000
0000
0000
0000
,
0000
0000
0000
0000
,
1000
0000
0000
0010
1000
0010
0000
0000
0000
0000
0000
0000
0000
0000
0000
0000
,
1000
0000
0001
0000
0100
0010
1000
0010
,
0100
0000
0100
0001
0100
0000
0100
0010
1000
0100
0010
0000
0001
0000
0010
0100
,
1000
0000
0000
0000
0000
0000
0000
0001
,
0001
0000
0010
0100
1000
0000
0010
0100
0001
0100
0010
0000
1000
0000
0010
1000
,
0010
0000
0100
0000
0001
0000
0100
0000
0001
1000
0001
0000
1000
0000
0100
0000
,
0010
0000
0010
0001
0010
0000
0100
0000
1000
0000
0010
0000
0100
0000
0001
0000
,
0100
0000
0010
1000
0000
0000
0010
0000
1000
0000
0100
0000
0010
0000
0001
0000
,
1000
0000
0001
0100
0001
0000
0100
0000
0010
0000
1000
0000
0100
0010
0001
0000
,
1000
0010
0110
0000
0010
0100
0001
1000
,
0100
1000
0001
0000
0011
0000
0000
0000
0001
0000
0010
0000
0100
0000
1000
0000
,
0001
0100
0001
0100
0000
0000
0010
0000
1000
0000
0100
0000
0010
0000
0001
0000
,
1000
0000
0001
0100
0001
0000
0100
0000
0010
0000
1000
0000
0010
0000
1000
0000
,
0000
0100
0010
0000
0110
0000
0000
0000
0010
0000
0001
0000
1000
0000
0001
0000
,
0100
0100
0010
0000
1000
0010
1000
0010
,
0100
0000
0001
0100
0010
1000
0100
0010
0001
0010
0100
1000
0001
0100
0010
0000
,
1000
0000
0010
0000
0100
0001
0100
0010
,
1000
0000
0010
0100
0001
0100
0010
1000
0100
0010
0001
0010
0100
0000
1000
0000
,
0010
0010
0100
0000
0001
0100
0010
1000
,
0010
0000
1000
0000
0010
0100
0000
0001
0100
0000
0010
1000
0000
0010
1000
0000
,
0100
0000
0100
0010
0001
0000
0001
0010
0100
1000
0001
0000
0100
0000
0010
1000
,
0010
0000
1000
0001
1000
0000
0001
0100
0001
0100
0010
1000
0100
0010
0001
1000
,
0001
0000
0001
0000
0100
0000
0010
1000
0000
0010
1000
0000
0010
0000
0100
0000
,
0001
0010
0001
0000
0010
0000
0100
1000
0000
0100
1000
0000
0010
0000
0100
0000
,
0001
0000
1000
0000
0001
0000
0010
0100
0000
0010
0100
0000
1000
0000
0010
0000
,
0100
0000
0001
0000
1000
0000
0010
1000
0000
0010
1000
0000
0010
0000
0100
0000
,
0001
0000
1000
0000
0001
0100
0110
0000
,
0010
0000
0010
1000
0000
1000
0010
0000
0100
0000
0001
0000
1000
0000
0100
0000
,
0010
0000
0001
0010
0100
1000
0001
0100
,
0010
0000
0010
1000
0000
1000
0010
0000
0100
0000
0001
0000
1001
0000
0000
0000
,
1000
0000
0100
0000
0010
0000
0001
1000
0000
0001
0010
0000
0100
0000
1000
0000
,
0010
0000
0100
0000
0001
0000
1000
0010
0000
1000
0001
0000
1001
0000
0000
0000
,
0001
0000
0100
0000
0010
0000
1000
0100
0000
1000
0010
0000
1000
0000
0001
0000
,
0010
0000
0010
0001
1000
0000
1000
0010
0100
0001
0010
0100
1000
0001
0100
0010
,
1000
0000
1000
0000
0010
0000
0100
0001
0000
0100
0010
0000
1000
0000
0100
0000
,
0010
0000
0001
0000
0010
0000
0100
0000
1000
0010
1000
0000
1010
0000
0000
0000
,
1000
0010
0100
0000
0101
0000
0000
0000
0001
0100
0001
0100
0010
1000
0010
1000
,
0100
0010
0001
1000
0000
1100
0011
0000
,
1000
0001
1000
0000
0001
0000
0000
0000
0100
0010
1000
0000
0010
0000
0100
0000
,
0001
0000
0010
0000
0100
0000
1000
0001
0100
0000
0110
0000
1001
0000
0000
0000
,
1000
0100
0010
0000
0001
0000
0000
0010
0100
0000
1000
0000
0001
0000
0100
0010
,
1000
0000
0000
0100
0010
0000
0001
0000
1000
0000
0110
0000
1001
0000
0000
0000
;

//---------------dance-single - Renard----------------
#NOTES:
     dance-single:
     Renard:
     Easy:
     2:
     0.199,0.221,0.167,0.018,0.000:
0000
0000
0000
0000
,
0000
0000
0000
0000
,
0000
0000
0000
0000
,
0000
0000
0000
0000
,
0000
0000
0000
0000
,
0000
0000
0000
0000
,
1000
1000
0100
0010
,
0001
0000
0000
0000
,
0001
0001
0010
0100
,
1000
0001
0110
1001
,
1000
1100
0000
0011
,
0001
0101
0000
1010
,
1000
1100
0000
0011
,
0001
0100
0010
1000
,
0100
1100
0000
0011
,
0001
0101
0000
1010
,
1000
1010
0000
0101
,
0001
0010
0100
1000
,
0001
1000
0001
1000
,
0010
0010
0100
0010
,
0001
0001
0010
1000
,
0010
0100
0001
2000
,
3100
0100
0010
0001
,
1000
0001
0100
0020
,
1030
1000
0010
0100
,
0001
0001
0001
0001
,
0010
0010
0100
1000
,
0010
0010
0100
0001
,
0010
0010
0100
1000
,
0010
0010
0100
0001
,
0010
0000
0010
0000
,
0100
1000
0100
0000
,
0010
0000
0001
0010
,
0001
0000
1000
0010
,
0100
0000
0001
0100
,
0010
0000
1000
0010
,
0100
0000
0001
0100
,
0010
0010
1000
0100
,
0010
0010
0000
0001
,
1000
0010
0100
0101
,
0001
0110
0000
0010
,
1000
0100
0010
0011
,
0010
0100
0000
1000
,
0010
0100
0001
1001
,
1000
0100
0000
0010
,
0001
1000
0000
1001
;

//---------------dance-single - Renard----------------
#NOTES:
     dance-single:
     Renard:
     Medium:
     4:
     0.239,0.261,0.070,0.044,0.000: // measure 1
0000
0000
0000
0000
,  // measure 2
0000
0000
0000
0000
,  // measure 3
0000
0000
0000
0000
,  // measure 4
0000
0000
0000
0000
,  // measure 5
0000
0000
0000
0000
,  // measure 6
0000
0000
0000
0000
,  // measure 7
0000
0000
1000
0100
0010
0001
1000
0001
,  // measure 8
0000
0000
0000
0000
,  // measure 9
0001
0000
0001
0010
0100
1000
0001
0010
,  // measure 10
0001
1000
0020
0000
,  // measure 11
1030
0000
1010
0000
0000
0000
0010
1000
,  // measure 12
0001
0000
0101
0000
0000
0000
0001
0010
,  // measure 13
0100
0000
0110
0000
0000
0000
0100
1000
,  // measure 14
0001
0101
0000
0000
,  // measure 15
0001
1000
0100
0000
1000
0000
1001
0000
,  // measure 16
1000
0001
0010
0000
0001
0000
0011
0000
,  // measure 17
0001
1000
0010
0000
1000
0000
1010
0000
,  // measure 18
0000
1000
0001
0000
1000
0000
0100
0000
,  // measure 19
0010
0000
0001
0000
0000
0010
0100
0000
,  // measure 20
1000
0001
0100
0000
0001
1000
0100
0000
,  // measure 21
1000
0000
0001
0000
0010
0000
0001
1000
,  // measure 22
0010
0000
1000
0001
0010
0000
0001
0000
,  // measure 23
1000
0000
0010
0000
0100
0000
0001
1000
,  // measure 24
0100
0000
1000
0001
0100
0000
0001
0000
,  // measure 25
0010
0000
0010
0000
0100
1000
0001
0100
,  // measure 26
0010
0000
0010
0000
1000
0100
0010
0000
,  // measure 27
0002
0000
0013
0100
,  // measure 28
2000
0000
0000
3000
0010
0000
0100
0000
,  // measure 29
0002
0000
0013
0100
,  // measure 30
2000
0000
0000
3000
0010
0000
0100
0000
,  // measure 31
0010
0000
1000
0000
0010
1000
0010
0000
,  // measure 32
1000
0000
0001
0100
0001
0000
0000
0010
,  // measure 33
0100
0000
1000
0000
0010
1000
0010
0000
,  // measure 34
1000
0001
0100
0001
,  // measure 35
1000
0000
0100
0000
0010
0001
0010
0000
,  // measure 36
0100
1000
0001
0001
,  // measure 37
0100
0000
0010
0000
1000
0001
1000
0000
,  // measure 38
0100
0010
0001
0010
0100
1000
0001
0000
,  // measure 39
1000
1000
0001
0100
,  // measure 40
0010
0000
1000
0000
0001
0010
0001
0000
,  // measure 41
0010
0010
0100
1000
,  // measure 42
0001
0000
0100
0000
0010
1000
0010
0000
,  // measure 43
1000
0001
0010
0100
,  // measure 44
1000
0000
0001
0000
0010
0001
0010
0000
,  // measure 45
0100
1000
0001
0100
,  // measure 46
0010
0000
1000
0000
0001
0010
1001
0000
;
