#TITLE:Smac't;
#SUBTITLE:;
#ARTIST:Kitsune²;
#TITLETRANSLIT:;
#SUBTITLETRANSLIT:;
#ARTISTTRANSLIT:;
#CREDIT:;
#BANNER:;
#BACKGROUND:;
#LYRICSPATH:;
#CDTITLE:;
#MUSIC:smact.ogg;
#OFFSET:0.000;
#SAMPLESTART:6.000;
#SAMPLELENGTH:12.000;
#SELECTABLE:YES;
#BPMS:0.000=160.000;
#STOPS:;
#BGCHANGES:;

//---------------dance-single - Renard----------------
#NOTES:
     dance-single:
     Renard:
     Hard:
     7:
     0.537,0.556,0.152,0.609,0.023:
0000
0000
0000
0000
,
0000
0000
0000
0000
,
0000
0000
0000
0000
,
0000
0000
0000
0000
,
1000
0001
0000
1001
0000
0110
0000
0110
,
0000
1001
0000
0000
1000
0001
0100
0001
,
0000
1001
0000
1001
0000
1000
0100
0010
,
0000
0010
0000
0001
1000
0010
0000
1010
,
0000
1000
0001
0100
0000
0010
1000
0100
,
0000
0010
0000
0000
0001
0000
0010
0001
,
0000
0010
0000
0100
0000
1000
0000
0001
,
0100
0010
0000
1000
0000
0001
0100
0010
,
1000
0100
0000
0011
0000
0110
0000
1100
,
0000
1001
0000
1000
0001
0100
0010
1000
,
0000
0100
0010
0001
0000
0010
0100
1000
,
0000
0001
0010
0100
0000
1000
0100
0010
,
0001
1000
0010
0100
0001
1000
0100
0010
,
0001
0010
0000
0000
0100
1000
0001
0100
,
0000
0010
0000
1000
0000
0001
0100
0010
,
1000
0100
0000
0100
0000
1000
0001
0000
,
0220
0000
0000
0000
0000
0000
0000
0330
,
0010
0100
1000
0100
0001
0000
0100
0000
,
0010
1000
0100
0010
,
0001
0010
0100
0010
1000
0010
0100
0010
,
0001
1000
0001
0100
,
0010
0100
1000
0100
0010
0000
0100
0000
,
0001
0010
0100
0010
,
1000
0010
0100
0010
0001
0010
0100
0010
,
0001
1000
0001
0100
,
0001
0000
0100
0010
0000
0010
1000
0100
,
0010
0000
0001
0010
0000
0100
1000
0000
,
0010
0000
0100
0001
0000
1000
0100
0010
,
0001
0000
1000
0001
0000
0100
0010
0000
,
1000
0000
0100
0010
0000
0001
0010
0100
,
1000
0000
0001
0100
0000
0010
1000
0000
,
0001
0000
0100
0010
0000
1000
0100
0010
,
0001
0000
1000
0001
0000
0100
0010
0000
,
2000
0000
0000
0000
0002
0000
3000
0000
0200
0000
0003
0000
0310
0000
1000
0010
,
2000
0000
0200
3000
0020
0300
0002
0030
,
2000
0003
0002
3000
0020
0003
0200
0030
,
2000
0300
0002
3000
0200
0003
0020
0300
,
2000
0000
0030
0000
0002
0000
3000
0000
0200
0000
0003
0000
0301
0000
0010
0100
,
0020
0000
0200
0030
2000
0300
0020
3000
,
0130
0100
0100
0100
0200
0000
0320
0000
,
1030
1000
1000
1000
0200
0000
0320
0000
,
0032
0000
0000
0000
0020
0000
0003
0000
2000
0000
0030
0000
3001
0000
1000
0010
,
2000
0000
0020
3000
0002
0030
0200
0003
,
2000
0300
0002
3000
0020
0003
2000
0030
,
0020
3000
0002
0030
2000
0003
0002
3000
,
0020
0000
0003
0000
0200
0000
0030
0000
0002
0000
0300
0000
1003
0000
0100
0001
,
0200
0000
0002
0300
0200
0003
2000
0300
,
3010
0010
0100
0100
0200
0000
0302
0000
,
1003
1000
0100
0010
0001
0000
1001
0000
;

//---------------dance-single - Renard----------------
#NOTES:
     dance-single:
     Renard:
     Medium:
     4:
     0.296,0.340,0.023,0.000,0.000:
0000
0000
0000
0000
,
0000
0000
0000
0000
,
0000
0000
0000
0000
,
0000
0000
0000
0000
,
1000
0000
0000
0001
0000
0100
0000
0010
,
0000
1000
0000
0000
0100
0000
0010
0000
,
0001
1000
0001
1000
,
0010
0000
0100
0000
0001
0000
0000
1000
,
0000
0100
0000
0010
0000
0001
0000
1000
,
0000
0001
0000
0000
0000
0000
0000
0100
,
0000
0000
0000
0010
0000
0000
0000
1000
,
0100
0000
0000
0010
0000
0000
0001
0000
,
1000
0001
0000
0100
0000
0010
0000
1000
,
0000
0000
0100
0010
,
0000
0001
0000
1000
0000
0000
0000
0001
,
0000
0000
0000
0100
0000
0010
0000
1000
,
0000
0100
0000
0010
0000
0001
0000
1000
,
0000
0001
0000
0000
0100
0000
0010
1000
,
0000
0001
0000
0100
0000
0001
0000
1000
,
0001
1000
0000
0001
0000
0100
0010
0000
,
1001
0000
0000
0000
,
1000
0001
0100
0010
,
1000
1000
0001
0001
,
0100
0001
0100
0000
0001
0000
0000
0000
,
1000
0100
0010
0001
,
1000
0100
0010
0001
,
1000
0001
1000
0001
,
0100
0001
0100
0001
0100
0000
0001
0000
,
1000
0100
0010
0001
,
1000
1000
0100
0100
,
0010
0000
0010
0000
,
0001
0001
0010
0010
,
0100
0000
0100
0000
,
1000
0010
0100
0001
,
0100
0000
0100
0000
,
0010
1000
0001
0100
,
0001
1000
0100
0010
,
0001
0000
1000
0001
,
0100
0000
0010
0000
,
1000
0000
0100
0010
,
0001
1000
0001
0000
,
0100
0000
0010
0000
,
1000
0010
0100
0001
,
1000
1000
1000
1000
,
0001
0001
0001
0000
,
0100
0000
0010
0000
0000
0100
0010
0000
,
1000
0000
0001
0000
0000
1000
0001
0000
,
0100
0000
0010
0000
0000
0100
0010
0000
,
1000
0001
1000
0001
,
1000
0000
0001
0000
0000
1000
0001
0000
,
0100
0000
0010
0000
0000
0100
0010
0000
,
1000
0001
1000
0001
,
0100
0010
0100
0010
0100
0000
1001
0000
;

//---------------dance-single - Renard----------------
#NOTES:
     dance-single:
     Renard:
     Easy:
     2:
     0.212,0.307,0.000,0.199,0.000: // measure 1
0000
0000
0000
0000
,  // measure 2
0000
0000
0000
0000
,  // measure 3
0000
0000
0000
0000
,  // measure 4
0000
0000
0000
0000
,  // measure 5
1000
0000
1000
0000
,  // measure 6
0001
1000
0001
0000
,  // measure 7
0100
0000
0100
0000
,  // measure 8
0010
0100
0010
0000
,  // measure 9
1000
0000
0010
0000
,  // measure 10
2000
0000
0000
0000
,  // measure 11
3001
0000
0100
0000
,  // measure 12
0002
0000
0000
0000
,  // measure 13
0013
0100
1000
0100
,  // measure 14
0010
0001
0000
0000
,  // measure 15
1000
0000
0010
0000
,  // measure 16
0100
0000
0001
0100
,  // measure 17
0010
0000
1000
0000
,  // measure 18
0020
0000
0000
0000
,  // measure 19
0130
0000
0002
0000
,  // measure 20
0013
0000
0200
0000
,  // measure 21
1300
0000
0000
0000
,  // measure 22
1000
0001
1000
0001
,  // measure 23
1000
0000
1000
0000
,  // measure 24
0001
0000
0001
0000
,  // measure 25
0100
0000
0100
0000
,  // measure 26
0100
0010
0100
0010
,  // measure 27
1000
0000
1000
0000
,  // measure 28
0001
0000
0000
0001
,  // measure 29
1000
0000
0001
0000
,  // measure 30
1000
0001
0100
0010
,  // measure 31
1000
0000
1000
0000
,  // measure 32
1000
0000
1000
0000
,  // measure 33
0001
0000
0001
0000
,  // measure 34
1000
0100
0010
0001
,  // measure 35
1000
0000
0001
0000
,  // measure 36
0001
0000
0100
0000
,  // measure 37
0010
1000
0001
0100
,  // measure 38
0020
0000
0000
0000
,  // measure 39
2030
0000
3200
0000
,  // measure 40
0320
0000
0000
0000
,  // measure 41
0032
0000
0000
0000
,  // measure 42
0023
0000
0230
0000
,  // measure 43
2300
0000
3002
0203
,  // measure 44
0320
0000
0030
0010
,  // measure 45
0200
0000
0300
0100
,  // measure 46
0010
1000
0010
0000
,  // measure 47
0100
0001
0100
0000
,  // measure 48
0001
0010
0001
0000
,  // measure 49
0100
1000
0100
0000
,  // measure 50
1000
0000
0010
0000
,  // measure 51
0000
0000
0001
0000
,  // measure 52
1000
0000
0010
0000
,  // measure 53
0100
0000
0001
0000
;
