#TITLE:Sleepy Eyes;
#SUBTITLE:;
#ARTIST:Omicron Complex;
#TITLETRANSLIT:;
#SUBTITLETRANSLIT:;
#ARTISTTRANSLIT:;
#CREDIT:;
#BANNER:eyes.png;
#BACKGROUND:eyes-bg.png;
#LYRICSPATH:;
#CDTITLE:;
#MUSIC:eyes.ogg;
#OFFSET:0.000;
#SAMPLESTART:21.333;
#SAMPLELENGTH:12.000;
#SELECTABLE:YES;
#BPMS:0.000=180.000;
#STOPS:;
#BGCHANGES:;

//---------------dance-single - Renard----------------
#NOTES:
     dance-single:
     Renard:
     Challenge:
     8:
     0.590,0.627,0.061,0.010,0.010:
0000
0000
0000
0000
,
0000
0000
0000
0000
,
0000
0000
0000
0000
,
0000
0000
0000
0000
,
0001
0000
0001
0100
0000
0100
0000
0010
,
1000
0100
1100
0000
,
1000
0000
1000
0010
0000
0010
0000
0100
,
0001
0000
0100
0000
0001
1000
0001
1000
,
0001
0100
0010
0100
0001
0100
0010
0100
,
0001
0100
0010
0100
0001
0000
0101
0000
,
1000
0100
0010
0100
1000
0100
0010
0100
,
1000
0100
0010
0100
1000
0000
1100
0000
,
1000
0010
0100
0010
1000
0010
0100
0010
,
1000
0010
0100
0010
1000
0000
1010
0000
,
0001
0010
0100
0010
0001
0010
0100
0010
,
0001
0010
0100
0010
0001
0000
0011
0000
,
0001
0000
0001
0010
0100
0000
0100
1000
,
0010
0000
0010
0100
0001
0100
0010
0000
,
1000
0000
1000
0100
0010
0000
0010
0100
,
1000
0000
1000
0010
0100
0001
1000
0000
,
0001
0000
0001
0100
0010
0000
0010
1000
,
0100
0000
0100
1000
0001
0010
0100
1000
,
0001
0000
0001
0100
0001
0000
0001
1000
,
0100
0010
0001
0010
0100
1000
0001
0000
,
0100
0000
0010
0000
1000
0000
0100
0010
,
0001
0000
0001
0010
0100
0000
0100
1000
,
0010
0000
0100
0001
0100
0000
0010
1000
,
0100
0000
0100
0010
0001
0000
0001
0010
,
0100
0000
0100
1000
0010
0000
0010
0100
,
0001
0000
0001
0100
0010
0000
1000
0000
,
0100
0010
0001
0000
0010
0100
1000
0000
,
0010
0100
0001
0100
0010
1000
0100
0010
,
0001
0000
0001
0010
0100
0000
0100
1000
,
0100
1000
0001
1000
0010
1000
0100
1000
,
0001
0000
0001
1000
0010
0000
0010
0100
,
0001
0000
0001
0100
0001
0010
0001
1000
,
0001
0000
0001
0100
0010
0000
0010
1000
,
0100
0000
0100
1000
0010
0100
0001
0010
,
0001
1000
0001
0000
0001
0100
0010
1000
,
0100
0010
0001
0010
0100
1000
0001
0000
,
1000
0000
1000
0001
0000
0001
0000
0001
,
0100
0010
1000
0000
,
0100
0000
0100
0010
0000
0010
0000
0001
,
0010
0100
1000
0000
,
0001
0000
0001
0100
0000
0100
0000
0010
,
1000
0100
1000
0000
,
0001
0000
0001
0010
0000
0010
0000
0100
,
1000
0001
0100
0001
,
1000
0000
1000
0001
0000
0001
0000
0100
,
0010
1000
0010
0000
,
1000
0000
1000
0100
0000
0010
0000
0001
,
0010
0100
1000
0000
,
0001
0000
0001
0100
0000
0100
0000
0001
,
0100
0010
1000
0000
,
0001
0000
0001
1000
0000
0100
0000
0010
,
0001
1000
0001
0101
,
0001
0000
0001
1000
0100
0000
0100
0010
,
0001
0000
0001
0010
0100
0000
1000
0010
,
0100
0000
0001
0100
0010
0000
0010
1000
,
0100
0000
0100
1000
0001
0000
0001
0010
,
0001
1000
0001
0100
0001
0000
0001
1000
,
0100
1000
0010
1000
0001
0000
0001
1000
,
0100
0010
0001
0000
0001
0010
0100
0000
,
0100
1000
0010
0100
0001
0100
0010
0000
,
0010
1000
0100
1000
0001
1000
0001
0100
,
0001
0010
0001
1000
0100
0010
0001
0010
,
0100
1000
0001
0100
0001
0010
0001
1000
,
0100
1000
0010
1000
0001
1000
0100
0010
,
0001
0010
0100
1000
0010
0100
0001
0010
,
0100
1000
0001
0100
0010
1000
0100
1000
,
0001
0010
0100
2000
0000
0000
0000
0000
0000
0000
0000
0000
,
0000
0000
0000
0000
,
3000
0000
0000
0000
;

//---------------dance-single - Renard----------------
#NOTES:
     dance-single:
     Renard:
     Hard:
     6:
     0.420,0.479,0.000,0.010,0.000:
0000
0000
0000
0000
,
0000
0000
0000
0000
,
0000
0000
0000
0000
,
0000
0000
0000
0000
,
1000
0000
1000
0001
0000
0001
0000
1000
,
0001
1000
0001
0000
,
1000
0000
1000
0001
0000
0001
0000
0001
,
1000
0000
1000
0000
0001
1000
0001
1000
,
0001
0000
0100
0000
0010
1000
0010
0000
,
1000
0000
0100
0000
0010
0001
0010
0000
,
0100
0000
1000
0000
0001
1000
0001
0000
,
0100
0001
1000
1000
,
0001
0000
1000
0000
0100
1000
0100
0000
,
1000
0000
0001
0000
0010
0001
0010
0000
,
0001
0000
1000
0000
0010
1000
0010
0000
,
1000
0001
1000
1000
,
0001
0000
0001
0000
0100
0001
0100
0000
,
1000
0000
1000
0000
0100
1000
0100
0000
,
0001
0000
0001
0000
0100
0001
0100
0000
,
1000
0000
1000
0000
0100
1000
0100
0000
,
0001
0000
0001
0000
0100
0001
0100
0000
,
1000
0000
1000
0000
0100
1000
0100
0000
,
0001
0100
0001
0000
0100
0010
0100
0000
,
0010
1000
0010
0000
1000
0000
0001
0000
,
1000
0000
0001
0000
,
0100
0010
1000
0100
,
0010
0000
0001
0000
,
0010
0010
0100
0100
,
1000
0000
0010
1000
0001
0000
0001
0100
,
0001
0000
1000
0100
1000
0000
0001
0000
,
1000
0001
1000
0000
0001
0000
0001
0000
,
0100
0100
0010
0010
,
1000
1000
0001
0001
,
0100
0001
0100
0010
,
1000
1000
0001
0001
,
1000
0000
0000
1000
0100
0000
0000
0100
,
0010
0000
0001
0010
0001
0000
0010
0100
,
0010
0000
0100
1000
0100
0000
1000
0000
,
0001
1000
0001
0000
0100
0001
0100
0000
,
0001
1000
0001
0000
1000
0000
0001
0000
,
0001
0000
0100
0000
,
0010
1000
0100
0010
,
0001
0000
0010
0000
,
0000
0000
0100
1000
,
0010
0000
0100
0000
,
0001
0000
1000
0100
,
0010
0001
1000
0000
,
0001
1000
0001
1000
,
0010
0000
1000
0000
,
0100
0010
0001
1000
,
0001
0000
0100
0000
,
0001
0000
1000
0100
,
0010
0000
0100
0000
,
1000
0000
0001
0100
,
0001
1000
0000
0000
,
0001
0100
0001
1000
,
0001
0100
0001
1000
,
0100
0000
0010
0100
0010
0000
0100
1000
,
0100
1000
0010
0100
,
0001
0001
0100
0100
,
0001
1000
0100
1000
,
0001
0010
0001
1000
,
0001
0100
0001
0000
0100
0010
0100
0000
,
0010
1000
0010
0000
1000
0100
1000
0000
,
0001
0000
0001
1000
0010
0000
0010
0100
,
0001
0000
0010
0000
0100
0000
1000
0100
,
1000
0000
0001
0100
0001
0000
1000
0100
,
0010
0000
0001
0000
0010
0000
0100
1000
,
0001
0000
0100
0010
1000
0000
0010
0100
,
0001
0000
1000
0100
0010
0000
0001
0000
,
0010
0100
2000
0000
0000
0000
0000
0000
,
0000
0000
0000
0000
,
3000
0000
0000
0000
;

//---------------dance-single - Renard----------------
#NOTES:
     dance-single:
     Renard:
     Medium:
     4:
     0.288,0.324,0.000,0.154,0.000:
0000
0000
0000
0000
,
0000
0000
0000
0000
,
0000
0000
0000
0000
,
0000
0000
0000
0000
,
1000
0000
1000
0000
,
0001
0100
0001
0000
,
1000
0000
1000
0000
,
0100
0000
0010
0001
,
0010
0010
0010
0000
,
0010
0010
0010
0000
,
0100
0100
0100
0000
,
0100
0000
0100
0000
,
1000
1000
1000
0000
,
1000
0000
1000
0000
,
0001
0001
0001
0000
,
0001
0000
0001
0000
,
0100
0000
0010
0000
,
1000
0010
1000
0010
,
0100
0000
0001
0000
,
0010
0001
0010
0000
,
0100
0000
1000
0000
,
0001
0100
0001
0100
,
0010
0000
1000
0000
,
0001
0100
0001
0000
,
1000
0000
0100
0000
,
0010
0010
0001
0001
,
0010
0000
0100
0000
,
1000
0000
0001
0000
,
0100
0010
1000
0010
,
0100
0001
1000
0100
,
1000
0001
1000
0000
0001
0000
0000
0000
,
0100
0000
0010
0000
,
1000
1000
0010
0010
,
0100
0001
0010
0100
,
1000
0000
0000
1000
0001
0000
0000
0001
,
0100
0100
0010
0010
,
1000
0010
0100
0001
,
1000
0100
0010
0001
,
0010
0100
1000
0000
0001
0000
0000
0000
,
1000
0000
0010
0000
,
0200
0000
0302
0000
,
2003
0000
3100
0010
,
0002
0000
0023
0000
,
0000
0000
0130
1000
,
0020
0000
0230
0000
,
0302
0000
1003
0100
,
0010
0001
0000
0000
,
1000
0001
0010
0100
,
2000
0000
3020
0000
,
0130
0001
0100
0010
,
2000
0000
3002
0000
,
0000
0000
0013
0100
,
2000
0000
3020
0000
,
0230
0000
0301
1000
,
0100
0010
0000
0000
,
0000
0000
0000
0000
,
0001
0000
0001
0000
,
0010
0100
0010
0100
,
1000
0000
0100
0000
,
1000
0000
0010
0000
,
0100
0000
0100
0000
,
0001
0000
1000
0100
,
0010
0001
0010
0000
,
0100
0000
1000
0000
,
0001
0000
0001
0000
,
0100
0010
0100
0010
,
1000
0000
0010
0000
,
0100
0000
0001
0000
,
1000
0000
0100
0000
,
0010
0000
0001
1000
,
0010
0100
0001
0000
0000
0000
0000
0000
;

//---------------dance-single - Renard----------------
#NOTES:
     dance-single:
     Renard:
     Easy:
     2:
     0.173,0.288,0.000,0.092,0.000: // measure 1
0000
0000
0000
0000
,  // measure 2
0000
0000
0000
0000
,  // measure 3
0000
0000
0000
0000
,  // measure 4
0000
0000
0000
0000
,  // measure 5
1000
0000
1000
0000
,  // measure 6
0001
0001
0001
0000
,  // measure 7
0100
0000
0100
0000
,  // measure 8
0010
0000
0010
0010
,  // measure 9
1000
0000
0000
0000
,  // measure 10
1000
0000
0000
0000
,  // measure 11
0001
0000
0000
0000
,  // measure 12
0001
0000
0000
0000
,  // measure 13
0001
0000
0000
0000
,  // measure 14
0001
0000
0000
0000
,  // measure 15
1000
0000
0000
0000
,  // measure 16
1000
0000
0000
0000
,  // measure 17
0010
0000
0100
0000
,  // measure 18
0010
0000
0100
0000
,  // measure 19
0010
0000
1000
0000
,  // measure 20
0010
0000
1000
0000
,  // measure 21
0001
0000
0100
0000
,  // measure 22
0001
0000
0100
0000
,  // measure 23
0001
0000
0010
0000
,  // measure 24
0100
0000
1000
0000
,  // measure 25
0002
0000
0203
0000
,  // measure 26
0310
0000
0010
1000
,  // measure 27
0020
0000
2030
0000
,  // measure 28
3100
0000
0010
0000
,  // measure 29
0002
0000
0023
0000
,  // measure 30
0130
0000
1000
0000
,  // measure 31
0010
1000
0000
0000
,  // measure 32
0001
0000
0100
0000
,  // measure 33
0020
0000
2030
0000
,  // measure 34
3001
0000
0100
0001
,  // measure 35
1000
0000
0100
0000
,  // measure 36
0010
0000
0001
0000
,  // measure 37
1000
0000
0001
0000
,  // measure 38
0100
0000
0010
0000
,  // measure 39
1000
0010
0000
0000
,  // measure 40
0000
0000
0000
0000
,  // measure 41
0100
0000
0000
0000
,  // measure 42
0100
0000
0001
0000
,  // measure 43
1000
0000
0000
0000
,  // measure 44
0000
0000
0100
0000
,  // measure 45
0010
0000
0000
0000
,  // measure 46
0010
0000
0001
0000
,  // measure 47
1000
0000
0010
0000
,  // measure 48
0100
0000
0000
0000
,  // measure 49
0001
0000
0000
0000
,  // measure 50
0001
0000
0100
0000
,  // measure 51
0010
0000
0000
0000
,  // measure 52
0000
0000
0010
0000
,  // measure 53
1000
0000
0010
0000
,  // measure 54
0100
0000
0000
0000
,  // measure 55
0001
0000
0000
0000
,  // measure 56
1000
0000
0100
0000
,  // measure 57
0010
0000
0000
0000
,  // measure 58
0010
0000
0001
0000
,  // measure 59
0010
0000
0000
0000
,  // measure 60
0010
0000
0100
0000
,  // measure 61
1000
0000
0000
0000
,  // measure 62
1000
0000
0001
0000
,  // measure 63
0010
0000
0000
0000
,  // measure 64
0001
0000
0000
0000
,  // measure 65
1000
0000
0000
0000
,  // measure 66
1000
0000
0010
0000
,  // measure 67
0100
0000
0000
0000
,  // measure 68
0100
0000
0001
0000
,  // measure 69
1000
0000
0000
0000
,  // measure 70
0001
0000
0010
0000
,  // measure 71
0200
0300
0000
0000
;
