#TITLE:Slammin 'n Jammin;
#SUBTITLE:;
#ARTIST:DJ Seduction;
#TITLETRANSLIT:;
#SUBTITLETRANSLIT:;
#ARTISTTRANSLIT:;
#CREDIT:;
#BANNER:slam.png;
#BACKGROUND:slam-bg.png;
#LYRICSPATH:;
#CDTITLE:;
#MUSIC:slam.ogg;
#OFFSET:0.000;
#SAMPLESTART:31.543;
#SAMPLELENGTH:12.000;
#SELECTABLE:YES;
#BPMS:0.000=175.000;
#STOPS:;
#BGCHANGES:;

//---------------dance-single - Renard----------------
#NOTES:
     dance-single:
     Renard:
     Hard:
     9:
     0.637,0.625,0.347,0.000,0.196:
0000
0000
0000
0000
,
1000
0010
1000
0010
1000
0000
0010
0000
,
0100
0001
0100
0001
0100
0000
1001
0000
,
0001
0010
0001
0010
0001
0000
0010
0000
,
0100
1000
0100
1000
0100
0000
1001
0000
,
1000
0010
1000
0000
0001
0100
0001
0000
,
0010
0001
0010
0000
0100
1000
0100
0000
,
1000
0010
0100
0001
1000
0001
0100
0001
,
0100
0100
0010
0000
1001
0000
0000
0000
,
1000
0000
0000
0000
0000
0000
0100
0000
0010
0000
0000
0001
0000
0000
0010
0000
,
0100
0000
0000
0000
0000
0000
1000
0000
0010
0000
0000
0100
0000
0000
0001
0000
,
0100
0000
0000
0000
0000
0000
0010
0000
1000
0000
0000
0001
0000
0000
0100
0000
,
0010
0000
0000
0000
0000
0000
1000
0000
0100
0000
0000
0010
0000
0000
0001
0000
,
0010
0000
0000
0000
0000
0000
0000
0100
1000
0000
0000
0000
0010
0000
0000
0000
,
0100
0001
0100
0010
0000
1000
0000
0001
,
0000
0100
0000
0001
1000
0000
1100
0000
,
0100
0010
0001
0011
0000
0011
0000
0110
,
0000
0110
0000
0100
1000
0010
0100
0000
,
0001
0100
0010
0110
0000
1010
0000
1001
,
0000
1100
0000
0001
0010
0000
1100
0000
,
0001
0010
0001
0010
0000
0011
0000
0110
,
0000
1100
0000
0001
1000
0010
1000
0000
,
0001
0000
0100
0000
0010
0000
0000
0100
0001
0000
0000
0000
1001
0000
0000
0000
,
1000
0100
0010
0001
0010
0100
0110
0000
,
0100
1000
0010
0100
0001
0100
0110
0000
,
0010
1000
0100
0010
0001
1000
1001
0000
,
0001
1010
0101
1001
,
1000
0100
0010
0001
1000
0001
1001
0000
,
1000
0010
0100
0001
1000
0001
1001
0000
,
0001
0010
0011
0000
1000
0100
1100
0000
,
1010
0101
1001
0000
,
1000
0000
0000
0000
1000
0000
0000
0000
0010
0000
0000
0100
0000
0000
0001
0000
,
0010
0000
0000
0000
0010
0000
0000
0000
0100
0000
0000
1000
0000
0000
0010
0000
,
0100
0000
0000
0000
0100
0000
0000
0000
0001
0000
0000
1000
0000
0000
0001
0000
,
1000
0000
0000
0000
1000
0000
0000
0000
0010
0000
0000
0100
0000
0000
0001
0000
,
1000
0000
0000
0000
0100
0000
0000
0000
0010
0000
0000
0001
0000
0000
0010
0000
,
0100
0000
0000
0000
1000
0000
0000
0000
0010
0000
0000
0100
0000
0000
0001
0000
,
0100
0000
0000
0000
0010
0000
0000
0000
1000
0000
0000
0001
0000
0000
0100
0000
,
0010
0000
0010
0000
1000
0010
1000
0000
,
0001
0000
0001
0100
0010
0000
0010
1000
,
0100
0000
0100
0010
0001
0000
0001
0100
,
0010
0000
0010
1000
0100
1000
0001
0010
,
0001
0000
0001
1000
0010
0000
0010
0100
,
0001
0000
0001
1000
0100
0000
0100
0010
,
0001
0000
0001
1000
0010
0100
0001
1000
,
0100
0000
0100
0010
0001
0000
0000
0000
,
1000
0000
0000
0001
0000
0000
0100
0000
0000
0010
0000
0000
1000
0000
0000
0001
,
0100
0000
0000
0010
0000
0000
1000
0000
0000
0100
0000
0000
0010
0000
0000
0001
,
1000
0000
0000
0010
0000
0000
0100
0000
0000
0001
0000
0000
0010
0000
0000
0100
,
1000
0000
0000
0010
0000
0000
0100
0000
0001
0000
0000
0010
0000
0000
0100
0000
,
1000
0000
0000
0010
0000
0000
0100
0000
0000
0001
0000
0000
0010
0000
0000
0001
,
1000
0000
0000
0010
0000
0000
0100
0000
0000
0001
0000
0000
0010
0000
0000
0000
,
0100
0000
0000
1000
0000
0000
0010
0000
0000
0100
0000
0000
0001
0000
0000
0000
,
1001
0000
0000
0000
,
1000
0000
0010
0000
0100
0000
0001
0000
0010
0000
0100
0000
0010
0000
0000
0010
,
0001
0000
0100
0000
0010
0000
1000
0000
0001
0000
0010
0000
0100
0000
0000
0100
,
1000
0000
0010
0000
0100
0000
0001
0000
1000
0000
0010
0000
0100
0000
0000
0100
,
0001
0000
0010
0000
0100
0000
0000
0100
1000
0000
1000
0000
0010
0000
0000
0010
,
0100
0000
0001
0000
0010
0000
0100
0000
1000
0000
0001
0000
0100
0000
0000
0100
,
0001
0000
1000
0000
0100
0000
0010
0000
0001
0000
1000
0000
0010
0000
0000
0010
,
0100
0001
1000
0100
1000
0001
0010
0001
,
1000
0010
0100
0001
1000
0000
1001
0000
,
1000
0000
0010
0000
0100
0000
0001
0000
0010
0000
0001
0000
1000
0000
0000
1000
,
0001
0000
0100
0000
0010
0000
1000
0000
0100
0000
0010
0000
0001
0000
0000
0001
,
1000
0010
0100
0001
0010
0100
1000
0001
,
0100
0001
0100
0010
0100
0010
1000
0010
,
1000
0000
0100
0000
0010
0000
0001
0000
1000
0000
0010
0000
0100
0000
0000
0100
,
0001
0000
0010
0000
0100
0000
1000
0000
0010
0000
0100
0000
0001
0000
0000
0001
,
1000
0100
0010
0000
0010
0001
0100
0000
,
0100
0001
0100
0001
0000
0000
0000
0000
0000
0000
0000
0000
,
0100
0001
0100
0010
1000
1000
1000
0000
,
0010
0100
0001
0010
0100
0100
0100
0000
,
1000
0010
0100
0001
1000
1000
0010
0000
,
0101
0110
1100
0110
,
0001
0100
0010
1000
1000
1000
1000
0000
,
0100
0010
0001
1000
1000
1000
1000
0000
,
0001
0010
0100
1000
1000
1000
1000
0000
,
0010
0100
0101
0000
0110
0000
0000
0000
,
1001
0000
0000
0000
;

//---------------dance-single - Renard----------------
#NOTES:
     dance-single:
     Renard:
     Medium:
     5:
     0.385,0.416,0.053,0.018,0.000:
0000
0000
0000
0000
,
1000
0000
1000
0001
,
0010
0000
0001
0000
,
1000
0000
0001
0100
,
0001
0001
0001
0000
,
1000
0000
0100
1000
,
0001
0000
0010
0000
,
0001
1000
0010
1000
,
0001
0001
0010
0000
,
0100
0000
0000
0000
1000
0000
0100
1000
,
0001
0000
0000
0000
0010
0000
0001
0010
,
0001
0000
0000
0000
1000
0000
0010
1000
,
0010
0000
0100
0001
,
1001
0000
0110
1001
,
1000
0001
1000
0001
0000
0100
0000
0001
,
0000
1000
0000
0001
1000
0000
0000
0000
,
0100
1000
0100
1000
0000
0001
0000
1000
,
0000
0001
0000
0010
0001
0000
0000
0000
,
1000
0001
1000
0001
0000
0100
0000
0010
,
0000
1000
0000
0001
1000
0000
0000
0000
,
0100
1000
0100
1000
0000
0001
0000
0010
,
0000
0001
0000
1000
0010
0000
0010
0000
,
1000
0000
0001
1000
,
0001
0000
0001
0000
0100
0010
0100
0000
,
0010
0000
0010
0000
1000
0001
1000
0000
,
0100
0000
0010
0000
0001
1000
0001
0000
,
0010
0100
1000
0001
,
0100
0000
0010
0000
1000
0010
1000
0000
,
0001
0000
0100
0000
0010
1000
0010
0000
,
1000
0000
0100
0000
0010
0001
0010
0000
,
0001
0001
0001
0000
,
1000
0000
0100
0000
0010
0000
0001
0010
,
0100
0000
0000
0000
1000
0000
0001
0100
,
0010
0000
0000
0000
1000
0000
0100
1000
,
0001
0000
0000
0000
0010
0000
0001
1000
,
0001
0000
0000
0000
0100
0000
0010
1000
,
0010
0000
0000
0000
1000
0000
0001
0010
,
0001
0000
0010
0100
,
1000
0000
0000
0000
,
0001
0000
0000
0000
0001
0000
0100
0010
,
1000
0000
0000
0000
0010
0000
0100
0001
,
0100
0000
0000
0000
0010
0000
1000
0010
,
1000
0000
0100
0010
,
0001
0000
0000
0000
0010
0000
0100
1000
,
0100
0000
1000
0010
,
0100
0000
0001
0000
,
1000
0000
1000
0001
,
0100
0000
0100
0001
,
1000
0000
1000
0100
,
0010
0010
0001
0001
,
1000
0000
1000
0010
,
0100
0000
0100
0001
,
1000
0000
1000
0100
,
0010
0010
0010
0000
,
0001
0010
0001
0010
,
0100
1000
0100
1000
,
0010
1000
0010
1000
,
0001
0000
0100
0000
0001
0000
1000
0001
,
1000
0010
1000
0001
,
0100
0001
0010
0100
,
1000
0001
1000
0100
,
1000
0000
0001
0000
1000
0001
1000
0000
,
0001
0000
0100
0000
0010
0000
1000
0001
,
1000
0000
0100
0000
0010
0000
0001
1000
,
0001
0000
0010
0000
0100
0000
1000
0001
,
1000
0010
0100
0000
,
0001
0000
0100
0000
0010
0000
1000
0001
,
1000
0000
0100
0000
0010
0000
0001
1000
,
0001
0000
0010
0000
0100
0000
1000
0001
,
1000
0000
0000
0000
,
0110
0000
0000
0000
0010
1000
0010
0000
,
0110
0000
0000
0000
0100
0001
0100
0000
,
0110
0000
0000
0000
0010
1000
0010
0000
,
0100
0001
0020
0000
,
0031
0000
0000
0000
0010
0001
0010
0000
,
0100
0000
0000
0000
1000
0100
1000
0000
,
0001
0000
0000
0000
0100
0001
0100
0000
,
0010
1000
0200
0000
,
0310
0000
0000
0000
;

//---------------dance-single - Renard----------------
#NOTES:
     dance-single:
     Renard:
     Easy:
     3:
     0.323,0.312,0.000,0.018,0.000: // measure 1
0000
0000
0000
0000
,  // measure 2
0001
0000
0001
1000
,  // measure 3
0100
0000
1000
0000
,  // measure 4
0001
0000
1000
0010
,  // measure 5
1000
1000
1000
0000
,  // measure 6
0001
0000
0010
0001
,  // measure 7
1000
0000
0100
0000
,  // measure 8
1000
0001
0100
0001
,  // measure 9
1000
1000
0100
0000
,  // measure 10
0010
0000
0001
0010
,  // measure 11
0001
0000
0100
1000
,  // measure 12
0100
0000
0001
0100
,  // measure 13
0001
0000
0010
1000
,  // measure 14
0001
0000
0010
0001
,  // measure 15
0001
0001
1000
0010
,  // measure 16
1000
0001
0001
0000
,  // measure 17
0010
0001
0001
1000
,  // measure 18
0001
1000
0100
0000
,  // measure 19
0001
0001
1000
0010
,  // measure 20
0100
0001
0001
0000
,  // measure 21
0010
0001
0001
1000
,  // measure 22
0100
1000
0001
0100
,  // measure 23
0001
0000
1000
0001
,  // measure 24
1000
1000
0010
0010
,  // measure 25
0100
0100
0001
0001
,  // measure 26
0010
0100
1000
0001
,  // measure 27
0100
0010
0001
1000
,  // measure 28
0010
0100
0001
0001
,  // measure 29
1000
0010
0100
0001
,  // measure 30
0001
0010
0100
0100
,  // measure 31
1000
1000
1000
0000
,  // measure 32
0001
0010
0100
1000
,  // measure 33
0010
0000
0001
1000
,  // measure 34
0010
0000
0001
0010
,  // measure 35
0001
0000
0100
1000
,  // measure 36
0001
0000
0010
0100
,  // measure 37
0001
0000
0001
1000
,  // measure 38
0100
0000
0100
0010
,  // measure 39
0001
0000
0000
0000
,  // measure 40
1000
0000
1000
0010
,  // measure 41
0001
0000
0100
0010
,  // measure 42
0010
0000
0100
0001
,  // measure 43
0001
0000
0010
0100
,  // measure 44
1000
0000
0100
0010
,  // measure 45
0001
0000
0001
0100
,  // measure 46
0010
0000
1000
0000
,  // measure 47
0001
0000
0001
1000
,  // measure 48
0010
0000
0010
1000
,  // measure 49
0001
0000
0001
0010
,  // measure 50
0100
0100
1000
1000
,  // measure 51
0001
0000
0001
0100
,  // measure 52
0010
0000
0010
1000
,  // measure 53
0001
0000
0001
0010
,  // measure 54
0100
0100
0100
0000
,  // measure 55
0100
1000
0100
1000
,  // measure 56
0001
0010
0001
0010
,  // measure 57
1000
0010
1000
0010
,  // measure 58
0100
0001
0100
0010
,  // measure 59
0010
1000
0010
0100
,  // measure 60
0001
0100
1000
0001
,  // measure 61
0010
0100
0010
0001
,  // measure 62
0010
0100
0010
0010
,  // measure 63
0100
0001
1000
0010
,  // measure 64
0010
0001
1000
0100
,  // measure 65
0010
1000
0001
0010
,  // measure 66
0010
1000
0001
0000
,  // measure 67
0100
0001
1000
0010
,  // measure 68
0010
0001
1000
0100
,  // measure 69
0010
1000
0001
0010
,  // measure 70
0010
0000
0000
0000
,  // measure 71
0001
0000
1000
0010
,  // measure 72
0001
0000
0001
0001
,  // measure 73
0001
0000
1000
0010
,  // measure 74
0001
0100
2000
0000
,  // measure 75
3000
0000
1000
0100
,  // measure 76
0001
0000
0010
0001
,  // measure 77
0100
0000
0001
0001
,  // measure 78
1000
0010
0002
0000
,  // measure 79
0003
0000
0000
0000
;
