#TITLE:Skydivin';
#SUBTITLE:;
#ARTIST:Darren Styles;
#TITLETRANSLIT:;
#SUBTITLETRANSLIT:;
#ARTISTTRANSLIT:;
#CREDIT:;
#BANNER:sky.png;
#BACKGROUND:sky-bg.png;
#LYRICSPATH:;
#CDTITLE:;
#MUSIC:sky.ogg;
#OFFSET:0.000;
#SAMPLESTART:40.321;
#SAMPLELENGTH:12.000;
#SELECTABLE:YES;
#BPMS:0.000=190.000;
#STOPS:;
#BGCHANGES:;

//---------------dance-single - Renard----------------
#NOTES:
     dance-single:
     Renard:
     Hard:
     9:
     0.656,0.648,0.010,0.057,0.000:
0000
0000
0000
0000
,
0000
0000
0000
0000
,
0000
0000
0000
0000
,
0000
0000
0000
0000
,
0001
0100
0000
0010
0000
1000
0000
0100
,
0010
0001
0000
0010
0000
0100
0000
1000
,
0010
0100
0000
0001
0000
0100
0000
0010
,
1000
0100
0000
0010
0000
0001
0000
0010
,
0100
1000
0001
0000
0100
0010
1000
0000
,
0010
0100
0001
0000
0010
0100
1000
0000
,
0001
1000
0010
0000
0100
0001
0100
0000
,
0010
1000
0100
0010
0001
0010
0100
0000
,
1000
0001
0100
0000
0010
1000
0100
0000
,
0010
0001
0100
0000
0010
1000
0100
0000
,
0100
1000
0010
0000
0100
0001
0010
0000
,
0100
1000
0001
0010
0100
1000
0001
0000
,
0001
0100
0010
0000
0010
1000
0000
1000
,
0100
0010
0001
0010
0000
0010
0100
0000
,
1000
0001
0100
0000
0010
1000
0000
0100
,
0010
0001
0010
0100
0000
0100
1000
0000
,
0001
0100
0010
0000
1000
0010
0100
0000
,
0001
0100
0010
1000
0000
1000
0100
0000
,
0010
0001
0010
0100
1000
0000
0001
0100
,
0000
0010
1000
0010
0000
0100
0001
0100
,
0010
0000
1000
0010
0100
0000
0001
0100
,
0010
0000
1000
0100
0010
0001
0010
0100
,
1000
0000
0001
0100
0001
0000
1000
0100
,
1000
0000
0001
0010
0100
1000
0001
0100
,
0010
0000
1000
0010
0100
0000
0001
0100
,
0010
0000
1000
0100
0010
0000
0001
0010
,
0100
1000
0001
0100
0010
1000
0001
0100
,
0000
0100
0000
0100
0000
0010
1000
0000
,
0001
0100
0010
1000
0100
0010
0001
0010
,
0100
1000
0010
0100
0001
0100
0010
1000
,
0100
0010
0001
0010
0100
1000
0100
1000
,
0010
0100
0001
0100
0010
1000
0100
1000
,
0001
0100
0010
1000
0100
0010
0001
0010
,
0100
1000
0001
0100
0010
1000
0100
0010
,
0001
0100
0010
1000
0100
0010
0001
0100
,
0010
1000
0100
1000
0001
0010
0100
1000
,
0001
0100
0010
1000
0100
0010
0001
0100
,
0010
1000
0100
0010
0001
0100
0010
0100
,
0010
1000
0100
1000
0001
0010
0100
1000
,
0001
0100
0010
1000
0100
0010
0001
0100
,
0010
1000
0010
1000
0001
0100
0010
1000
,
0100
0010
0001
0010
0100
1000
0001
0100
,
0010
1000
0001
1000
0100
0010
0001
0010
,
0100
1000
0001
0100
0010
1000
0001
0100
,
0020
0000
0000
0000
,
0000
0000
0000
0000
,
2030
0000
0000
0000
,
3002
0000
0000
0000
,
0203
0000
0000
0000
,
0000
0000
0000
0000
,
0320
0000
0000
0000
,
2030
0000
0000
0000
,
3100
0010
0001
0000
0010
0100
0000
1000
,
0010
0000
0100
0001
0100
0010
1000
0000
,
0100
0010
0001
0000
0010
0100
0000
1000
,
0001
0100
0010
1000
0010
0000
0100
0000
,
0001
0100
0010
0000
1000
0010
0000
0100
,
0001
0100
0010
1000
0100
0010
0001
0000
,
0010
0100
1000
0000
0001
0010
0000
0100
,
1000
0001
0100
0010
0000
1000
0010
0000
,
0100
0001
0100
0010
0100
1000
0100
0010
,
0100
0001
0100
0010
0100
0001
0100
0000
,
0001
0010
0100
0010
1000
0010
0100
0010
,
0100
0010
0001
0010
1000
0010
0100
0000
,
0100
1000
0010
1000
0001
1000
0100
1000
,
0001
1000
0010
1000
0100
1000
0100
0000
,
0001
0010
0001
0100
0001
1000
0001
0000
,
1000
0010
1000
0100
1000
0001
1000
0000
,
0010
0100
0001
0100
1000
0100
0001
0100
,
1000
0100
0010
0100
0001
0100
1000
0100
,
0001
0100
0010
0100
0001
0100
1000
0100
,
0010
0100
0001
0100
0010
0100
0001
0100
,
1000
0100
0010
0100
1000
0100
0001
0100
,
0010
0100
0001
0100
1000
0100
0010
0100
,
1000
0100
0001
0100
0010
0100
0001
0100
,
0010
1000
0100
0010
0001
0010
0100
0000
,
1001
0000
0000
0000
;

//---------------dance-single - Renard----------------
#NOTES:
     dance-single:
     Renard:
     Medium:
     6:
     0.398,0.381,0.010,0.057,0.000:
0000
0000
0000
0000
,
0000
0000
0000
0000
,
0000
0000
0000
0000
,
0000
0000
0000
0000
,
1000
0000
0001
0100
,
0001
0000
1000
0100
,
1000
0000
0001
0000
,
0010
0001
1000
0010
,
0100
0001
1000
0100
,
1000
0001
0010
0001
,
1000
0010
1000
0001
,
0100
0001
1000
0100
,
0010
0001
0010
0100
,
1000
0100
1000
0010
,
1000
0001
0100
0001
,
1000
0100
0010
0001
,
1000
0000
0001
0000
0000
0100
0000
0000
,
0010
0000
0000
1000
0000
0000
0100
1000
,
0100
0000
1000
0000
0000
0001
0000
0000
,
0010
0000
0000
0001
0000
0000
1000
0000
,
0010
0000
0100
0000
0001
0000
0100
0010
,
0000
0100
0000
0010
0000
1000
0000
0010
,
1000
0000
0100
0000
1000
0000
0001
0010
,
0000
0001
0000
1000
0000
0001
0000
0100
,
0010
0000
0100
0000
0001
0000
1000
0100
,
0000
1000
0000
0001
0000
0010
0000
0001
,
1000
0000
0001
0000
0100
0000
0010
1000
,
0000
0001
0000
1000
0000
0100
0000
0010
,
0001
0000
0010
0000
0100
0000
1000
0001
,
0000
1000
0000
0010
0000
1000
0000
0001
,
0100
0000
0001
0000
1000
0000
0100
1000
,
0000
0001
0000
0010
0000
0001
1000
0000
,
0001
0000
0001
0000
0100
0000
0010
1000
,
0000
0010
0000
1000
0000
0010
0000
0100
,
0001
0000
1000
0000
0100
0000
0010
0001
,
0000
0010
0000
0100
0000
1000
0000
0010
,
0100
0000
0001
0000
0100
0000
0010
1000
,
0000
0010
0000
0100
0000
0001
0000
0100
,
0010
0000
0100
0000
0001
0000
1000
0100
,
0000
1000
0000
0001
0000
0010
0000
0001
,
1000
0000
0001
0000
0010
0000
0001
1000
,
0000
0100
0000
1000
0000
0010
0000
0100
,
0010
0000
0100
0000
0001
0000
1000
0100
,
0000
1000
0000
0001
0000
0010
0000
0001
,
1000
0000
0010
0000
0100
0000
0010
1000
,
0000
0001
0000
0100
0000
0010
0000
1000
,
0100
0000
1000
0000
0001
0000
0010
0001
,
0000
1000
0000
0010
0000
0100
0001
0000
,
0200
0000
0000
0000
,
0000
0000
0000
0000
,
0320
0000
0000
0000
,
2030
0000
0000
0000
,
3002
0000
0000
0000
,
0000
0000
0000
0000
,
0023
0000
0000
0000
,
0230
0000
0000
0000
,
1300
0000
0001
0000
0000
0100
0000
0000
,
0010
0000
0000
1000
0000
0000
0010
1000
,
0010
0000
0100
0000
0000
0001
0000
0000
,
0010
0000
0000
0001
0000
0000
1000
0001
,
1000
0000
0001
0000
0000
0100
0000
0000
,
0010
0000
0000
1000
0000
0000
0100
1000
,
0100
0000
1000
0000
0000
0100
0000
0000
,
0010
0000
0000
0001
0000
0000
1000
0000
,
0001
0000
0010
0000
0001
0000
0010
0001
,
0000
0010
0000
0001
0000
0010
0000
0001
,
1000
0000
0100
0000
1000
0000
0100
1000
,
0000
0100
0000
1000
0000
0100
0000
1000
,
0001
0000
0010
0000
0001
0000
0010
0001
,
0000
0010
0000
0001
0000
0010
0000
0001
,
1000
0000
0100
0000
1000
0000
0100
1000
,
0000
0100
0000
1000
0000
0100
0000
1000
,
0000
0010
0000
1000
0000
0010
0000
1000
,
0000
0001
0000
0100
0000
0001
0000
0100
,
0000
0001
0000
1000
0000
0001
0000
1000
,
0000
0010
0000
0100
0000
0010
0000
0100
,
0000
0010
0000
1000
0000
0001
0000
0100
,
0000
0001
0000
1000
0000
0100
0000
0010
,
0000
0001
0000
0010
0000
0100
0000
1000
,
0000
0001
0000
0100
0000
0010
1000
0000
,
1001
0000
0000
0000
;

//---------------dance-single - Renard----------------
#NOTES:
     dance-single:
     Renard:
     Easy:
     3:
     0.285,0.343,0.000,0.200,0.000: // measure 1
0000
0000
0000
0000
,  // measure 2
0000
0000
0000
0000
,  // measure 3
0000
0000
0000
0000
,  // measure 4
0000
0000
0000
0000
,  // measure 5
2000
0000
0000
0000
,  // measure 6
3002
0000
0000
0000
,  // measure 7
0023
0000
0000
0000
,  // measure 8
0130
0010
0100
0010
,  // measure 9
0001
0000
1000
0000
,  // measure 10
0010
0000
1000
0000
,  // measure 11
0002
0000
0100
0000
,  // measure 12
0010
0000
1000
0000
,  // measure 13
1003
0000
0100
0000
,  // measure 14
0010
0000
0001
0000
,  // measure 15
0100
0000
0010
0000
,  // measure 16
2000
0000
0000
0000
,  // measure 17
3002
0000
0000
0000
,  // measure 18
0023
0000
0000
0230
0000
0000
2300
0000
,  // measure 19
3020
0000
0000
0000
,  // measure 20
0230
0000
0000
0302
0000
0000
0203
0000
,  // measure 21
0320
0000
0000
0000
,  // measure 22
2030
0000
0000
3200
0000
0000
0320
0000
,  // measure 23
0032
0000
0000
0000
,  // measure 24
0023
0000
0000
0230
0000
0000
2300
0000
,  // measure 25
3001
0000
1000
0000
0001
0000
0000
1000
,  // measure 26
0000
0001
0000
1000
0000
0000
0000
0000
,  // measure 27
0010
0000
0100
0000
0010
0000
0000
0100
,  // measure 28
0000
0010
0000
0100
0000
0000
0000
0000
,  // measure 29
0010
0000
1000
0000
0010
0000
0000
1000
,  // measure 30
0000
0010
0000
1000
0000
0000
0000
0000
,  // measure 31
0001
0000
0100
0000
0001
0000
0000
0100
,  // measure 32
0000
0001
0000
0100
0000
0000
0001
0000
,  // measure 33
1000
0000
1000
0000
1000
0000
0000
0001
,  // measure 34
0000
1000
0000
0001
0000
0000
0000
0000
,  // measure 35
0001
0000
0001
0000
0001
0000
0000
1000
,  // measure 36
0000
0001
0000
1000
0000
1000
0000
0000
,  // measure 37
0010
0000
0010
0000
0010
0000
0000
0100
,  // measure 38
0000
0010
0000
0100
0000
0000
0000
0000
,  // measure 39
0010
0000
0010
0000
0010
0000
0000
0100
,  // measure 40
0000
0010
0000
0100
0000
0100
0000
0000
,  // measure 41
0010
0000
0000
0000
1000
0000
0000
0010
,  // measure 42
0000
1000
0000
0010
0000
0000
0000
0000
,  // measure 43
0100
0000
0000
0000
0001
0000
0000
1000
,  // measure 44
0000
0001
0000
1000
0000
0000
0000
0000
,  // measure 45
0001
0000
0000
0000
0010
0000
0000
0100
,  // measure 46
0000
0100
0000
0100
0000
0000
0000
0000
,  // measure 47
1000
0000
0000
0000
0001
0000
0000
0010
,  // measure 48
0000
0001
0000
1000
0000
0000
0010
0000
,  // measure 49
0100
0000
0000
0000
,  // measure 50
0000
0000
0000
0000
,  // measure 51
0001
0000
0000
0000
,  // measure 52
1000
0000
0000
0000
,  // measure 53
0001
0000
0000
0000
,  // measure 54
0000
0000
0000
0000
,  // measure 55
0010
0000
0000
0000
,  // measure 56
0100
0000
0000
0000
,  // measure 57
1000
0000
0100
0000
0000
0010
0000
0000
,  // measure 58
0001
0000
0000
0010
0000
0000
0100
0000
,  // measure 59
0000
0000
1000
0000
0000
0100
0000
0000
,  // measure 60
0010
0000
0000
0001
0000
0000
0010
0000
,  // measure 61
0000
0000
0100
0000
0000
1000
0000
0000
,  // measure 62
0100
0000
0000
0010
0000
0000
0001
0000
,  // measure 63
0000
0000
0010
0000
0000
0100
0000
0000
,  // measure 64
1000
0000
0000
0100
0000
0000
0010
0000
,  // measure 65
0001
0000
0001
0000
0001
0000
0000
1000
,  // measure 66
0000
1000
0000
1000
0000
0000
0000
0000
,  // measure 67
0010
0000
0010
0000
0010
0000
0000
0100
,  // measure 68
0000
0100
0000
0100
0000
0000
0000
0000
,  // measure 69
0010
0000
0010
0000
0010
0000
0000
1000
,  // measure 70
0000
1000
0000
1000
0000
0000
0000
0000
,  // measure 71
0001
0000
0001
0000
0001
0000
0000
0100
,  // measure 72
0000
0100
0000
0100
0000
0000
0000
0000
,  // measure 73
0000
0010
0000
0010
0000
0010
0000
0000
,  // measure 74
0000
1000
0000
1000
0000
1000
0000
0000
,  // measure 75
0000
0001
0000
0001
0000
0001
0000
0000
,  // measure 76
0000
0100
0000
0100
0000
0100
0000
0000
,  // measure 77
0000
0010
0000
0010
0000
0010
0000
0000
,  // measure 78
0000
1000
0000
1000
0000
1000
0000
0000
,  // measure 79
0000
0001
0000
0001
0000
0001
0000
0100
,  // measure 80
0000
0100
0000
0100
0000
0010
1000
0000
,  // measure 81
0001
0000
0000
0000
;
