#TITLE:Skip 2 The...;
#SUBTITLE:;
#ARTIST:Teranoid & MC Natsack;
#TITLETRANSLIT:;
#SUBTITLETRANSLIT:;
#ARTISTTRANSLIT:;
#GENRE:;
#CREDIT:;
#BANNER:;
#BACKGROUND:;
#LYRICSPATH:;
#CDTITLE:;
#MUSIC:skip.ogg;
#OFFSET:0.000;
#SAMPLESTART:84.706;
#SAMPLELENGTH:12.000;
#SELECTABLE:YES;
#BPMS:0.000=170.000;
#STOPS:;
#BGCHANGES:;
#KEYSOUNDS:;

//---------------dance-single - Jinxie----------------
#NOTES:
     dance-single:
     Jinxie:
     Easy:
     4:
     0.306,0.000,0.043,0.492,0.000:
0000
0000
0000
0000
,
0000
0000
0000
0000
,
0000
0000
0000
0000
,
0000
0000
0000
0000
,
1000
0000
0010
0000
,
0001
0000
0010
0000
,
1000
0000
0100
0000
,
1000
0000
0001
0000
,
1001
0000
0010
0000
,
1000
0000
0001
0000
,
1010
0000
0001
0000
,
0010
0000
0100
0000
,
1100
0000
1000
0000
,
0010
0000
0100
0000
,
0011
0000
1000
0000
,
0001
0000
0010
0000
,
1000
1000
0010
0010
,
2000
0000
3002
0000
,
0013
0010
0100
0100
,
2000
0000
3020
0000
,
0130
0100
0001
0001
,
0020
0000
0230
0000
,
1300
1000
0010
0010
,
0200
0000
0301
0000
,
0001
0001
0010
0010
,
0200
0000
2300
0000
,
3010
0010
0100
0100
,
0002
0000
0023
0000
,
0130
1000
0010
1000
,
0200
0000
0320
0000
,
0031
0001
0010
0100
,
2000
0000
3020
0000
,
0130
0001
1000
0100
,
0020
0000
0032
0000
,
0103
0010
1000
0010
,
0200
0000
0302
0000
,
0013
0010
0100
1000
,
0002
0000
0203
0000
,
0310
0010
1000
0100
,
0020
0000
0032
0000
,
1003
0000
0020
0000
,
2030
0000
3002
0000
,
0023
0000
0230
0000
,
2300
0000
3002
0000
,
0023
0000
0230
0000
,
2300
0000
3020
0000
,
0230
0000
0302
0000
,
0023
0000
0230
0000
,
1300
1000
0010
0010
,
0200
0000
0302
0000
,
0013
0010
0100
1000
,
0020
0000
0230
0000
,
0301
0010
0001
0100
,
0020
0000
2030
0000
,
3000
0000
0000
0000
,
0000
0000
0000
0000
,
0010
0010
1000
1000
,
0001
0001
0010
0010
,
0100
0100
1000
1000
,
0010
0010
0100
0100
,
0001
0010
0001
0100
,
0020
0000
2030
0000
,
3100
0100
0010
0001
,
0020
0000
0230
0000
,
1300
0010
0100
0001
,
0020
0000
0032
0000
,
0103
0010
1000
0010
,
0200
0000
0302
0000
,
0013
0100
1000
0100
,
2000
0000
3020
0000
,
0130
0001
0010
0001
,
0200
0000
0320
0000
,
1030
0100
0010
0000
,
0000
0000
0000
0000
,
0000
0000
0000
0000
,
0000
0000
0000
0000
,
0000
0000
0000
0000
,
0000
0000
0000
0000
,
0000
0000
0000
0000
,
0000
0000
0120
0030
;

//---------------dance-single - Jinxie----------------
#NOTES:
     dance-single:
     Jinxie:
     Medium:
     7:
     0.402,0.000,0.000,0.432,0.125:
0000
0000
0000
0000
,
0000
0000
0000
0000
,
0010
0010
1000
1000
,
0001
0001
1000
0100
,
0010
0010
1000
1000
,
0001
0001
0010
0010
,
0001
1000
0010
1000
,
0001
0001
1000
1000
,
0010
0000
0000
1000
0000
0001
1000
0000
0000
0000
0000
0000
,
0001
0000
0000
0010
0000
0001
0010
0000
0000
0000
0000
0000
,
0010
0000
0000
0100
0000
1000
0100
0000
0000
0000
0000
0000
,
0010
0000
0000
0100
0000
0001
0100
0000
0000
0000
0000
0000
,
0010
0000
0000
0100
0000
0100
0010
0000
0000
0000
0000
0000
,
1000
0000
0000
0010
0000
0100
0010
0000
0000
0000
0000
0000
,
0100
0000
0000
0010
0000
1000
0010
0000
0000
0000
0000
0000
,
1000
0100
0010
0001
,
0100
0000
0100
0010
0000
0000
1000
0000
0000
0001
0000
0000
,
2000
0000
3020
0000
,
0031
0000
0001
0010
0000
0000
0010
0000
0000
0100
0000
0000
,
2000
0000
3020
0000
,
0130
0000
0100
0001
0000
0000
0010
0000
0000
0001
0000
0000
,
0200
0000
0320
0000
,
1030
1000
0010
0010
,
0200
0000
0302
0000
,
0013
0000
0010
0100
0000
0000
1000
0000
0000
0100
0000
0000
,
0020
0000
0032
0000
,
0103
0000
0100
0010
0000
0000
0100
0000
0000
0001
0000
0000
,
0020
0000
0230
0000
,
1300
0000
1000
0010
0000
0000
0010
0000
0000
0100
0000
0000
,
0002
0000
0023
0000
,
0130
0000
1000
0010
0000
0000
0010
0000
0000
0100
0000
0000
,
0002
0000
2003
0000
,
3010
0000
0010
0100
0000
0000
1000
0000
0000
0100
0000
0000
,
0020
0000
0230
0000
,
1300
0000
1000
0100
0000
0000
0001
0000
0000
0100
0000
0000
,
2000
0000
3200
0000
,
0301
0000
0001
0100
0000
0000
1000
0000
0000
0100
0000
0000
,
0002
0000
0203
0000
,
1300
0000
1000
0100
0000
0000
0010
0000
0000
0001
0000
0000
,
0020
0000
0230
0000
,
0301
0001
0010
0010
,
1000
1000
0002
0000
,
0013
0010
0100
1000
,
0010
1000
0020
0000
,
0130
0100
0001
0010
,
0100
1000
0020
0000
,
1030
0010
0100
0001
,
0010
0100
0020
0000
,
1030
0000
0010
1000
0000
0000
0010
0000
0000
0010
0000
0000
,
2000
0000
3020
0000
,
0130
0000
0001
0100
0000
0000
0001
0000
0000
0010
0000
0000
,
0200
0000
2300
0000
,
3010
0000
0010
0100
0000
0000
0001
0000
0000
0100
0000
0000
,
0020
0000
2030
0000
,
3000
0000
0000
0000
,
0000
0000
0000
0000
,
0010
0010
1000
1000
,
0001
0001
0010
0010
,
0100
1000
0010
1000
,
0100
0010
0001
0100
,
0010
0000
0010
1000
0000
0000
1000
0000
0000
0001
0000
0000
,
0020
0000
0230
0000
,
1300
0000
1000
0010
0000
0000
0100
0000
0000
0010
0000
0000
,
2000
0000
3200
0000
,
0310
0000
0010
0001
0000
0000
0010
0000
0000
0100
0000
0000
,
2000
0000
3020
0000
,
0130
0000
0100
0001
0000
0000
0010
0000
0000
0001
0000
0000
,
0200
0000
0320
0000
,
1030
0000
0010
1000
0000
0000
0010
0000
0000
0100
0000
0000
,
0020
0000
2030
0000
,
3100
0000
0100
1000
0000
0000
0010
0000
0000
1000
0000
0000
,
0002
0000
0023
0000
,
0130
0000
0100
0010
0000
0000
0010
0000
0000
0100
0000
0000
,
2000
0000
3200
0000
,
1300
0000
0010
0100
0000
0000
0010
0000
0000
1000
0000
0000
,
0020
0000
0230
0000
,
0301
0010
0010
0001
,
1000
0010
0010
1000
,
0001
0100
0100
0001
,
1000
0010
0010
1000
;

//---------------dance-single - pyroko----------------
#NOTES:
     dance-single:
     pyroko:
     Challenge:
     11:
     0.913,0.035,0.225,0.078,1.000: // measure 1
0000
0000
0000
0000
,  // measure 2
0000
0000
0000
0000
0000
0000
0000
0000
0000
0000
0000
1000
,  // measure 3
0100
0000
0010
0001
0000
1000
0100
0000
0010
0001
0000
0010
,  // measure 4
0001
0000
0100
0010
0000
0001
0010
0000
1000
0100
0000
0010
,  // measure 5
0001
0000
1000
0100
0000
0010
0100
0000
1000
0010
0000
0001
,  // measure 6
0010
0000
0100
0010
0000
1000
0100
0000
0010
0100
0000
1000
,  // measure 7
0001
0000
0010
0100
0000
1000
0010
0000
0001
0010
0000
0100
,  // measure 8
1000
0000
0100
0010
0000
1000
0100
0000
0010
0001
0000
0000
,  // measure 9
1000
0100
0010
0001
0000
1000
0010
0000
0100
0010
0000
0000
,  // measure 10
0001
0010
1000
0100
0010
0001
1000
0100
0010
0110
0000
0000
,  // measure 11
0001
1000
0010
0100
0010
1000
0100
0010
0100
1100
0000
0000
,  // measure 12
0100
0010
0001
1000
0010
0001
0010
1000
0100
0110
0000
0000
,  // measure 13
0001
1000
0010
0100
0010
0001
0010
1000
0100
1010
0000
0000
,  // measure 14
1000
0001
0100
0010
0001
0010
1000
0100
0010
0110
0000
0000
,  // measure 15
0001
1000
0010
0100
0010
0001
0010
1000
0100
0110
0000
0000
,  // measure 16
0001
1000
0100
0010
0001
1000
0100
0010
0001
1000
0010
0100
,  // measure 17
0110
0000
0010
1000
0000
0100
0010
0000
0001
1000
0000
0100
,  // measure 18
0010
0001
1000
0010
0100
0010
0001
0000
0010
1000
0000
1000
,  // measure 19
0100
0000
0010
1000
0000
0010
0001
0000
0100
0010
0000
1000
,  // measure 20
0100
0010
1000
0010
0001
0100
0010
0000
0100
0010
0000
1000
,  // measure 21
0100
0000
0010
0001
0000
0100
0001
0000
0001
0010
0000
0010
,  // measure 22
0100
1000
0010
0001
0010
1000
0100
0010
1000
0010
0000
0001
,  // measure 23
0100
0000
0010
0001
0000
0010
0100
0000
0010
1000
0000
1000
,  // measure 24
0100
0000
0010
0001
0000
1000
0100
0010
0001
1000
0100
0010
,  // measure 25
0001
1000
0010
0100
0010
0001
0010
1000
0100
0010
1000
0010
,  // measure 26
0002
0000
0103
0010
0001
0010
2000
0000
0000
0000
0000
3000
,  // measure 27
0100
0010
0001
1000
0000
0001
0010
0001
1000
0010
0100
0010
,  // measure 28
0001
0010
1000
0100
0000
0010
0002
0000
0000
0000
0003
0000
,  // measure 29
1000
0010
0100
0010
0000
0100
0010
0001
0010
1000
0000
1000
,  // measure 30
0100
0010
0001
1000
0010
0100
0010
0000
0010
0001
0000
0010
,  // measure 31
1000
0100
0010
1000
0000
0010
0001
0100
0010
0001
0010
0100
,  // measure 32
0001
0010
0001
1000
0100
0010
0001
0000
1000
0100
0010
0001
,  // measure 33
1000
0000
1000
0100
0000
0100
0010
0000
0010
0001
0000
0001
,  // measure 34
0100
0010
0001
0010
1000
0100
0010
1000
0010
0001
0000
0001
,  // measure 35
1000
0000
0100
0010
0000
0001
1000
0000
0010
0100
0000
0010
,  // measure 36
0100
0001
1000
0100
0010
0001
1000
0000
1000
0010
0000
0010
,  // measure 37
0110
0000
0100
1100
0000
0001
0011
0000
0001
0110
0000
0010
,  // measure 38
1000
0100
0010
0001
1000
0010
0001
0010
0100
0010
0000
0010
,  // measure 39
1100
0000
0100
0110
0000
0001
0101
0000
0001
0110
0000
0010
,  // measure 40
1000
0000
0100
0000
0010
0000
0001
0000
1000
0000
0100
0000
0020
0000
0000
0000
0000
0000
0002
0000
0000
0033
0000
0000
,  // measure 41
1000
0100
0010
0001
0000
1000
0100
0010
0001
1000
0000
0010
,  // measure 42
1000
0000
0000
0000
0010
0000
0100
0000
0000
0000
0010
0000
2000
0000
0000
0000
0000
0000
0000
0000
0000
3000
0000
0000
,  // measure 43
0010
0000
0100
0001
0000
1000
0100
0000
0010
0001
0000
1000
,  // measure 44
0100
0010
0001
0010
0001
0010
0001
0000
0010
0001
0000
0000
,  // measure 45
0010
0100
1000
0100
0000
1000
0010
0000
0100
0010
0000
0001
,  // measure 46
0010
1000
0100
0010
0100
1000
0010
0000
0010
0100
0000
0001
,  // measure 47
0010
0000
0100
1000
0000
0100
0010
0000
0001
1000
0000
0010
,  // measure 48
0100
0010
1000
0100
0010
0001
0010
0001
0100
0010
1000
0100
,  // measure 49
0010
0000
0001
0100
0000
0010
0100
0000
0010
0001
0000
0010
,  // measure 50
1000
0100
0010
0001
1000
0100
0110
0000
0001
1010
0000
0000
,  // measure 51
0010
0000
1000
0100
0000
0010
0001
0000
1000
0100
0000
0010
,  // measure 52
0001
0100
0010
0001
0010
1000
1100
0000
0100
0011
0000
0000
,  // measure 53
0001
0100
0010
0001
0000
0010
1000
0100
0010
0001
0000
1000
,  // measure 54
1010
0000
0010
0110
0000
0001
0011
0000
0001
0011
0000
0000
,  // measure 55
0020
0000
0000
0000
,  // measure 56
0000
0000
0000
0000
1001
0000
1001
0030
,  // measure 57
1000
0000
0100
0010
0000
0001
0010
0000
0001
0100
0000
0010
,  // measure 58
0100
0000
0010
1000
0000
0100
0010
0000
0001
1000
0000
0010
,  // measure 59
1010
1000
0100
0010
0001
1000
0100
0010
0001
1000
0010
0100
,  // measure 60
0010
0000
0100
0000
0010
0000
1000
0000
0100
0000
0010
0000
0001
0000
1000
0000
0100
0000
0010
0001
0010
0001
0010
0001
,  // measure 61
1000
0010
0100
0010
0000
1000
0100
0010
0001
1000
0000
0100
,  // measure 62
0010
0001
1000
0100
0010
0001
1000
0000
1000
0010
0000
0000
,  // measure 63
0010
0100
0010
0001
0000
0010
1000
0100
0010
0100
0000
1000
,  // measure 64
0001
0000
0010
0001
0000
0100
0010
0000
0001
0010
0000
1000
,  // measure 65
0100
0010
0001
1000
0000
0100
0010
0001
1000
0010
0100
0010
,  // measure 66
0001
0010
1000
0100
0010
0001
1000
0000
1000
0100
0000
0010
,  // measure 67
0100
0000
1000
0001
0000
0010
0001
0000
0100
0010
0000
0001
,  // measure 68
0010
1000
0100
0010
0001
1000
0100
0010
0001
1000
0000
0100
,  // measure 69
0010
0001
1000
0010
0000
0100
0010
0001
0010
1000
0000
1000
,  // measure 70
0100
0010
0001
1000
0000
0010
0100
0000
0000
0010
0000
0000
,  // measure 71
1000
0000
0100
0010
0000
0001
0010
0000
0001
0100
0000
0010
,  // measure 72
0001
0010
1000
0100
0010
0001
1000
0000
1000
0100
0000
0100
,  // measure 73
1000
0010
0100
0010
0000
0001
0010
1000
0100
0010
0000
0100
,  // measure 74
1000
0100
1000
0010
0100
0010
0001
0000
0001
0010
0000
0010
,  // measure 75
1000
0100
0010
0001
0000
1000
0100
0010
0100
1000
0000
1000
,  // measure 76
0010
0001
0010
1000
0010
0001
0010
1000
0100
0010
0001
1000
,  // measure 77
0010
0000
1000
0100
0000
0010
0001
0000
1000
0100
0000
0010
,  // measure 78
0001
0000
1000
0010
0000
0100
0010
0000
1000
0100
0000
0010
,  // measure 79
0001
0000
1000
0010
0000
0100
0010
0000
1000
0100
0000
2000
,  // measure 80
0200
0000
0010
0001
0000
0001
0010
0000
0010
0001
0000
0010
,  // measure 81
3301
0000
0000
0000
;

//---------------dance-single - Blank----------------
#NOTES:
     dance-single:
     pyroko:
     Hard:
     9:
     0.768,0.000,0.155,0.268,1.000: // measure 1
0000
0000
0000
0000
,  // measure 2
0000
0000
0000
0000
,  // measure 3
1000
0000
0100
0010
0000
0001
1000
0000
0010
0100
0000
0010
,  // measure 4
0001
0000
0010
1000
0000
0100
0010
0000
0100
0010
0000
0001
,  // measure 5
0100
0000
0010
0001
0000
0010
0100
0000
0010
0100
0000
0010
,  // measure 6
1000
0000
0100
1000
0000
0100
0010
0000
0001
0010
0000
0001
,  // measure 7
0100
0000
0010
1000
0000
0100
0010
0000
0001
1000
0000
0010
,  // measure 8
0100
0000
0010
0001
0000
0010
1000
0000
0100
0010
0000
0000
,  // measure 9
0001
0000
0000
1000
0000
0100
0010
0000
0000
0011
0000
0000
,  // measure 10
0001
0000
0000
1000
0000
0010
0100
0000
0000
1010
0000
0000
,  // measure 11
1000
0000
0000
0100
0000
0010
0001
0000
0000
0011
0000
0000
,  // measure 12
0001
0000
0000
1000
0000
0010
0100
0000
0000
0110
0000
0000
,  // measure 13
1000
0000
0100
0010
0000
0010
0001
0000
0001
0010
0000
0000
,  // measure 14
0001
0000
1000
0010
0000
0100
0010
0000
1000
0100
0000
0000
,  // measure 15
0010
0000
0001
1000
0000
0100
0010
0000
0001
1000
0000
0000
,  // measure 16
0010
0000
0100
0010
0000
1000
0100
0010
0001
1000
0100
0010
,  // measure 17
0002
0000
0000
0000
0000
0000
2003
0000
0000
0000
0000
0000
3200
0000
0000
0000
0000
0000
0320
0000
0000
0030
0001
0000
,  // measure 18
1000
0000
0100
0010
0000
0010
0001
0000
1000
0020
0000
0000
,  // measure 19
2030
0000
0000
0000
0000
0000
3200
0000
0000
0000
0000
0000
0320
0000
0000
0000
0000
0000
0032
0000
0000
0003
1000
0000
,  // measure 20
0100
0000
0100
0010
0000
0010
0001
0000
0001
0010
0000
0010
,  // measure 21
0002
0000
0000
0000
0000
0000
0000
0000
0000
0003
0000
0000
2100
0000
0000
0000
0000
0000
0000
0000
0000
3000
0000
0000
0120
0000
0000
0000
0000
0000
0000
0000
0000
0030
0000
0000
0201
0000
0000
0000
0000
0000
0300
0000
0001
0000
0000
0000
,  // measure 22
0010
0000
0010
0100
0000
0100
1000
0000
1000
0010
0000
0000
,  // measure 23
2200
0000
0000
3300
0022
0000
0000
0033
0220
0000
0000
0330
0220
0000
0000
0330
,  // measure 24
1000
0000
0000
0100
0000
0000
0010
0000
0001
1000
0000
0010
,  // measure 25
0100
0000
0010
1000
0000
0100
0010
0000
0001
1000
0000
0100
,  // measure 26
0010
0000
0000
0000
0001
0000
0000
0000
1000
0000
0000
0000
0100
0000
0000
0000
0000
0000
0000
0000
0010
0000
0000
0000
0200
0000
0000
0000
0000
0000
0000
0000
0000
0000
0000
0000
0000
0000
0000
0000
0000
0000
0000
0000
0000
0300
0000
0000
,  // measure 27
1000
0000
0010
0100
0000
0001
0010
0000
0100
1000
0000
0100
,  // measure 28
0010
0000
0000
0000
0001
0000
0000
0000
1000
0000
0000
0000
0100
0000
0000
0000
0000
0000
0000
0000
0100
0000
0000
0000
0020
0000
0000
0000
0000
0000
0000
0000
0000
0000
0000
0000
0000
0000
0000
0000
0000
0000
0000
0000
0000
0030
0000
0000
,  // measure 29
1000
0000
0100
0010
0000
0001
1000
0000
0010
0100
0000
0010
,  // measure 30
0100
0000
0000
0000
0001
0000
0000
0000
0010
0000
0000
0000
0001
0000
0000
0000
0000
0000
0000
0000
0010
0000
0000
0000
0200
0000
0000
0000
0000
0000
0000
0000
0000
0000
0000
0000
0000
0000
0000
0000
0000
0000
0000
0000
0000
0300
0000
0000
,  // measure 31
1000
0000
0100
0010
0000
0001
1000
0000
0100
1000
0000
0100
,  // measure 32
0010
0001
1000
0010
0100
0010
1000
0000
0100
0010
0000
0010
,  // measure 33
0001
0000
0001
1000
0000
1000
0100
0000
0100
0010
0000
0010
,  // measure 34
0001
0100
0001
0010
0000
0010
0001
0000
0001
0010
0000
0010
,  // measure 35
0100
0000
1000
0100
0000
1000
0100
0000
0010
0001
0000
1000
,  // measure 36
0100
0010
0001
1000
0000
1000
0100
0000
0000
0011
0000
0000
,  // measure 37
1000
0000
0100
0010
0000
0001
1000
0000
0010
0100
0000
0010
,  // measure 38
1000
0000
1000
0100
0000
0100
0010
0001
0010
0001
0000
0000
,  // measure 39
1000
0000
0100
0010
0000
0001
1000
0000
0100
0010
0000
0001
,  // measure 40
1001
0110
1100
0011
,  // measure 41
1000
0000
0100
0010
0000
0001
1000
0000
0100
0010
0000
0001
,  // measure 42
1000
0000
0000
0000
0000
0000
0000
0000
0010
0000
0000
0000
0100
0000
0000
0000
0000
0000
0000
0000
0001
0000
0000
0000
0020
0000
0000
0000
0000
0000
0000
0000
0000
0000
0000
0000
0000
0000
0000
0000
0000
0000
0000
0000
0000
0030
0000
0000
,  // measure 43
0001
0000
0010
0001
0000
0010
0100
0000
1000
0010
0000
0100
,  // measure 44
0001
0000
0000
0000
0010
0000
0000
0000
0100
0000
0000
0000
1000
0000
0000
0000
0000
0000
0000
0000
1000
0000
0000
0000
0200
0000
0000
0000
0000
0000
0000
0000
0000
0000
0000
0000
0000
0000
0000
0000
0000
0000
0000
0000
0000
0300
0000
0000
,  // measure 45
1000
0000
0100
0010
0000
0001
1000
0000
0001
1000
0000
0100
,  // measure 46
0010
0000
0000
0000
0000
0000
0000
0000
0001
0000
0000
0000
1000
0000
0000
0000
0000
0000
0000
0000
0010
0000
0000
0000
0200
0000
0000
0000
0000
0000
0000
0000
0000
0000
0000
0000
0000
0000
0000
0000
0000
0000
0000
0000
0000
0300
0000
0000
,  // measure 47
0010
1000
0100
0010
0000
0001
1000
0000
0100
0010
0000
0001
,  // measure 48
1000
0000
1000
0100
0000
0100
0010
0001
1000
0100
0010
0001
,  // measure 49
1000
0000
1000
0100
0000
0100
0010
0000
0010
0100
0000
0100
,  // measure 50
1000
0000
0010
0100
0000
0010
0001
0010
0100
0010
0000
1000
,  // measure 51
0100
0000
0010
0100
0000
1000
0100
0000
0010
0001
0000
1000
,  // measure 52
0001
0010
0001
0010
0000
0100
1000
0000
0010
0100
0000
0010
,  // measure 53
0100
0000
0001
0010
0000
0100
1000
0000
0001
0010
0000
0010
,  // measure 54
0100
0000
0010
0001
0000
0010
0001
0100
0010
1000
0000
0000
,  // measure 55
2000
0000
0200
0000
,  // measure 56
0000
0000
0000
0000
0000
0000
0000
3300
,  // measure 57
1000
0000
0100
0010
0000
0100
0010
0000
0001
0010
0000
0001
,  // measure 58
0010
0000
0100
1000
0000
0100
1000
0000
0010
0100
0000
0010
,  // measure 59
0100
0000
0001
0010
0000
0100
1000
0000
0010
0100
0000
0010
,  // measure 60
1000
0000
0100
0010
0000
0001
1000
0100
0010
0001
1000
0100
,  // measure 61
0010
0000
0001
1000
0000
0010
0100
0000
0010
1000
0000
0100
,  // measure 62
1000
0100
0010
0001
0000
1000
0100
0000
0010
0001
0000
0000
,  // measure 63
0100
0000
0010
0100
0000
0010
1000
0000
0100
0010
0000
0001
,  // measure 64
1000
0100
0010
0001
1000
0010
0100
0000
0100
0010
0000
0000
,  // measure 65
0010
0000
1000
0100
0000
0010
0001
0000
1000
0100
0000
0100
,  // measure 66
0010
0001
1000
0010
0100
0010
1000
0000
1000
0100
0000
0100
,  // measure 67
0010
0000
0001
1000
0000
0010
1000
0000
0010
1000
0000
0010
,  // measure 68
0100
0001
0010
0001
1000
0100
0010
0000
0010
0001
0000
0001
,  // measure 69
1000
0100
0010
0001
0000
1000
0100
0000
0010
0001
0000
1000
,  // measure 70
0100
0000
0010
0001
0000
1000
0100
0000
0000
0110
0000
0000
,  // measure 71
0001
0000
1000
0010
0000
0100
0010
0000
1000
0100
0000
0010
,  // measure 72
0001
0000
1000
0100
0000
0010
0001
0000
0000
1010
0000
0000
,  // measure 73
1000
0000
0100
0010
0000
0001
1000
0000
0010
1000
0000
0010
,  // measure 74
0100
0001
0010
0001
0000
0010
0100
0000
0100
1000
0000
0000
,  // measure 75
1000
0000
0010
0100
0000
0010
0100
0000
0001
0010
0000
0100
,  // measure 76
1000
0100
0010
0001
0000
1000
0100
0010
0001
1000
0000
1000
,  // measure 77
0100
0000
0100
0010
0000
0100
1000
0000
0010
0100
0000
0001
,  // measure 78
0010
0000
0001
0010
0000
0100
0010
0000
0100
0010
0000
0100
,  // measure 79
1000
0000
0100
1000
0000
0010
0100
0000
0010
0100
0000
0001
,  // measure 80
0010
0000
0001
0010
0000
0001
0010
0000
0200
2000
0000
0000
,  // measure 81
3300
0000
0000
0000
;
