#TITLE:Shotgun;
#SUBTITLE:;
#ARTIST:Art of Fighters;
#TITLETRANSLIT:;
#SUBTITLETRANSLIT:;
#ARTISTTRANSLIT:;
#CREDIT:;
#BANNER:gun.png;
#BACKGROUND:gun-bg.png;
#LYRICSPATH:;
#CDTITLE:;
#MUSIC:gun.ogg;
#OFFSET:0.000;
#SAMPLESTART:33.103;
#SAMPLELENGTH:12.000;
#SELECTABLE:YES;
#BPMS:0.000=174.000,128.000=170.000,132.000=164.000,136.000=156.000,140.000=150.000,144.000=143.000,148.000=136.000,152.000=130.000,156.000=125.000,160.000=126.000,200.000=252.000,201.000=126.000,228.000=174.000;
#STOPS:200.000=0.060
,200.250=0.060
,200.500=0.060
,200.750=0.060
;
#BGCHANGES:;

//---------------dance-single - Renard----------------
#NOTES:
     dance-single:
     Renard:
     Challenge:
     9:
     0.710,0.881,0.750,0.043,0.732:
0000
0000
0000
0000
,
0000
0000
0000
0000
,
0000
0000
0000
0000
,
0000
0000
0000
0000
,
1010
0000
0000
1000
0000
0100
0000
0000
0100
0010
0000
0000
,
0011
0000
0000
0001
0000
0010
0000
0000
0010
0100
0000
0000
,
1100
0000
0000
1000
0000
0010
0000
0000
0100
0001
0000
0000
,
0101
0000
0000
0110
0000
1010
0000
0000
0001
1000
0000
1000
,
0100
0000
0000
0110
0000
0011
0000
0000
0001
0010
0000
0010
,
0100
0000
0000
0110
0000
1100
0000
0000
1000
0010
0000
0010
,
0100
0000
0000
0101
0000
0110
0000
0000
0010
1000
0000
1000
,
0001
0000
2200
3311
,
1001
0000
0000
0001
0000
0001
0100
0000
0100
0010
0000
0010
,
1000
0000
1000
0100
0000
0100
0010
0000
0010
0001
0000
0000
,
1001
0000
0000
0001
0000
0001
0100
0000
0100
0010
0000
0010
,
1000
0000
1000
0100
0000
0100
0010
0000
0011
0000
0000
0000
,
1001
0000
0000
0001
0000
0001
0100
0000
0100
0010
0000
0010
,
1000
0000
1000
0100
0000
0100
0010
0000
0011
0000
0000
0001
,
0010
0000
0010
0100
0000
0100
1000
0000
1000
0010
0000
0010
,
0100
0000
0100
0001
0000
0001
0100
0000
0000
0110
0000
0000
,
1001
0000
0000
0001
0000
0100
0001
0000
0100
0001
0000
0100
,
0001
0000
0100
0001
0000
0100
0001
0000
0100
0001
0000
0100
,
0010
0000
0100
0010
0000
0100
0010
0000
0100
0010
0000
0100
,
0010
0000
1000
0010
0000
1000
0010
0000
1000
0010
0100
0001
,
0010
0000
0010
0100
0000
0100
1000
0000
1000
0010
0000
0000
,
0110
0000
0000
0101
0000
0001
1000
0000
0000
1100
0000
0000
,
0011
0000
0000
0100
0000
0100
1000
0000
0000
1010
0000
0000
,
0010
0000
0100
0001
0000
0100
0000
0000
0100
0010
0000
1000
,
0100
0000
0000
0110
0000
0010
0001
0000
0000
1001
0000
0000
,
0001
0000
0100
0010
0000
1000
0000
0000
1000
0010
0000
0000
,
0101
0110
1010
1001
,
1100
0000
0000
0000
0000
0010
0000
0000
0001
0000
0000
0000
,
1010
0000
0000
1000
0000
0100
0010
0000
0000
0011
0000
0000
,
0011
0000
0000
0010
0000
0100
1000
0000
0000
1010
0000
0000
,
0110
0000
0000
0100
0000
0001
0010
0000
0000
0011
0000
0000
,
0110
0000
0000
0100
0000
1000
0010
0000
0000
0110
0000
0000
,
0110
0100
0101
0000
0011
0010
0110
0000
,
1100
1000
1001
0000
0101
0100
0110
0000
,
1010
1000
1001
0001
0101
0100
0110
0010
,
1010
0000
0000
0000
1000
0000
0000
0001
0100
0000
0001
0000
1000
0000
0100
0000
,
1000
0000
0010
0100
0001
0000
0010
0100
1000
0000
0010
0000
0100
0000
0000
0000
,
0001
0000
0010
0100
1000
0000
0001
0000
1000
0000
1001
0000
1001
0000
0000
0000
,
0001
0000
0100
0010
1000
0000
0100
0010
0100
0000
1000
0000
0010
0000
0000
0000
,
0100
0000
0001
0100
0010
0000
1000
0100
0010
0000
0110
0000
0110
0000
0100
0000
,
1000
0000
0010
0100
0010
0000
0100
0001
0100
0000
0001
0000
0010
0000
0100
0000
,
1000
0000
1000
0001
0100
0000
0100
0010
1000
0000
0100
0000
0110
0000
0000
0000
,
0100
1000
0010
0100
0001
0000
0100
0000
0101
0000
0110
0000
1010
0000
0000
0000
,
0010
1000
0100
0010
0001
0000
0011
0000
0110
0000
1100
0000
1100
0000
0000
0000
,
1001
0000
0000
0000
0110
0000
0000
0010
1000
0000
0100
0000
0110
0000
0000
0000
,
0100
1000
1010
1010
0100
0011
0011
0001
,
1000
0001
1000
0001
1000
0000
0010
0000
0110
0000
0010
0000
0011
0000
0010
0000
,
1010
0000
1010
0000
0200
0000
0000
0000
0301
0000
1000
0001
0100
0000
0100
0000
,
0010
0000
0000
0000
1000
0000
0000
0000
0001
0000
0000
0000
0100
0000
0000
0000
0010
0000
0000
1000
0010
0000
0000
0000
0100
0000
0000
0000
0100
0000
0000
0000
,
0010
0000
1000
0000
0100
0000
0001
0000
0020
0000
2030
0000
3010
0100
0010
0100
,
0010
0100
0010
0100
0010
0000
1000
0000
1010
0000
0010
0100
0001
0000
0010
0000
,
0011
0000
0010
0100
1000
0000
0010
0000
0100
0001
0100
0001
0100
0001
0100
0001
,
0101
0000
1000
0010
1000
0010
1000
0010
0000
0000
0000
0000
0000
0000
0000
0000
,
1000
0000
1000
0001
0000
0001
0100
0000
0100
0010
0000
0010
,
1000
0000
1000
0100
0000
0110
0000
0000
0010
0001
0000
0001
,
0100
0000
0100
0010
0000
0010
1000
0000
1000
0001
0000
0001
,
0100
0000
0100
0010
0000
0110
0000
0000
0010
1000
0000
0001
,
0100
0000
0100
0001
0000
0100
0000
0000
0110
0000
0000
0010
,
1000
0000
0100
0010
0000
0001
0000
0000
0011
0000
0000
0001
,
0010
0000
0100
1000
0000
0001
0000
0000
1001
0000
0000
0001
,
0100
0000
0100
0010
0000
1000
0000
0000
1010
0000
0000
0000
,
1000
0000
1000
0010
0000
0010
0100
0000
0100
0001
0000
0001
,
0010
0000
0010
0100
0000
0100
0010
0000
0000
0011
0000
0000
,
0001
0000
0001
0010
0000
0010
0100
0000
0100
1000
0000
1000
,
0010
0000
0010
0100
0000
0100
0001
0100
0010
1000
0000
0000
,
0001
0000
0001
0100
0000
0100
0010
0000
0010
1000
0000
0000
,
0100
0000
0100
0010
0000
0010
0001
0000
0001
0010
0000
0000
,
0100
0000
0100
1000
0000
1000
0010
0000
0100
0001
0000
0000
,
0001
0000
0001
0100
0000
0010
0000
0000
1000
0001
0000
0001
,
0100
0000
0000
0000
;

//---------------dance-single - Renard----------------
#NOTES:
     dance-single:
     Renard:
     Hard:
     8:
     0.483,0.692,0.086,0.000,0.444:
0000
0000
0000
0000
,
0000
0000
0000
0000
,
0000
0000
0000
0000
,
0000
0000
0000
0000
,
1000
0000
0000
0001
0000
0100
0000
0000
0010
0000
0000
1000
,
0010
0000
0000
1000
0000
0100
0000
0000
0010
0000
0000
0001
,
0010
0000
0000
0100
0000
1000
0000
0000
0001
0000
0000
0100
,
0010
0000
0000
1000
0000
0010
0000
0000
0100
0000
0000
0001
,
0100
0000
0000
0010
0000
1000
0000
0000
0100
0000
0000
0010
,
0001
0000
0000
0010
0000
0100
0000
0000
1000
0000
0000
0001
,
0100
0010
1000
0010
,
0110
0000
0001
1000
,
0010
0000
0000
0010
0000
0100
0001
0000
0000
1000
0000
0000
,
0100
0000
0000
0010
0000
0001
0010
0000
0100
0000
0000
0000
,
1000
0000
0000
0010
0000
0100
0001
0000
0000
0100
0000
0000
,
0010
0000
0000
1000
0000
0100
0010
0000
0001
0000
0000
0000
,
0010
0000
0000
0100
0000
0000
1000
0000
0010
0000
0000
0100
,
0001
0000
0000
0100
0000
0000
0010
0000
1000
0000
0000
0010
,
1000
0000
0000
0100
0000
0000
0010
0000
0001
0000
0000
0010
,
0100
0000
0000
1000
0000
0000
0001
0000
0100
0000
0000
0010
,
1000
1000
1000
1000
,
0010
0000
0000
0010
0000
0100
0001
0000
0000
0100
0000
0010
,
0100
0000
0000
0001
0000
0100
0010
0000
0000
0100
0000
0001
,
0100
0000
0010
1000
0000
0010
0000
0000
1000
0000
0000
0000
,
0010
0000
0000
0010
0000
0100
0001
0000
0000
0100
0000
0000
,
0010
0000
1000
0001
0000
0100
0000
0000
0001
0000
0000
0000
,
1000
0000
0000
0100
0000
0010
0001
0000
0000
0010
0000
0000
,
0100
0000
1000
0001
0000
0010
0000
0000
0000
0000
0000
0000
,
0001
0000
0000
1000
0000
0010
0100
0000
0000
0001
0000
0000
,
0100
0000
0010
1000
0000
0001
0000
0000
0100
0000
0000
0000
,
0001
0000
0000
0001
0000
0000
1000
0000
0100
0000
0000
0000
,
1000
0000
0000
0000
0000
0100
0000
0000
1000
0000
0000
0000
,
0100
0000
0000
0100
0000
1000
0001
0000
0000
0100
0000
0000
,
0010
0000
0000
0010
0000
1000
0001
0000
0000
0100
0000
0000
,
0010
0000
0000
0010
0000
1000
0001
0000
0000
0100
0000
0000
,
0010
0000
0000
0010
0000
1000
0001
0000
0000
0100
0000
0000
,
0010
0000
0010
1000
0001
0000
0100
0000
,
0010
0000
0010
1000
0001
0000
0100
0000
,
0100
0000
0010
1000
0001
0000
0100
0000
,
0010
0000
0000
0000
0010
0000
0000
1000
0010
0000
1000
0000
0010
0000
0100
0000
,
0001
0000
0001
1000
0000
0100
0010
0000
,
0011
0000
0010
0100
1000
0000
0101
0000
,
0100
0010
1000
0100
0010
0000
0110
0000
,
0010
0000
0100
0000
1000
0000
0010
0100
0010
0000
0100
0000
0001
0000
0010
0000
,
0011
0000
0010
0100
1000
0000
1100
0000
,
1000
0100
0010
0001
1000
0000
1001
0000
,
0001
0100
0010
1000
0100
0010
0001
1000
,
0010
0000
0000
0000
0100
0000
0001
0100
0001
0000
0100
0000
0110
0000
0000
0000
,
0010
0000
1000
0100
0010
0000
0010
0001
,
0010
0100
1000
0001
0100
0010
1000
0010
,
1000
0010
1000
0010
1000
0000
0010
0000
0100
0000
0001
0000
0010
0000
0000
0000
,
0010
0001
1000
0100
0010
0000
0010
0001
,
1000
0010
0100
0000
0110
0000
0010
1000
,
0100
0000
0010
0000
0001
0000
0010
0000
0100
0000
1000
0000
0001
0100
0001
0100
,
0010
1000
0010
1000
0010
0000
0100
0000
0001
0000
0010
0000
0001
0000
1000
0000
,
0100
0000
0000
0000
0100
0000
1000
0000
0001
0100
0001
0100
0010
1000
0010
1000
,
0001
0000
0100
0010
0100
0010
0100
0010
0000
0000
0000
0000
0000
0000
0000
0000
,
0100
0000
0000
0100
0000
0001
0000
0000
1000
0100
0000
0000
,
0010
0000
0000
0010
0000
0001
0000
0000
1000
0010
0000
0000
,
0100
0000
0000
0100
0000
0001
0000
0000
1000
0100
0000
0000
,
0010
0000
0000
0010
0000
0001
0000
0000
1000
0010
0000
0100
,
0001
0000
0000
0010
0000
0010
0000
0000
0100
1000
0000
0010
,
0100
0000
0000
0001
0000
0001
0000
0000
0010
0001
0000
1000
,
0010
0000
0000
0100
0000
0001
0000
0000
0100
0010
0000
1000
,
0100
0000
0000
0000
0000
0010
0000
0000
0001
1000
0000
1000
,
0010
0000
0000
0100
0000
0100
0010
0000
0000
1000
0000
0000
,
0100
0000
0000
0010
0000
0010
0001
0000
0000
0000
0000
0000
,
0010
0000
0000
0100
0000
1000
0010
0000
0000
0100
0000
0000
,
0001
0000
0000
0100
0000
0010
1000
0000
0000
0010
0000
0000
,
1000
0000
0000
0001
0000
0100
0010
0000
0000
0000
0000
0000
,
1000
0000
0000
0010
0000
0100
0001
0000
0000
0000
0000
0000
,
1000
0000
0000
0100
0000
0010
0001
0000
0000
0010
0000
0000
,
0100
0000
0000
0000
0000
1000
0000
0000
0001
1000
0000
0000
,
0110
0000
0000
0000
;

//---------------dance-single - Renard----------------
#NOTES:
     dance-single:
     Renard:
     Medium:
     5:
     0.359,0.409,0.043,0.121,0.026:
0000
0000
0000
0000
,
0000
0000
0000
0000
,
0000
0000
0000
0000
,
0000
0000
0000
0000
,
1000
0001
1000
0001
,
0100
0010
0100
0110
,
0010
1000
0010
1000
,
0001
0100
0001
0101
,
0001
2000
3200
0310
,
0010
0002
2003
3001
,
0100
0020
2030
3010
,
0001
0000
0001
0010
,
1000
1000
0010
0100
,
0001
1000
1001
0000
,
1000
0000
0100
0010
,
0001
1000
1001
0000
,
0001
0000
0100
0010
,
0100
0000
0010
1000
,
0001
1000
0100
0010
,
0001
0001
0010
0100
,
1000
0000
1000
0000
,
1000
0000
1000
0000
,
1000
1000
1000
1000
,
1000
0001
0100
0000
,
0010
1000
0010
0010
,
0100
0001
0200
0000
,
0301
1000
0100
0100
,
1000
0001
0020
0000
,
0031
1000
0010
0010
,
1000
0001
0010
0100
,
1000
0001
0200
0000
,
0320
0000
2030
0000
,
3100
0100
0100
0100
,
0010
0001
0010
1000
,
0001
0001
0010
1000
,
0001
0100
1000
0010
,
0001
0100
1000
0010
,
0001
0100
1000
0010
,
0001
0100
1000
0010
,
0001
0000
0100
0000
0001
0100
0001
0100
,
0010
0000
1000
0000
0100
1000
0100
0000
,
1000
0000
0001
0000
0010
0001
0010
0000
,
0001
0000
0100
0000
0010
1000
0010
0000
,
1000
0000
0001
0000
0100
0010
0100
0000
,
0010
0000
1000
0000
0100
1000
0100
0000
,
0010
0000
0001
0000
1000
0001
1000
0000
,
0001
0000
0100
0000
0010
1000
0010
0000
,
1000
0100
0010
0001
,
1000
0000
0001
0000
0100
0010
0100
0000
,
0010
0000
1000
1000
0010
0000
0100
0001
,
2000
0000
3001
0000
0100
0010
1000
0000
,
0100
0010
0001
0000
0010
0001
1000
0000
,
0010
0000
0100
0001
0100
0000
0010
1000
,
0100
1000
0001
0000
0010
0000
0001
0000
,
1000
0001
0100
0000
0100
0000
0010
0000
,
1000
0100
0020
0000
,
0031
0200
0000
0000
0300
0000
0000
0000
,
0010
0010
0010
0010
,
0100
0010
1000
0001
,
1000
1000
0100
0010
,
0001
0010
0100
1000
,
0001
0000
1000
0100
,
0010
0000
0001
0010
,
0100
1000
0001
0010
,
0010
0000
0000
0000
0000
0001
0000
0000
1000
0000
0000
0000
,
0001
0001
1000
0001
,
1000
0000
0000
0001
0000
1000
0001
0000
0000
0000
0000
0000
,
1000
1000
0001
1000
,
0001
0000
0000
1000
0000
0001
1000
0000
0000
0000
0000
0000
,
0001
0100
0010
1000
,
0001
1000
0100
0010
,
0001
0001
0010
0100
,
1000
0000
0000
0000
0000
0001
0000
0000
0100
0000
0000
0000
,
1001
0000
0000
0000
;

//---------------dance-single - Renard----------------
#NOTES:
     dance-single:
     Renard:
     Easy:
     3:
     0.299,0.346,0.026,0.095,0.000: // measure 1
0000
0000
0000
0000
,  // measure 2
0000
0000
0000
0000
,  // measure 3
0000
0000
0000
0000
,  // measure 4
1000
1000
0001
0001
,  // measure 5
1000
0100
1000
0000
,  // measure 6
0001
0010
0001
0000
,  // measure 7
1000
0010
1000
0000
,  // measure 8
0001
0100
0001
0000
,  // measure 9
1000
0100
1000
0000
,  // measure 10
0001
0010
0001
0000
,  // measure 11
1000
0010
1000
0000
,  // measure 12
0001
0000
0100
0100
,  // measure 13
0010
0000
0010
1000
,  // measure 14
0100
0010
0001
1000
,  // measure 15
0010
0000
0100
0000
,  // measure 16
0100
0001
0100
0000
,  // measure 17
0010
0000
1000
0010
,  // measure 18
1000
0000
0001
0000
,  // measure 19
0100
0000
0001
1000
,  // measure 20
0100
0000
0010
0001
,  // measure 21
1000
1000
1000
1000
,  // measure 22
0001
0001
0001
0001
,  // measure 23
1000
0001
1000
0001
,  // measure 24
2000
0000
0002
3003
,  // measure 25
1000
0001
1000
1000
,  // measure 26
0001
1000
0001
0000
,  // measure 27
0100
0100
0010
0100
,  // measure 28
0010
0100
0010
0000
,  // measure 29
1000
0000
0010
1000
,  // measure 30
0010
0000
1000
0000
,  // measure 31
0001
0100
0001
0000
,  // measure 32
1000
0000
0100
0000
,  // measure 33
0010
0000
0010
0001
,  // measure 34
1000
0000
0010
1000
,  // measure 35
0001
0000
0010
0001
,  // measure 36
1000
0000
0010
1000
,  // measure 37
0001
0000
0100
0001
,  // measure 38
1000
0000
0100
1000
,  // measure 39
0001
0100
0001
1000
,  // measure 40
0100
1000
0011
0000
,  // measure 41
0001
0010
0100
0100
,  // measure 42
1000
0001
0200
0310
,  // measure 43
0010
1000
0200
0310
,  // measure 44
0010
0001
2000
3001
,  // measure 45
0002
1003
0010
0010
,  // measure 46
2000
3001
0010
0010
,  // measure 47
0002
1003
0010
0010
,  // measure 48
1000
0001
0100
0000
,  // measure 49
0010
0000
1000
0100
,  // measure 50
0010
0001
1000
0010
,  // measure 51
0200
0301
0001
1000
,  // measure 52
0100
0100
1000
0001
,  // measure 53
0010
0001
1000
0010
,  // measure 54
1000
0001
1000
0010
,  // measure 55
0010
1000
0001
0100
,  // measure 56
0010
1000
0002
0000
,  // measure 57
0203
0000
0300
0000
,  // measure 58
0010
0010
0010
0000
,  // measure 59
1000
0010
1000
0000
,  // measure 60
0001
0001
0001
0000
,  // measure 61
0100
0001
0100
0000
,  // measure 62
0001
1000
0001
0000
,  // measure 63
0010
0100
0010
0000
,  // measure 64
0001
1000
0001
0000
,  // measure 65
0100
0010
0100
0000
,  // measure 66
0010
0010
0010
0010
,  // measure 67
0010
1000
0100
0000
,  // measure 68
0010
0010
0010
0010
,  // measure 69
0010
0001
0100
0100
,  // measure 70
0010
0010
1000
0010
,  // measure 71
0001
0001
0010
1000
,  // measure 72
0100
0000
0100
0010
,  // measure 73
0001
0000
0000
0110
,  // measure 74
1001
0000
0000
0000
;
