#TITLE:Set Me Free;
#SUBTITLE:;
#ARTIST:D-Mode-D feat Kai'enne;
#TITLETRANSLIT:;
#SUBTITLETRANSLIT:;
#ARTISTTRANSLIT:;
#CREDIT:;
#BANNER:free.png;
#BACKGROUND:free-bg.png;
#LYRICSPATH:;
#CDTITLE:;
#MUSIC:free.ogg;
#OFFSET:0.000;
#SAMPLESTART:13.408;
#SAMPLELENGTH:12.000;
#SELECTABLE:YES;
#BPMS:0.000=179.000;
#STOPS:;
#BGCHANGES:;

//---------------dance-single - Renard----------------
#NOTES:
     dance-single:
     Renard:
     Hard:
     8:
     0.533,0.584,0.322,0.221,0.000:
0000
0000
0000
0000
,
0000
0000
0000
0000
,
0000
0000
0000
0000
,
0000
0000
0000
0000
,
0100
0001
1001
0000
,
0000
1100
0000
0000
,
0010
0001
0100
0100
,
0010
1000
0100
1001
,
0000
0000
0000
0000
,
0000
0000
0000
0110
,
0010
0000
1000
0000
0100
0010
0001
0000
,
0010
0000
0100
0000
1000
0010
1000
0000
,
0001
0000
0100
0000
0001
0010
0100
0000
,
0010
0000
0001
0000
1000
0100
1000
0000
,
0010
0000
1000
0000
0010
0100
0001
0000
,
1000
0000
0100
0000
0010
0100
0010
0000
,
0100
0000
1000
0000
0010
1000
0010
0000
,
0100
0001
0100
0000
0001
0010
0001
0000
,
1000
0000
0100
0000
1000
0010
0100
0000
,
0001
0000
0010
0000
0001
0010
0100
0000
,
1000
0000
0100
0000
1000
0100
0010
0000
,
0001
0000
0010
0000
0001
0100
0010
0000
,
1000
0100
1000
0000
0001
0010
0001
0000
,
1000
0010
1000
0000
0001
0100
0001
0000
,
1000
1001
0100
0101
,
1000
1100
0011
1001
,
0001
0100
0010
1000
,
1100
0000
1001
0000
1010
0000
1000
0100
,
0010
0001
0110
0000
,
0100
1000
1010
1001
,
1100
0000
1001
0000
1000
0000
0100
0010
,
0001
0010
0100
0000
1000
0010
0100
0001
,
0100
0000
0010
1000
0001
0000
1000
0000
,
0100
0000
1000
0001
1000
0000
1001
0000
,
0001
0100
0010
0000
0100
0010
0100
0000
,
0001
0100
0010
0000
0100
0010
0100
0000
,
0010
1000
0010
0000
0100
0010
0100
0000
,
0010
1000
0100
0000
1000
0100
1000
0000
,
0001
0010
0100
0000
1000
0010
0100
0000
,
0010
0100
0010
0000
1000
0010
1000
0000
,
0001
0000
0001
0100
0000
0100
0010
0000
,
1000
0100
0010
0001
1000
0001
1001
0000
,
0001
0000
0100
0000
0010
0100
1000
0100
,
0010
0000
0100
0000
0001
0000
0010
0100
,
0010
0000
1000
0000
0010
0100
0010
0001
,
0000
1000
0010
0000
1001
0000
1100
0000
,
1001
0000
1001
0000
0100
0001
0100
1000
,
0100
0000
0001
0000
0010
0000
1000
0010
,
0100
0000
0110
0000
0100
1000
0100
0001
,
0000
0100
1000
0000
1001
0000
0110
0000
,
0001
0000
1000
0100
0010
0000
0011
0000
,
0010
0100
1000
0010
,
0100
0000
0001
0100
1000
0000
0100
0000
,
0001
0000
0010
1000
0010
0000
0001
0000
,
0010
0100
1000
1010
,
1000
1001
0001
0100
,
0010
0000
1000
0100
1000
0000
0001
0000
,
0010
0000
0001
0010
0100
0000
1001
0000
,
M002
0M00
02M0
0003
20M0
0000
000M
0000
,
000M
03M0
0M02
00M0
0M00
0000
00M0
3000
,
0M20
M003
200M
0030
020M
3000
M002
0300
,
20M0
0M03
002M
3M00
M002
0M30
20M0
0M03
,
020M
3000
M002
03M0
M200
0000
00M0
0000
,
M000
00M3
200M
00M0
000M
00M0
000M
0300
,
00M2
3M00
02M0
M003
200M
0300
0M02
3000
,
20M0
0M03
020M
3000
M002
03M0
2M00
00M0
,
3MM3
0000
0000
0000
,
0000
0000
0000
1001
,
0001
0100
0010
1000
0100
0000
1000
0001
,
0000
0010
0001
0000
1001
0000
1010
0000
,
1100
0000
1001
0000
1000
0000
0100
0010
,
0001
0000
0010
0100
0000
1000
0001
0000
,
0100
0010
1000
0100
0010
0000
0001
0010
,
0000
0100
1000
0000
1001
0000
0110
0000
,
0010
1000
0001
0000
0100
0000
0001
1000
,
0100
0000
0010
0001
0000
1000
0001
0000
,
0001
0100
0010
1000
0100
0010
0001
0010
,
0000
0100
1000
0000
0010
0000
0100
0000
,
0001
0100
1000
0000
1000
0100
0001
0000
,
0001
0010
1000
0000
1000
0010
0001
0000
,
0010
0100
0010
0100
1000
0010
0100
0001
,
0000
0001
0100
0000
0010
0000
1000
0000
,
0100
1000
0100
1000
0001
0000
0010
0001
,
1000
0000
0010
0100
0000
0001
1000
0000
,
2002
0000
0000
0000
,
0000
0000
0000
0000
,
3003
0000
0000
0000
;

//---------------dance-single - Renard----------------
#NOTES:
     dance-single:
     Renard:
     Challenge:
     9:
     0.616,0.677,0.416,0.000,0.034:
0000
0000
0000
0000
,
0000
0000
0000
0000
,
0000
0000
0000
0000
,
0000
0000
0000
0000
,
0000
0000
0000
0000
,
0000
0000
0000
0000
,
0000
0000
0000
0000
,
0000
0000
0000
0000
,
0000
0000
0000
0000
,
0000
0000
0000
1001
,
0001
0100
0010
1000
0100
0010
0001
0010
,
0100
1000
0010
0100
0010
0001
0010
0100
,
1000
0100
0001
0010
0100
1000
0100
0001
,
0100
0010
0100
1000
0010
1000
0001
0000
,
0100
0001
0100
1000
0100
0001
0010
0100
,
1000
0100
0001
0100
0010
0100
1000
0010
,
0100
0001
0100
1000
0100
0001
0010
0001
,
0010
0100
0010
0100
1000
0010
1000
0000
,
0001
0100
1000
0100
0001
0010
1000
0010
,
0100
1000
0100
0001
0100
0010
0001
0010
,
1000
0010
0100
1000
0010
0001
0010
0100
,
1000
0100
0001
1000
0100
1000
0001
0000
,
1000
0100
0010
0001
0010
0100
1000
0010
,
0100
0001
0010
0100
1000
0010
1000
0000
,
0001
0100
0001
1000
0100
1000
0001
0000
,
0010
0100
1000
0001
0100
0010
0110
0000
,
0110
0000
0010
1000
0100
0000
1100
0000
,
1001
0000
1001
0000
1001
0000
0001
0100
,
1000
0000
1000
0100
0001
0000
0001
0010
,
1000
0000
1000
0010
0001
0000
1000
0000
,
0010
0000
1000
0000
0001
0000
0100
0010
,
1000
0100
0010
0000
0001
0010
0100
1000
,
0001
0010
0100
1000
0010
0100
0001
1000
,
0100
0010
0001
0100
0010
1000
0001
0000
,
1000
1100
0010
0011
,
0001
0100
0010
1000
0100
0010
0110
0000
,
0100
1100
1000
0011
,
0001
0000
1001
0000
0001
0100
0101
0000
,
0001
0100
0010
0000
0010
1000
0100
0000
,
0010
0100
1000
0010
1000
0001
1001
0000
,
0001
0000
0001
0100
0000
0100
1000
0000
,
1000
0100
0001
0010
0100
1000
0001
0000
,
0001
0000
1000
0000
0100
0010
0001
0010
,
0011
0000
0110
0000
1100
0000
0100
1000
,
0010
0000
1000
0000
0001
0100
0010
1000
,
0000
1001
1001
0000
1100
0000
1100
0000
,
1100
0000
0110
0000
0010
0001
0010
0100
,
0110
0000
1100
0000
1001
0000
1000
0010
,
0100
0000
0001
0000
0100
0010
1000
0001
,
0000
1001
1001
0000
0110
0000
1001
0000
,
1000
0000
0001
0000
0100
0010
1000
0000
,
1010
0000
1100
0000
1000
0100
0010
0000
,
0011
0000
0110
0000
0100
1000
0010
0000
,
0110
0000
0101
0000
0001
0100
0010
0000
,
1010
0000
1100
0000
1000
0100
0010
0000
,
0011
0000
0101
0000
0001
0100
0010
0000
,
1010
0000
1001
0000
1000
0100
0010
0000
,
0011
1001
0110
1001
,
0001
000M
1000
M000
0100
0M00
0000
0000
,
0000
0000
0010
00M0
0000
0000
0000
0000
,
0001
000M
0010
00M0
0100
0M00
1000
M000
,
0010
00M0
0100
0M00
0001
000M
1000
M000
,
0100
0M00
0010
00M0
0001
000M
0000
0000
,
0000
0000
0010
00M0
0000
0000
0000
0000
,
0100
0M00
1000
M000
0010
00M0
0100
0M00
,
0001
000M
0010
00M0
0100
0M00
1000
M000
,
0000
0000
0000
0000
,
0000
0000
0000
1001
,
0001
0100
0010
1000
0100
0010
0001
0010
,
0100
0000
1000
0000
0001
0000
0100
0000
0010
0000
1000
0010
1000
0000
0010
0000
,
1000
0100
0010
0001
0010
0100
1000
0001
,
0010
0000
0100
0000
1000
0000
0001
0000
0100
0000
0010
0100
0010
0000
0100
0000
,
0010
1000
0100
0010
0001
0010
0100
1000
,
0001
0000
0100
0000
0010
0000
1000
0000
0100
0000
1000
0100
1000
0000
0001
0000
,
0010
0100
1000
0001
0100
0010
1000
0100
,
0010
0000
0001
0000
1000
0000
0001
0000
0100
0000
0001
0100
0001
0000
0100
0000
,
0010
1000
0100
1000
0001
0010
0001
1000
,
0010
0000
0100
0000
0001
0000
1000
0000
0010
0000
1000
0010
1000
0000
0010
0000
,
1000
0100
0010
0001
0010
0100
1000
0001
,
0010
0000
0001
0000
1000
0000
0001
0000
0100
0000
0001
0100
0001
0000
0100
0000
,
0010
1000
0100
0010
0001
0010
0100
1000
,
0001
0000
0100
0000
0010
0000
1000
0000
0100
0000
1000
0100
1000
0000
0001
0000
,
0010
0100
1000
0001
0100
0010
1000
0100
,
0010
0000
0001
0000
0010
0000
0100
0000
1000
0000
0001
1000
0001
0000
1000
0000
,
1001
0000
0000
0000
;

//---------------dance-single - Renard----------------
#NOTES:
     dance-single:
     Renard:
     Medium:
     5:
     0.353,0.428,0.110,0.000,0.000:
0000
0000
0000
0000
,
0000
0000
0000
0000
,
0000
0000
0000
0000
,
0000
0000
0000
0000
,
0000
0000
0000
0000
,
0000
0000
0000
0000
,
0000
0000
0000
0000
,
0000
0000
0000
0000
,
0000
0000
0000
0000
,
0000
0000
0000
1001
,
0001
0000
0100
0000
0000
0001
0100
0000
,
0001
0000
1000
0000
0000
0001
1000
0000
,
0100
0000
1000
0000
0000
0100
1000
0000
,
0010
0000
1000
0000
0000
0010
1000
0000
,
1000
0100
1000
0100
,
0010
0001
0010
0000
,
0001
0100
0001
0100
,
0010
1000
0010
0000
,
1000
0000
0100
0000
0000
1000
0100
0000
,
0010
0000
0001
0000
0000
0010
0001
0000
,
0100
0000
0001
0000
0000
0100
0001
0000
,
1000
0000
0010
0000
0000
1000
0010
0000
,
1000
0100
1000
0100
,
0010
0001
0010
0001
,
1000
0000
0001
0000
0000
1000
0001
0000
,
0100
0000
0010
0000
0000
0100
0010
0000
,
1000
0000
0000
1000
0010
0000
1000
0000
,
0100
1000
0100
0010
,
0001
0001
0010
0010
,
0100
0100
1000
1000
,
0010
0000
0100
0000
0000
0000
0000
0001
,
0100
0001
0100
0000
0000
0000
0010
0000
,
1000
0000
0100
1000
,
0000
0000
0001
0010
0001
0000
0000
0000
,
1000
0000
0001
0100
,
0010
0000
1000
0000
0100
0000
0010
0100
,
0010
0000
0100
1000
,
0010
0000
0100
0000
0001
0000
0010
0001
,
0010
0000
0010
0100
,
1000
0010
0100
0001
,
0100
0000
0010
0100
0010
0000
1000
0010
,
1000
0001
1000
1001
,
1000
0000
0100
0010
,
0001
0000
0010
0000
0100
0000
1000
0100
,
1000
0000
0001
0000
0010
0001
0010
0001
,
0000
1000
0010
0100
,
0001
1000
0100
0010
,
0001
0000
0000
0000
0001
0000
1000
0100
,
1000
0000
0001
0000
0010
0001
0010
0001
,
0000
1000
0010
0000
,
0100
0001
0101
0000
,
0000
1001
0000
0000
,
1000
0100
1100
0000
,
0010
0001
0011
0000
,
0001
1000
1001
0000
,
0000
0110
0000
0000
,
0010
1000
1010
0000
,
0001
0001
0001
1001
,
1000
0100
0010
0000
,
0010
0001
0000
0000
,
0010
0100
1000
0010
,
0100
0001
1000
0100
,
0010
0001
1000
0000
,
1000
0010
0000
0000
,
0010
0100
0001
1000
,
0100
0010
0001
1000
,
0000
0000
0000
0000
,
0000
0000
0000
1001
,
0001
0000
1000
0000
0100
0000
1000
0001
,
0000
1000
0001
0000
1000
0000
0001
0000
,
0100
0010
1000
0100
,
0010
0001
1000
0010
,
0100
0000
0010
0000
1000
0000
0001
1000
,
0000
0001
1000
0000
0001
0000
0100
0000
,
0010
1000
0100
0010
,
0001
0000
1000
0000
0100
1000
0100
0000
,
1000
0000
0001
0000
0100
0001
0100
0000
,
0001
1000
0100
1000
,
0001
0000
0010
0000
0001
1000
0001
0000
,
1000
0010
1000
0100
,
1000
0000
0001
0000
0100
0000
0010
1000
,
0010
1000
0100
0010
,
0001
0000
1000
0100
1000
0000
0001
0010
,
0000
0001
1000
0110
,
1001
0000
0000
0000
;

//---------------dance-single - Renard----------------
#NOTES:
     dance-single:
     Renard:
     Easy:
     3:
     0.255,0.325,0.034,0.017,0.000: // measure 1
0000
0000
0000
0000
,  // measure 2
0000
0000
0000
0000
,  // measure 3
0000
0000
0000
0000
,  // measure 4
0000
0000
0000
0000
,  // measure 5
0000
0000
0000
0000
,  // measure 6
0000
0000
0000
0000
,  // measure 7
0000
0000
0000
0000
,  // measure 8
0000
0000
0000
0000
,  // measure 9
0000
0000
0000
0000
,  // measure 10
0000
0000
0000
1001
,  // measure 11
0001
0000
0100
0000
,  // measure 12
0001
1000
0100
0000
,  // measure 13
1000
0000
0001
0000
,  // measure 14
0010
0001
0010
0000
,  // measure 15
0001
0000
1000
0000
,  // measure 16
0010
1000
0010
0000
,  // measure 17
1000
0001
1000
0000
,  // measure 18
0001
1000
0001
0000
,  // measure 19
1000
0000
0100
0000
,  // measure 20
0010
0000
0001
0000
,  // measure 21
1000
0100
1000
0100
,  // measure 22
1000
0100
1000
0000
,  // measure 23
0001
0000
0010
0000
,  // measure 24
0100
0000
1000
0000
,  // measure 25
0001
0010
0001
0010
,  // measure 26
0001
0010
0001
0000
,  // measure 27
1000
0000
1000
0000
,  // measure 28
0001
0100
0001
1000
,  // measure 29
0100
0000
0010
0000
,  // measure 30
0001
0000
1000
1000
,  // measure 31
0001
0001
0000
0000
,  // measure 32
1000
0001
0000
0100
,  // measure 33
0010
0000
1000
0100
,  // measure 34
0000
0010
0001
0000
,  // measure 35
1000
0000
1000
0000
,  // measure 36
0001
0001
0001
0001
,  // measure 37
0100
0000
0100
0000
,  // measure 38
0010
0010
0010
0010
,  // measure 39
1000
0000
1000
0000
,  // measure 40
0100
0100
0100
0100
,  // measure 41
0010
0000
0010
0000
,  // measure 42
0001
0001
0001
0001
,  // measure 43
1000
0000
1000
0000
,  // measure 44
0001
0100
0001
0000
,  // measure 45
1000
0000
0100
0000
,  // measure 46
0010
0001
1000
0001
,  // measure 47
0100
0000
0001
0000
,  // measure 48
1000
0100
1000
0000
,  // measure 49
0001
0010
0001
1000
,  // measure 50
0010
0100
0001
1000
,  // measure 51
0100
0000
0100
0000
,  // measure 52
0000
0010
0000
0000
,  // measure 53
0001
1000
0010
0000
,  // measure 54
0100
0001
1000
0000
,  // measure 55
0100
0000
0100
0000
,  // measure 56
0000
0010
0000
0000
,  // measure 57
0001
1000
0001
0000
,  // measure 58
0100
0001
1000
0100
,  // measure 59
1000
0000
0001
0000
,  // measure 60
0000
1001
0000
0000
,  // measure 61
0010
0100
0010
0000
,  // measure 62
1000
0001
1000
0000
,  // measure 63
0010
0100
0010
0000
,  // measure 64
0000
0110
0000
0000
,  // measure 65
0010
1000
0100
0000
,  // measure 66
0010
0001
0100
0001
,  // measure 67
1000
0000
0000
0000
,  // measure 68
0000
0000
0000
1001
,  // measure 69
0001
0100
0001
1000
,  // measure 70
0100
1000
0001
0000
,  // measure 71
0010
0001
1000
0010
,  // measure 72
1000
0001
0100
0000
,  // measure 73
0001
0000
1000
0100
,  // measure 74
0010
0000
0001
0010
,  // measure 75
0100
0000
1000
0010
,  // measure 76
0100
0000
0001
0000
,  // measure 77
1000
0000
1000
0000
,  // measure 78
0001
0100
0010
1000
,  // measure 79
0100
0000
0010
0001
,  // measure 80
1000
0000
0001
0100
,  // measure 81
0010
0000
1000
0000
,  // measure 82
0100
0000
0010
0001
,  // measure 83
1000
0100
1000
0000
,  // measure 84
0001
0010
0100
2000
,  // measure 85
0002
0000
0000
0000
,  // measure 86
0000
3003
0000
0000
0000
0000
0000
0000
0000
0000
0000
0000
0000
0000
0000
0000
0000
0000
0000
0000
0000
0000
0000
0000
0000
0000
0000
0000
0000
0000
0000
0000
0000
0000
0000
0000
0000
0000
0000
0000
0000
0000
0000
0000
0000
0000
0000
0000
0000
0000
0000
0000
0000
0000
0000
0000
0000
0000
0000
0000
0000
0000
0000
0000
0000
0000
0000
0000
0000
0000
0000
0000
0000
0000
0000
0000
0000
0000
0000
0000
0000
0000
0000
0000
0000
0000
0000
0000
0000
0000
0000
0000
0000
0000
0000
0000
0000
0000
0000
0000
0000
0000
0000
0000
0000
0000
0000
0000
0000
0000
0000
0000
0000
0000
0000
0000
0000
0000
0000
0000
0000
0000
0000
0000
0000
0000
0000
0000
0000
0000
0000
0000
0000
0000
0000
0000
0000
0000
0000
0000
0000
0000
0000
0000
0000
0000
0000
0000
0000
0000
0000
0000
0000
0000
0000
0000
0000
0000
0000
0000
0000
0000
0000
0000
0000
0000
0000
0000
0000
0000
0000
0000
0000
0000
0000
0000
0000
0000
0000
0000
0000
0000
0000
0000
0000
0000
0000
0000
0000
0000
0000
0000
;
