#TITLE:Seraphim Song;
#SUBTITLE:;
#ARTIST:Sonitus Vir;
#TITLETRANSLIT:;
#SUBTITLETRANSLIT:;
#ARTISTTRANSLIT:;
#CREDIT:;
#BANNER:song.png;
#BACKGROUND:song-bg.png;
#LYRICSPATH:;
#CDTITLE:;
#MUSIC:song.ogg;
#OFFSET:0.000;
#SAMPLESTART:32.874;
#SAMPLELENGTH:12.000;
#SELECTABLE:YES;
#BPMS:0.000=175.000;
#STOPS:192.000=1.029
;
#BGCHANGES:;

//---------------dance-single - Renard----------------
#NOTES:
     dance-single:
     Renard:
     Challenge:
     10:
     0.738,0.798,0.313,0.000,0.259:
0000
0000
0000
0000
,
0000
0000
0000
0000
,
0000
0000
0000
0000
,
0000
0000
0000
0000
,
0001
0010
0100
1000
0010
0100
0001
0100
,
0010
1000
0100
0010
0001
0010
0100
1000
,
0010
0100
0001
0100
0010
1000
0100
0010
,
0001
0010
0100
1000
0001
0010
0100
1000
,
0001
0100
0101
0000
0100
0110
0000
1010
,
0000
1000
0100
0010
0001
0010
0100
0000
,
1000
0100
1100
0000
0100
0110
0000
0010
,
0000
0001
0010
0100
1000
0001
0100
0000
,
0001
0100
0110
0000
0010
1010
0000
1000
,
0000
0100
0010
0001
0010
0100
1000
0000
,
0001
0000
0100
0001
0100
0000
0010
0000
1000
0000
0010
1000
0010
0000
1000
0000
,
0100
0010
0001
0010
0100
1000
0001
0100
0001
0000
1000
0000
1001
0000
0000
0000
,
0001
0000
0000
0001
0100
0000
0010
0000
1000
0000
0100
0000
0010
0000
0001
0000
,
0010
0000
0100
1000
0010
0000
0010
0100
,
0001
0000
0000
0000
0100
0000
0010
0000
1000
0000
0100
0000
0010
0000
0001
1000
,
0001
0000
0100
0010
1000
0000
0001
0100
,
0010
0000
0000
0000
1000
0000
0100
0000
0010
0000
0001
0000
1000
0000
0001
1000
,
0001
1000
0010
0100
0001
0100
0010
1000
,
0010
0000
0000
0000
0010
0000
0100
0001
0010
0000
0000
0000
0100
0000
1000
0001
,
0100
0000
0010
0000
1000
0000
0001
1000
0100
0000
1000
0000
0001
0000
0010
0000
,
0100
1000
0001
0010
0100
0000
0000
0000
1000
0000
0010
0000
0100
0000
0001
0000
,
0100
0000
0100
0010
1000
0000
0010
0100
,
0001
0000
0000
0000
0010
0000
0100
0000
1000
0000
0001
0000
0010
0000
0001
1000
,
0001
0000
1000
0010
0100
0000
0100
0001
,
0100
0000
0000
0000
0010
0000
1000
0000
0100
0000
0010
0000
0001
0000
0010
0100
,
1000
0001
0010
0100
1000
0010
0100
0001
,
0100
0000
0010
1000
0010
0000
0100
0000
0001
0000
0010
0100
0010
0000
0100
0000
,
1000
0000
0001
0000
1001
0000
0001
0100
0000
0100
0010
0000
1000
0000
0010
0000
,
0100
0000
0000
0000
0100
0000
0001
0000
0010
0000
0000
0000
0010
0000
0100
1000
,
0001
0000
1000
0010
0100
0000
0001
0100
,
0010
0000
0000
0000
0010
0000
1000
0000
0010
0000
0000
0000
0010
0000
0100
0001
,
0100
0000
0010
1000
0100
0000
0100
0010
,
0001
0000
0001
1000
0010
0100
0001
0000
,
0110
1010
1001
1100
,
0001
0000
0000
0000
0010
0000
0100
0000
0000
0000
0100
1000
0010
0000
1000
0000
,
0010
0000
0000
0000
0100
0000
0001
0000
0100
0000
0010
1000
0001
0000
1000
0000
,
0010
0000
0000
0000
0010
0000
0100
0000
0001
0000
0000
0000
0001
0000
0010
0100
,
1000
0000
0000
0000
0100
0000
0010
0000
0001
0000
1000
0000
0010
0000
0100
0001
,
0100
0000
0000
0000
0010
0000
1000
0000
0010
0000
0100
0000
0001
0000
1000
0001
,
1000
0001
1000
0010
0100
0001
0010
0100
,
1000
0000
0100
0010
0001
0000
0011
0000
,
0110
0000
0100
1000
0010
0000
0110
0000
,
0101
0000
1001
0000
1100
0000
0100
1000
,
0001
0011
0110
1100
,
1001
0000
0000
0000
0001
0100
0010
0100
0001
0000
1000
0000
0010
0000
1000
0000
,
0100
0010
0001
0010
0100
1000
0001
0100
,
0010
0000
0000
0000
1000
0010
0100
0010
1000
0000
0010
0000
0100
0000
0001
0000
,
0010
0100
1000
0100
0010
0001
1000
0010
,
0100
0000
0000
0000
0001
0100
0010
0100
0001
0000
0100
0000
0010
0000
1000
0000
,
0100
0010
0100
1000
0001
0010
0100
1000
,
0100
0000
0000
0000
1000
0100
0010
0100
1000
0000
0010
0000
0100
0000
0001
0000
,
0100
0000
0010
0000
0100
0001
0100
0010
0100
0000
0001
0000
0100
0000
0010
0000
,
1000
0000
0001
0000
1001
0000
0000
0000
0100
0000
0000
0010
0100
0000
0000
0000
,
0110
0000
0000
0010
1000
0000
0000
0000
0101
0000
0000
0000
0001
0000
0000
0000
,
1000
0000
0100
0010
0001
0000
0000
0000
0010
0000
0000
0100
0010
0000
0000
0000
,
0100
0000
0000
1000
0010
0000
0000
0000
0110
0000
0000
0000
0101
0000
0000
0000
,
0001
0000
1000
0010
1000
0000
0001
0000
0100
0000
0010
0100
0010
0000
1000
0000
,
0100
0000
1000
0100
1000
0000
0100
0000
0010
0000
0001
0000
1000
0000
0001
0000
,
0100
0000
0010
0100
0010
0000
1000
0000
0010
0000
0100
0000
0001
0000
0010
0000
,
0100
0000
1000
0100
1000
0000
0100
0000
0010
0000
0001
0010
0001
0000
1000
0000
,
0001
0100
1001
0000
0000
0000
0000
0000
;

//---------------dance-single - BlueChaos----------------
#NOTES:
     dance-single:
     BlueChaos:
     Hard:
     9:
     0.691,0.705,0.249,0.270,0.330:
0000
0000
0000
0000
,
0000
0000
0000
0000
,
0000
0000
0000
0000
,
0000
0000
0000
0000
,
1000
0100
1000
0001
1000
0010
1000
0000
,
0001
0100
0001
1000
0001
0010
0001
0000
,
1000
0100
0010
0001
0001
0010
0100
1000
,
1000
0001
0100
0010
0010
1000
0001
0100
,
0100
0000
0000
0001
0100
0000
0000
0100
0010
0000
0000
0010
1000
0000
0000
1000
,
0100
0000
0000
0100
0010
0000
0000
0010
0001
0000
0000
0001
1000
0000
0000
1000
,
0001
0000
0000
0001
0100
0000
0000
0100
0010
0000
0000
0010
0100
0000
0000
0100
,
0001
0000
0000
0001
0010
0000
0000
0010
0100
0000
0000
0100
1000
0000
0000
1000
,
0001
0000
0000
0001
0100
0000
0000
0100
0001
0000
0000
0001
1000
0000
0000
1000
,
0100
0000
0000
0100
0010
0000
0000
0010
0100
0000
0000
0100
0010
0000
0000
0010
,
0001
0000
0000
0001
0100
0000
0000
0100
0010
0000
0000
0010
1000
0000
0000
1000
,
0001
0000
1000
0000
0100
0000
0010
0000
0001
0010
0001
0100
0010
0000
0000
0000
,
1010
0000
1000
0010
0001
0000
0001
0010
,
1000
2010
0100
3001
,
0101
0000
0001
0100
1000
0000
1000
0100
,
0001
0102
0010
1003
,
0101
0000
0001
0010
1000
0000
1000
0010
,
0001
0021
0100
0031
,
1001
0000
1000
0010
0001
0000
1000
0100
,
0001
0201
0010
0301
,
1000
0000
0001
0100
0020
0000
0000
0000
1030
0000
0001
0000
1000
0000
0100
0000
,
0020
0100
0032
0010
,
2003
0010
3200
0010
,
1300
0000
0010
0100
1001
0000
0001
0100
,
0110
0000
0000
0000
1000
0000
0000
0000
0001
0000
0000
0000
0010
0000
0100
1000
,
0200
0300
1100
0000
,
2001
3010
1002
0013
,
0110
0000
0000
1100
0000
0000
1001
0000
,
0001
0000
0001
0100
1000
0000
1000
0100
,
0001
0000
1000
0100
0001
0000
0001
0100
,
1000
0000
0001
0100
0010
0000
0010
0100
,
0001
0000
1000
0100
0010
0000
0010
0100
,
2000
0000
3001
0100
0001
0000
0201
0000
,
0010
0001
0310
1000
,
0100
0000
0010
0100
0010
0000
0100
0010
,
0100
0000
0100
0000
1000
0000
0001
0000
0100
0000
0000
0000
0001
0100
0001
0100
,
0001
0000
0000
0100
0010
0000
0000
0010
1000
0000
0000
1000
0100
0000
0000
0100
,
0001
0000
0000
0001
0100
0000
0000
0100
0010
0000
0000
0010
0001
0000
0000
0001
,
1000
0000
0000
1000
0010
0000
0000
0010
0001
0000
0000
0001
0010
0000
0000
0010
,
1000
0000
0000
1000
0001
0000
0000
0001
0100
0000
0000
0100
0010
0000
0000
0010
,
0200
0000
0301
1000
0001
0000
1200
0000
,
0010
1000
0310
0001
,
0100
0000
0010
0100
0010
0000
0100
0010
,
0100
0100
0101
0000
1001
0000
1100
0000
,
1001
0000
1000
0100
0010
0001
1000
0100
,
0010
0001
0010
0100
1000
0001
0010
0100
,
1000
1000
0001
0100
0010
1000
0001
0100
,
0010
1000
0010
0100
0001
1000
0010
0100
,
0001
0001
1000
0100
1000
0001
1000
0010
,
1000
0001
1000
0100
1000
0001
1000
0010
,
1000
1000
0001
0010
0001
0100
0001
1000
,
0001
0000
0010
0000
0001
0000
0100
0000
0001
0000
1000
0000
0002
0000
0000
0003
,
1000
0000
0000
0010
0200
0000
0000
0000
0301
0000
0000
1000
0020
0000
0000
0000
,
0130
0000
0000
0001
0020
0000
0000
0000
0130
0000
1000
0000
0001
0000
1000
0000
,
0010
0000
0000
0100
0020
0000
0000
0000
1030
0000
0000
0001
0020
0000
0000
0000
,
0130
0000
0000
1000
0002
0000
0000
0000
0103
0000
0010
0000
1000
0000
0100
0000
,
0010
0000
0001
0010
0001
0000
0010
0000
0100
0000
1000
0001
1000
0000
0001
0000
,
0100
0000
0010
1000
0010
0000
1000
0000
0001
0000
0010
0000
0100
0000
0010
0000
,
0001
0000
1000
0001
1000
0000
0001
0000
0100
0000
0010
1000
0010
0000
1000
0000
,
0100
0010
0001
0010
0100
1000
0001
0100
,
0010
0010
2002
0000
0000
0000
0000
0000
,
0000
3003
0000
0000
;

//---------------dance-single - Renard----------------
#NOTES:
     dance-single:
     Renard:
     Medium:
     5:
     0.383,0.417,0.032,0.022,0.000:
0000
0000
0000
0000
,
0000
0000
0000
0000
,
0000
0000
0000
0000
,
0000
0000
0000
0000
,
0000
0000
0000
0000
,
0000
0000
0000
0000
,
0000
0000
0000
0000
,
0000
0000
0000
0000
,
1000
0100
1000
0000
0000
0001
0000
0010
,
0000
0001
0000
0000
1000
0000
0001
0000
,
0100
0001
0100
0000
0000
0001
0000
1000
,
0000
0100
0000
0000
1000
0001
1000
0000
,
0001
0010
0001
0000
0000
1000
0000
0010
,
0000
0100
0000
0000
0001
1000
0001
0000
,
1000
0100
1000
0000
0000
0001
0000
0010
,
0000
0001
0000
0000
1000
0000
1010
0000
,
2000
0000
3010
0100
,
0002
0000
0013
0100
,
1000
0000
0000
0000
0001
0000
0100
0010
,
0100
0000
0010
1000
,
0100
0000
0010
0001
,
1000
0000
0001
0100
,
0010
1000
0010
0100
,
0001
0000
1000
0000
0100
0000
1000
0001
,
1000
0001
0010
0000
0000
0000
0001
0000
,
1000
0000
0010
0100
,
0001
0000
0100
0000
0010
0000
1000
0010
,
1000
0000
0001
0100
,
0001
0000
0000
0000
1000
0000
0000
0100
,
1000
0001
0100
0010
,
1000
0000
0001
0100
0001
0000
0100
0000
,
0010
1000
0010
1000
,
0100
0000
1000
0000
0001
0000
0010
0001
,
0010
0001
0010
0100
,
1000
0000
0010
0000
0100
0000
0010
1000
,
0010
1000
0001
0100
,
0001
0000
0010
0000
0001
0000
1000
0100
,
1000
0001
0010
0100
,
1000
1000
0001
0001
,
0100
0010
0100
0000
0010
0000
1000
0000
,
0010
0000
1000
0000
0001
0000
0100
0001
,
0100
0001
1000
0100
,
1000
0000
0001
0000
0010
0000
0001
1000
,
0001
1000
0010
0100
,
0001
0000
1000
0100
1000
0000
0001
0000
,
0010
0001
1000
0010
,
0100
0000
0001
0000
1000
0000
0100
0010
,
0001
0010
0100
0000
1000
0000
0001
0000
,
0110
0010
0010
1000
,
1000
0010
1000
0000
0001
0000
0100
0001
,
0100
0000
0001
0000
0010
0000
0100
0010
,
0100
0000
1000
0000
1000
0000
0010
0100
,
0010
0000
0100
0000
0001
0000
1000
0100
,
1000
0000
0001
0000
0010
0000
0001
1000
,
0001
0100
0100
0010
,
0010
0100
0100
0010
,
0010
1000
0010
1000
,
0010
1000
0001
0100
,
0001
1000
0001
0000
1000
0000
0100
0000
,
0100
0010
0010
0001
,
1000
0001
0100
0000
0100
0000
0010
0000
,
0010
1000
0010
0000
1000
0000
0001
0000
,
0100
0001
1000
0100
,
0010
0001
0010
0000
0100
1000
0001
0000
,
0100
1001
0000
0000
;

//---------------dance-single - Renard----------------
#NOTES:
     dance-single:
     Renard:
     Easy:
     2:
     0.296,0.347,0.022,0.389,0.000: // measure 1
0000
0000
0000
0000
,  // measure 2
0000
0000
0000
0000
,  // measure 3
0000
0000
0000
0000
,  // measure 4
0000
0000
0000
0000
,  // measure 5
0000
0000
0000
0000
,  // measure 6
0000
0000
0000
0000
,  // measure 7
0000
0000
0000
0000
,  // measure 8
0000
0000
0000
0000
,  // measure 9
1000
0000
1000
0000
,  // measure 10
0001
1000
0001
1000
,  // measure 11
0001
0000
0001
0000
,  // measure 12
1000
0001
1000
0001
,  // measure 13
0100
0000
0100
0000
,  // measure 14
0010
0100
0010
0100
,  // measure 15
0010
0000
1000
0000
,  // measure 16
0001
0000
0100
0000
,  // measure 17
0020
0000
2030
0000
,  // measure 18
3200
0000
0000
0320
,  // measure 19
0032
0000
2003
0000
,  // measure 20
3020
0000
0000
0230
,  // measure 21
0302
0000
2003
0000
,  // measure 22
3200
0000
0320
0000
,  // measure 23
0032
0000
2003
3020
,  // measure 24
2030
0000
0000
0000
,  // measure 25
3020
0000
0000
0000
,  // measure 26
0230
0000
0000
0302
,  // measure 27
2003
0000
0000
3200
,  // measure 28
0320
0000
0032
0000
,  // measure 29
2003
0000
3020
0000
,  // measure 30
0230
0000
0302
0000
,  // measure 31
2003
0000
3200
0000
,  // measure 32
0320
0000
0031
0000
,  // measure 33
0001
0000
0010
0000
,  // measure 34
0100
0000
1000
0000
,  // measure 35
0010
0000
0000
0000
,  // measure 36
0100
0000
0001
0000
,  // measure 37
1000
1000
0100
0010
,  // measure 38
0010
0001
0001
0010
,  // measure 39
0100
0100
1000
1000
,  // measure 40
1000
0010
0100
0001
,  // measure 41
2000
0000
3001
0000
,  // measure 42
0200
0000
0310
0000
,  // measure 43
2000
0000
0000
3002
,  // measure 44
0203
0000
0320
0000
,  // measure 45
1030
0100
0010
0010
,  // measure 46
0001
0001
0010
0100
,  // measure 47
1000
1000
0100
0010
,  // measure 48
0001
1000
0001
0100
,  // measure 49
1001
1000
1000
1000
,  // measure 50
1000
0001
0001
0001
,  // measure 51
0001
0100
0100
0100
,  // measure 52
0100
0010
0010
0010
,  // measure 53
0010
1000
1000
1000
,  // measure 54
1000
0001
0001
0001
,  // measure 55
0001
0010
0010
0010
,  // measure 56
0010
0100
0100
0100
,  // measure 57
0100
1000
0000
0100
,  // measure 58
0000
1000
0000
0100
,  // measure 59
1000
0001
0000
0010
,  // measure 60
0000
0001
0000
1000
,  // measure 61
0010
0100
0000
0001
,  // measure 62
0000
0100
0000
0001
,  // measure 63
0100
0010
0000
1000
,  // measure 64
0000
0010
0000
1000
,  // measure 65
0100
1100
0000
0000
;
