#TITLE:Seoul Warfare;
#SUBTITLE:;
#ARTIST:Scissorkicks & Sgt. Rock;
#TITLETRANSLIT:;
#SUBTITLETRANSLIT:;
#ARTISTTRANSLIT:;
#CREDIT:;
#BANNER:seoul.png;
#BACKGROUND:seoul-bg.png;
#LYRICSPATH:;
#CDTITLE:;
#MUSIC:seoul.ogg;
#OFFSET:0.000;
#SAMPLESTART:62.523;
#SAMPLELENGTH:12.000;
#SELECTABLE:YES;
#BPMS:0.000=138.150,176.000=139.000;
#STOPS:;
#BGCHANGES:;

//---------------dance-single - Renard----------------
#NOTES:
     dance-single:
     Renard:
     Hard:
     8:
     0.422,0.511,0.204,0.053,0.155:
0000
0000
0000
0000
,
0000
0000
0000
0000
,
0000
0000
0000
0000
,
0000
0000
0000
0000
,
1000
0000
0010
0000
0100
0000
0000
0001
0000
0001
0010
0000
0100
0000
1000
0000
,
0010
0000
0100
0000
0001
0000
0000
1000
0000
1000
0100
0000
0010
0000
0001
0000
,
0010
0000
0100
1000
0010
0100
0000
0000
,
0101
0000
0100
0010
1000
1010
0000
0100
,
0001
0010
0100
1000
0001
0000
1000
0000
,
0010
0000
0000
0000
0010
0000
0100
0000
0000
0000
0100
0000
0001
0000
0100
0010
,
1000
0000
0000
0000
0010
0000
0100
0000
0000
0000
0001
0000
0000
0000
0010
0100
,
1000
0000
0001
0010
0000
0001
0000
1000
,
0010
0000
0000
0000
0100
0000
0001
0000
0000
0000
0100
0000
0010
0000
1000
0001
,
1000
0000
0000
0000
0001
0000
0100
0000
0000
0000
0010
1000
0010
0000
1000
0000
,
0010
0000
0000
0000
0100
0000
0001
0000
0000
0000
1000
0100
0010
0000
0000
0000
,
0001
0000
0000
0000
0010
0000
0100
0000
0000
0000
1000
0001
1000
0000
0000
0000
,
0010
0000
0100
0001
0100
0010
0000
1000
,
0100
0000
0010
0001
0000
1000
0000
0001
,
0100
0000
0010
0100
0000
0000
0000
1000
,
0100
0000
0010
0100
0000
0000
0000
0000
,
1000
0010
1000
0100
0010
0001
0000
0010
,
0100
1000
0001
0010
0000
0001
0000
1000
,
0000
0100
0000
0001
0100
0000
0000
0010
,
0000
1000
0000
0001
0200
0000
0000
0000
,
2000
0000
0000
0000
,
0000
0000
0000
0000
,
0000
0000
0000
0000
,
0000
0000
0000
3300
,
1000
0000
0000
1000
0010
0000
0100
0000
0001
0000
0000
0000
0010
0000
0000
0000
,
0001
0000
0010
0000
0000
0000
0100
0000
1000
0000
0000
0001
0100
0000
0010
0000
,
1000
0000
0000
1000
0010
0000
0100
0000
0001
0000
0000
0000
1001
0000
0000
0000
,
0001
0000
0100
0000
0000
0000
0010
0000
1000
0000
0000
0000
0100
0000
0000
0100
,
0010
0000
0001
0000
0010
0000
0100
1000
0001
0000
0000
0000
1000
0000
0000
0000
,
0010
0000
1000
0000
0000
0000
0001
0000
0100
0000
0000
0000
0001
0000
0000
1000
,
0100
0010
0001
0010
0100
0000
1000
0000
,
0001
1000
0001
0000
0000
0000
1000
0001
1000
0000
0000
0000
0001
0000
0100
0000
,
0010
0000
0000
0010
1000
0000
0010
0000
0100
0000
0001
0000
0010
0000
0100
0000
,
1000
0000
0000
1000
0001
0000
0100
0000
0000
0000
1010
0000
0000
0000
0001
0000
,
0100
0000
0010
1000
0000
0101
0000
0010
,
1000
0000
0100
1000
0000
0011
0000
0100
,
1000
0000
0000
1000
0001
0000
0100
0000
0010
0000
1000
0000
0000
0000
0010
0100
,
0001
0100
0010
1000
0000
0001
0000
0101
,
0000
0110
0000
1000
0100
0000
0000
0101
,
0000
0000
0110
0000
0000
0000
0010
1000
0010
0000
1000
0000
0100
0000
0000
0000
,
0000
0000
0010
0001
0100
0000
0000
0000
,
0000
0000
1010
0000
0000
0101
0000
0000
,
0000
0000
0000
0000
0110
0000
0000
0000
0000
0000
1010
0000
0000
0000
1000
0100
,
0010
0000
0000
0000
0000
0000
0001
0000
0000
0000
0010
0100
1000
0000
0001
0000
,
0000
0000
0000
0000
0100
0000
0000
0000
0000
0000
0010
1000
0010
0000
0100
0000
,
0000
0000
0000
0000
0001
0000
0100
0000
0000
0000
0010
1000
0010
0000
0000
0000
,
0000
0000
0000
0000
0100
0000
0001
0000
0000
0000
1000
0010
0100
0000
0000
0000
,
0000
0000
0001
1000
0100
0000
0010
0000
0000
0000
0001
0010
0100
0000
0000
0000
,
0000
0000
0110
0000
0000
1000
0110
0000
,
0001
0000
0110
0000
0000
0001
0110
0000
,
0001
0010
0100
0000
1000
0010
0100
0000
,
0001
0000
0100
0000
0010
0000
1000
0001
0000
1000
0001
0000
1000
0000
0001
0000
,
0100
0000
0110
0000
0000
1000
1010
0000
,
0100
0000
0101
0000
0001
0010
0100
0010
,
0100
0000
1100
0000
1000
0010
0100
0001
,
1000
0000
0000
1000
0001
0000
0000
0001
0100
0000
0010
0000
1000
0010
0100
0000
,
1002
0000
0000
0000
,
2003
0000
0000
0000
,
3200
0000
0000
0000
,
0320
0000
0000
0000
,
0030
0000
0000
0000
;

//---------------dance-single - Renard----------------
#NOTES:
     dance-single:
     Renard:
     Medium:
     5:
     0.252,0.312,0.000,0.293,0.000:
0000
0000
0000
0000
,
0000
0000
0000
0000
,
0000
0000
0000
0000
,
0000
0000
0000
0000
,
1000
0000
0001
0000
0000
1000
0001
0000
,
0100
0000
0010
0000
0000
0100
0010
0000
,
1000
0000
0001
0000
0000
1000
0001
0000
,
0010
0100
0010
0100
,
1000
1000
1000
0000
,
0001
0000
0001
0000
,
0010
0010
0010
0000
,
0100
0100
1000
0000
,
0001
0000
1000
0001
,
0100
0000
0000
0100
0000
0000
0010
0000
,
1000
0000
0000
0001
0000
0000
1000
0000
,
0100
0000
0000
0010
0000
0000
0000
0000
,
0002
0000
0000
0000
,
2003
0000
0000
0000
,
3020
0000
0000
0000
,
0230
0000
0000
0000
,
0302
0000
2003
0000
,
3200
0000
0000
0320
0000
0032
0000
0000
,
0023
0000
0000
0000
0000
0000
0000
0230
,
0000
2300
0000
0000
3020
0000
0000
0000
,
0000
0000
0000
0000
,
0000
0000
0000
0000
,
0000
0000
0000
0000
,
0000
0000
0000
0130
,
0010
0000
1000
0010
1000
0000
0000
0000
,
0001
0100
0000
0001
0100
0000
0000
0000
,
0001
0000
0010
0001
0010
0000
0000
0000
,
0100
1000
0000
0100
1000
0000
0000
0000
,
0001
0000
0100
0001
0100
0000
0000
0000
,
0010
1000
0000
0010
1000
0000
0000
0000
,
0100
0000
1000
0100
1000
0000
0000
0000
,
0001
0010
0000
0001
0010
0000
0001
0000
,
1000
1000
0010
0010
,
0100
0000
0001
0100
0000
0001
0000
0000
,
1000
0000
0100
1000
0000
0000
0000
0000
,
0001
0000
0010
0001
0000
0000
0000
0000
,
1000
0010
0100
0001
,
1000
0000
0100
1000
0000
0001
0000
0010
,
0000
0010
0000
0001
1000
0000
0000
0001
,
0000
0001
0000
1000
0010
0000
1000
0000
,
0020
0000
0000
0230
,
0302
0000
0000
0023
0000
0000
0000
0000
,
0230
0000
0000
2300
0000
0000
0000
0000
,
3020
0000
0000
0230
0000
0000
0000
0000
,
0302
0000
0000
0023
,
0230
0000
0000
2300
0000
0000
0000
0000
,
3020
0000
0000
0230
0000
0000
0000
0000
,
0302
0000
0000
0023
0000
0000
0000
0000
,
0130
0000
1000
0000
0000
0001
1000
0000
,
0001
0000
0010
0000
0000
0100
1000
0000
,
0001
0000
0100
0000
0000
0010
1000
0000
,
0100
0000
1000
0000
0000
0001
0010
0000
,
0100
0000
0000
0000
0000
1000
0001
0000
,
0100
0000
0000
0000
0000
0010
1000
0000
,
0001
0000
0000
0000
0000
0100
0001
0000
,
1000
0000
0000
0100
0000
0010
0001
1000
,
0002
0000
0000
0000
,
2003
0000
0000
0000
,
3020
0000
0000
0000
,
0230
0000
0000
0000
,
0300
0000
0000
0000
;

//---------------dance-single - Renard----------------
#NOTES:
     dance-single:
     Renard:
     Easy:
     2:
     0.163,0.199,0.000,0.213,0.000: // measure 1
0000
0000
0000
0000
,  // measure 2
0000
0000
0000
0000
,  // measure 3
0000
0000
0000
0000
,  // measure 4
0000
0000
0000
0000
,  // measure 5
1000
0001
0000
0001
,  // measure 6
0000
0001
0000
0001
,  // measure 7
0001
1000
0000
1000
,  // measure 8
0000
1000
0000
1000
,  // measure 9
0010
0000
0000
0010
,  // measure 10
0100
0000
0001
0000
,  // measure 11
1000
0000
0001
0000
,  // measure 12
0010
0000
0100
0000
,  // measure 13
1000
0000
0000
0001
,  // measure 14
0001
0000
0001
0000
,  // measure 15
1000
0000
1000
0000
,  // measure 16
0010
0000
0010
0000
,  // measure 17
0200
0000
0000
0000
,  // measure 18
0302
0000
0000
0000
,  // measure 19
2003
0000
0000
0000
,  // measure 20
3200
0000
0000
0300
,  // measure 21
2000
0000
0000
0000
,  // measure 22
3002
0000
0000
0000
,  // measure 23
0023
0000
0000
0000
,  // measure 24
0230
0000
0000
0000
,  // measure 25
0000
0000
0000
0000
,  // measure 26
0000
0000
0000
0000
,  // measure 27
0000
0000
0000
0000
,  // measure 28
0000
0000
0000
1300
,  // measure 29
1000
1000
1000
0000
,  // measure 30
0100
0000
0100
0000
,  // measure 31
0010
0010
0010
0000
,  // measure 32
0001
0000
0001
0000
,  // measure 33
1000
1000
1000
0000
,  // measure 34
0010
0000
0010
0000
,  // measure 35
0100
0100
0100
0000
,  // measure 36
0001
0000
0001
0000
,  // measure 37
1000
0000
0001
0000
,  // measure 38
1000
0001
1000
0000
,  // measure 39
0002
0000
1003
0000
,  // measure 40
2000
0000
3001
0000
,  // measure 41
0100
0000
0100
0010
,  // measure 42
0100
0000
0010
0000
,  // measure 43
0200
0000
0310
0000
,  // measure 44
0020
0000
0130
0000
,  // measure 45
0020
0000
0000
0000
,  // measure 46
2030
0000
0000
0000
,  // measure 47
3200
0000
0000
0000
,  // measure 48
0320
0000
0000
0000
,  // measure 49
0032
0000
0000
1000
,  // measure 50
2003
0000
0000
0000
,  // measure 51
3020
0000
0000
0000
,  // measure 52
0230
0000
0000
0000
,  // measure 53
0301
0000
0000
1000
,  // measure 54
0100
1000
0001
0000
,  // measure 55
1000
0000
0001
0000
,  // measure 56
0010
0000
0100
0000
,  // measure 57
1000
0000
0000
0010
,  // measure 58
0100
0000
0001
1000
,  // measure 59
0100
0000
0100
0000
,  // measure 60
0010
0000
0010
0001
,  // measure 61
2000
0000
0000
0000
,  // measure 62
3002
0000
0000
0000
,  // measure 63
0203
0000
0000
0000
,  // measure 64
0320
0000
0000
0000
,  // measure 65
0030
0000
0000
0000
;
