#TITLE:Selecta;
#SUBTITLE:;
#ARTIST:Infected Mushroom;
#TITLETRANSLIT:;
#SUBTITLETRANSLIT:;
#ARTISTTRANSLIT:;
#CREDIT:;
#BANNER:selecta.png;
#BACKGROUND:selecta-bg.png;
#LYRICSPATH:;
#CDTITLE:;
#MUSIC:selecta.ogg;
#OFFSET:0.000;
#SAMPLESTART:34.286;
#SAMPLELENGTH:12.000;
#SELECTABLE:YES;
#BPMS:0.000=140.000,46.000=70.000,47.000=140.000,143.000=180.000;
#STOPS:;
#BGCHANGES:;

//---------------dance-single - Renard----------------
#NOTES:
     dance-single:
     Renard:
     Challenge:
     9:
     0.702,0.708,0.811,0.109,0.565:
0000
0000
0000
0000
,
0000
0000
0000
0000
,
0000
0000
0000
0000
,
0000
0000
0000
0000
,
1000
0000
0100
0000
0011
0000
0000
0001
0010
0000
0100
0000
1100
0000
0000
0000
,
1000
0000
0010
0000
0110
0000
0000
0100
0001
0000
0010
0000
0110
0000
0000
0000
,
0100
0000
1000
0000
1001
0000
0000
0001
0100
0000
0010
0000
1010
0000
0000
0000
,
1000
0000
0000
0100
0000
0000
0110
0000
0000
0000
0000
0000
0001
0000
0000
1000
0001
1000
0001
0000
0000
0110
0000
0000
,
1001
0000
0000
0000
1001
0000
0000
1000
0100
0000
0010
0000
0011
0000
0000
0000
,
0110
0000
0000
0000
1100
0000
0000
1000
0001
0000
0100
0000
0110
0000
0000
0000
,
1001
0000
0000
1000
0100
0000
0000
0010
0001
0000
0010
0000
1100
0000
0000
0000
,
0101
0000
0000
0010
1000
0000
0001
0100
0002
0000
0000
0000
1003
0100
1000
0000
,
0000
0000
0001
0010
0001
0000
0000
0000
1000
0010
1000
0000
0000
0000
0001
0100
,
0001
0000
0000
0000
0010
0001
0010
0000
0100
0010
0100
0000
1000
0100
1000
0000
,
0000
0000
0001
0010
0001
0000
1000
0000
0100
0000
0001
0000
1000
0000
0002
0000
,
0203
0000
2300
0000
0020
0000
3030
0000
1MM1
0000
0000
0000
0001
0010
0001
0000
,
0000
0000
1000
0100
1000
0000
0000
0000
0001
0100
0001
0000
0000
0000
1000
0010
,
1000
0000
0000
0000
0100
1000
0100
0000
0010
0100
0010
0000
0001
0010
0001
0000
,
0000
0000
1000
0100
1000
0000
0001
0000
0010
0000
1000
0000
0001
0000
2000
0000
,
3020
0032
0200
0303
1MM1
0000
1000
0100
,
1100
0000
1000
0100
0010
0000
0001
0000
0010
0000
0000
0000
0001
0000
0010
0000
,
0011
0000
0001
0010
0100
0000
0010
0000
0100
0000
0000
0000
0100
0000
1000
0000
,
0010
0000
0100
0010
0100
0000
0010
0000
0110
0000
0000
0000
0100
0000
0001
0000
,
0010
0000
0000
0100
0000
0000
1000
0000
0000
0001
1000
0001
1000
0000
0000
0110
0000
0000
1001
0000
0000
0001
0000
0000
,
0100
0010
0000
0000
1000
0000
0100
0000
0011
0000
0000
0000
0010
0000
0100
0000
,
1000
0001
0000
0000
0100
0000
0000
0000
1001
0000
0000
0000
1100
0000
0010
0000
,
0001
1000
0000
0000
0101
0000
0000
0000
1010
0000
0000
0000
0101
0000
0010
0000
,
1000
0100
0000
0010
0001
0000
0010
0000
1001
0000
0000
0000
0110
0000
0010
0000
,
1000
0100
0000
0010
0001
0000
0010
0000
0100
0000
1000
0000
0001
0000
0100
0000
,
0010
1000
0000
0100
0010
0000
0001
0000
0011
0000
0000
0000
0010
0000
0100
0000
,
1000
0001
0000
0100
0010
0000
1000
0000
0001
0000
0100
0000
0010
0000
1000
0000
,
0100
0000
0000
0010
0000
0000
0000
0000
0000
0001
0000
0000
0010
0000
0000
0000
0000
0000
1000
0000
0001
0000
1000
0000
0001
0000
0000
0000
0000
0000
0110
0000
0000
0000
0000
0000
1001
0000
0000
0000
0000
0000
0001
0000
0000
0000
0000
0000
,
0100
0010
0000
1000
0100
0000
1000
0000
0101
0000
0000
0000
0001
0000
1000
0000
,
0100
1000
0000
0001
0010
0000
0001
0000
1001
0000
0000
0000
0001
0000
0100
0000
,
0010
1000
0000
0100
0010
0000
0001
0000
0011
0000
0000
0000
0010
0000
0100
0000
,
1000
0000
0000
0001
0000
0000
0000
0000
0000
0100
0000
0000
0010
0000
0000
0000
0000
0000
1000
0000
0000
0000
0000
0000
0100
0000
0000
0000
0000
0000
0010
0000
0001
0000
0010
0000
0001
0000
0000
0000
0000
0000
0000
0000
0010
0000
0000
0000
,
0100
0000
0000
0110
0000
0000
1100
0000
0000
1000
0000
0010
,
0100
0000
0000
0101
0000
0000
0110
0000
0000
0010
0000
1000
,
0100
0000
0000
0110
0000
0010
0001
0000
0000
0001
0000
0010
,
0100
0000
0000
1001
0000
0000
0110
0000
0000
0001
0000
1000
,
0100
0000
0000
0011
0000
0000
0110
0000
0000
0100
0000
1000
,
0010
0000
0000
0110
0000
0000
0101
0000
0000
0001
0000
1000
,
0100
0000
0000
0011
0000
0000
0110
0000
0000
1100
0000
0011
,
0000
1100
0000
1010
0000
0101
0000
1010
0000
0001
0000
0001
,
1000
0000
1000
0100
0000
0100
0010
0000
0010
0001
0000
0001
,
0010
0000
0010
0100
0000
0000
0110
0000
0000
0100
0000
0100
,
1000
0000
1000
0010
0000
0010
0100
0000
0100
0001
0000
0001
,
1000
0000
0000
1100
0000
0000
0011
0000
0000
0100
0000
0100
,
0010
0000
0010
0001
0000
0000
1000
0000
0000
0010
0000
0010
,
0100
0000
0100
0001
0000
0000
1010
0000
0000
0100
0000
0100
,
0001
0000
0001
0010
0000
0000
0001
0000
0000
1001
0000
0110
,
0000
1001
0000
0110
0000
1000
0001
0000
0000
1000
0000
0100
,
0010
0000
0001
0010
0000
0100
1000
0000
0001
0010
0000
0100
,
1000
0000
1001
0000
0000
0110
0000
0000
0010
1000
0000
0001
,
0100
0000
0010
1000
0000
0100
0010
0000
0001
0010
0000
0100
,
1000
0000
0101
0000
0000
1010
0000
0000
0001
1000
0000
0100
,
0010
0000
0001
0010
0000
0100
1000
0000
0001
0100
0000
0010
,
1000
0000
1001
0000
0000
0101
0000
0000
0000
0011
0000
0010
,
0100
0000
0000
1001
0000
0000
1010
0000
0001
0200
0000
0000
,
0010
0310
1001
0101
,
0110
0000
0000
1100
0000
0000
0100
0000
0010
0100
0000
0001
,
0100
0110
0101
0011
,
0110
0000
0000
1010
0000
0000
0010
0000
1000
0010
0000
0100
,
0010
0000
0001
0010
0000
0000
0001
0000
0000
1001
0000
0000
,
1100
0000
0000
1010
0000
0000
1000
0000
0100
1000
0000
0001
,
1000
0000
0010
1000
0000
0000
0001
0000
1000
0001
0000
0000
,
0101
0000
0010
0001
0000
0000
1001
0000
0000
0202
0000
0000
,
0000
0010
0303
0000
;

//---------------dance-single - Renard----------------
#NOTES:
     dance-single:
     Renard:
     Hard:
     9:
     0.574,0.521,0.283,0.000,0.287:
0000
0000
0000
0000
,
0000
0000
0000
0000
,
0000
0000
0000
0000
,
0000
0000
0000
0000
,
1000
0001
0100
0010
1000
0100
0110
0000
,
0010
0001
1000
0010
0100
0001
0011
0000
,
0010
0100
1000
0010
0100
0001
0101
0000
,
0001
0100
0010
1000
0100
1000
1100
0000
,
1000
0001
0010
0100
1000
0010
1010
0000
,
1000
0010
0100
0001
0010
0001
0011
0000
,
0010
0100
1000
0001
0100
0010
0110
0000
,
0010
1000
0001
0100
0010
0000
1000
0010
,
1000
0010
0100
0010
0100
0001
0100
0001
,
0010
0100
1000
0100
0010
0001
1000
0010
,
1000
0010
0100
0010
0100
0001
0100
0001
,
0010
0100
1000
0100
0010
0001
1000
0001
,
1000
0010
0100
0010
1000
0001
1000
0001
,
0010
0100
1000
0100
0010
0001
1000
0010
,
1000
0001
0100
0001
0010
0001
1000
0100
,
0010
0001
1000
0010
0100
0001
1000
0000
,
1000
0100
0000
0100
0010
0000
0010
0001
,
1000
0001
0010
0100
1000
0001
0010
0000
,
0010
0001
0000
0001
1000
0000
0100
1000
,
0001
0100
0010
1000
0100
0010
0001
0010
,
0100
1000
0000
1000
0010
0100
0001
0010
,
0000
0010
0100
1000
0010
0100
0001
1000
,
0000
0100
0010
0001
1000
0010
0100
0001
,
0100
0010
1000
0100
0010
0001
1000
0000
,
1000
0100
0000
0100
0010
0100
1000
0000
,
1000
0010
0000
0010
0100
0001
0010
0000
,
0010
0001
0000
0001
0100
0010
1000
0100
,
0010
0001
0000
0001
0010
0100
1000
0010
,
0100
0001
0000
0001
0010
0100
1000
0001
,
0010
0001
0000
0001
1000
0001
0010
0100
,
1000
0010
0000
0010
0100
0001
0100
0010
,
1000
0000
0000
0100
0000
0000
0010
0000
0000
0001
0000
0000
1000
0000
0000
0000
0000
0000
0001
0000
0000
0000
0001
0000
,
1000
0000
1000
0010
0000
0010
0100
0000
0100
0001
0000
0001
,
0100
0000
0100
0010
0000
0010
1000
0000
1000
0100
0000
0100
,
0010
0000
0010
0001
0000
0001
0010
0000
0010
0100
0000
0100
,
1000
0000
1000
0001
0000
0001
0010
0000
0010
0001
0000
0001
,
1000
0000
1000
0010
0000
0010
0100
0000
0100
0001
0000
0001
,
0100
0000
0100
0010
0000
0010
1000
0000
1000
0100
0000
0100
,
0010
0000
0010
0001
0000
0001
0010
0000
0010
0100
0000
1000
,
0000
0001
0000
0010
0000
0100
0000
1000
0000
0001
0000
0100
,
0010
0000
0100
0010
0000
0100
0010
0000
0000
1000
0000
0010
,
0100
0000
0010
0100
0000
0010
0100
0000
0000
0001
0000
0010
,
0100
0000
0010
0100
0000
0010
0100
0000
0000
1000
0000
0010
,
0100
0000
0010
0100
0000
0010
0100
0000
0000
0001
0000
0010
,
0100
0000
0010
0100
0000
0010
0100
0000
0000
1000
0000
0010
,
0100
0000
0010
0100
0000
0010
0100
0000
0000
0001
0000
0010
,
0100
0000
1000
0100
0000
0010
0001
0000
1000
0010
0000
0000
,
0100
0001
0000
1000
,
1100
0001
0101
1000
,
1100
0000
0000
0001
0000
0100
0001
0000
0000
1000
0000
0000
,
1010
0001
0011
1000
,
1010
0001
0011
1000
,
1100
0000
0000
0001
0000
0000
0101
0000
0000
1000
0000
0100
,
1000
0000
0000
0001
0000
0100
0001
0000
0000
1000
0000
0010
,
1000
0000
0000
0001
0000
0010
0001
0000
0000
1000
0000
0000
,
1010
0101
0000
1000
,
1100
0001
0101
1000
,
1010
0011
0000
0001
,
0101
1000
1100
0001
,
0011
1010
0000
0100
,
0101
1000
1100
0001
,
0011
0000
0000
1000
0000
1000
0010
0000
0000
0100
0000
0000
,
0010
0000
0100
0001
0000
0010
0100
0000
1000
0010
0000
0000
,
0101
1010
0000
0000
;

//---------------dance-single - Renard----------------
#NOTES:
     dance-single:
     Renard:
     Medium:
     5:
     0.352,0.337,0.027,0.082,0.000:
0000
0000
0000
0000
,
0000
0000
0000
0000
,
0000
0000
0000
0000
,
0000
0000
0000
0000
,
1000
0000
0001
0000
0100
0001
0100
0000
,
0001
0000
1000
0000
0100
1000
0100
0000
,
1000
0000
0001
0000
0100
0001
0100
0000
,
0001
0000
1000
0000
0100
1000
0100
0000
,
1000
0000
0001
0000
0010
0001
0010
0000
,
0001
0000
1000
0000
0010
1000
0010
0000
,
1000
0000
0001
0000
0010
0001
0010
0000
,
0001
1000
0020
1030
,
0000
0010
0000
0000
0100
0000
0001
0000
,
0010
0000
0100
1000
0100
0000
1000
0000
,
0000
0001
0000
0000
0100
0000
0010
0000
,
1000
0010
0000
1000
0010
0000
1000
0000
,
0001
0100
0000
0000
0001
0000
0000
1000
,
0000
0000
0100
0000
0010
0001
0010
0000
,
0000
0100
0000
0000
1000
0000
0001
0000
,
0100
0000
0010
1000
0010
0000
0100
0000
,
0100
0001
0001
1000
,
0100
0000
0010
0000
0001
1000
0001
0000
,
0010
0000
0100
0000
1000
0001
1000
0000
,
0100
0000
0010
0000
0001
1000
0001
0000
,
0010
0000
0100
0000
1000
0001
1000
0000
,
0100
0010
0100
0010
,
0010
0001
0000
0001
1000
0000
0010
0000
,
0100
0000
0001
0000
1000
0100
1000
0000
,
0000
0001
0000
0000
0010
0000
0100
0000
,
0100
1000
1000
0001
,
0001
0000
0100
0000
0100
0010
0100
0000
,
0010
0000
1000
0000
0001
0100
0001
0000
,
1000
0000
0100
0000
0010
0001
0010
0000
,
0100
0000
1000
0000
0001
0100
0001
0000
,
0100
0000
0010
0000
1000
0001
1000
0000
,
0100
0010
0001
1000
,
1000
0001
0001
0100
,
0010
0100
0010
1000
,
1000
0001
0001
0010
,
0100
0010
0100
1000
,
1000
0001
0001
0100
,
0010
0100
0010
1000
,
1000
0001
0001
0010
,
0100
0010
0100
1000
,
0001
1000
0001
0100
,
0010
0100
0010
1000
,
0001
1000
0001
0100
,
0010
0100
0010
1000
,
0001
1000
0001
0100
,
0010
0100
0010
1000
,
0001
0100
0010
2000
,
0000
3001
0000
1000
,
0100
1000
0100
1000
,
0100
1100
0000
0001
,
0010
0001
0010
0001
,
0010
0011
0000
0001
,
0100
0001
0100
0001
,
0100
0101
0000
0010
,
1000
0010
1000
0200
,
0000
0310
0000
0010
,
0001
1000
0001
0200
,
0000
0310
0000
0010
,
1000
0001
1000
0200
,
0000
0310
0000
0001
,
1000
0001
1000
0010
,
0100
0010
1000
0002
,
0000
0203
0000
0302
,
2003
3100
0000
0000
;

//---------------dance-single - Renard----------------
#NOTES:
     dance-single:
     Renard:
     Easy:
     2:
     0.285,0.276,0.027,0.046,0.000: // measure 1
0000
0000
0000
0000
,  // measure 2
0000
0000
0000
0000
,  // measure 3
0000
0000
0000
0000
,  // measure 4
0000
0000
0000
0000
,  // measure 5
1000
0001
1000
0001
,  // measure 6
0100
0010
0100
0010
,  // measure 7
1000
0001
1000
0001
,  // measure 8
0100
0010
0100
0010
,  // measure 9
1000
0001
1000
0001
,  // measure 10
0100
0010
0100
0010
,  // measure 11
1000
0001
1000
0001
,  // measure 12
0100
0100
0020
1030
,  // measure 13
0000
0001
0000
1000
,  // measure 14
0001
0100
0010
1000
,  // measure 15
0000
0001
0000
1000
,  // measure 16
0001
0100
0000
0010
,  // measure 17
1000
0000
0100
0010
,  // measure 18
0001
1000
0000
0001
,  // measure 19
0100
0000
0010
1000
,  // measure 20
0100
1000
0001
0010
,  // measure 21
0000
0001
1000
0100
,  // measure 22
0000
0010
0000
0001
,  // measure 23
0000
1000
0001
0010
,  // measure 24
0000
0100
0000
1000
,  // measure 25
0000
0010
0100
0001
,  // measure 26
0000
0100
0010
1000
,  // measure 27
0000
0010
0100
0001
,  // measure 28
0000
0010
0000
0100
,  // measure 29
0000
1000
0001
0010
,  // measure 30
0000
0001
1000
0010
,  // measure 31
0000
0100
0001
1000
,  // measure 32
0000
0100
1000
0001
,  // measure 33
0000
0010
0001
1000
,  // measure 34
0000
0010
0100
0001
,  // measure 35
0000
1000
0100
0010
,  // measure 36
0000
0001
1000
0010
,  // measure 37
0010
0010
0010
0100
,  // measure 38
0100
0100
0100
0010
,  // measure 39
0100
0010
0100
0010
,  // measure 40
0010
0100
0100
0001
,  // measure 41
0001
0001
0001
1000
,  // measure 42
1000
1000
1000
0001
,  // measure 43
0001
1000
1000
0001
,  // measure 44
1000
0001
1000
0100
,  // measure 45
1000
0100
1000
0001
,  // measure 46
0010
0001
1000
1000
,  // measure 47
0001
0100
0001
1000
,  // measure 48
0001
0010
0000
0001
,  // measure 49
0001
1000
1000
0001
,  // measure 50
0100
0001
1000
0001
,  // measure 51
0001
0010
0100
1000
,  // measure 52
0000
1001
0000
1000
,  // measure 53
0000
1000
0001
0100
,  // measure 54
0010
0010
0000
1000
,  // measure 55
0000
0001
0010
0100
,  // measure 56
0100
1000
0001
0010
,  // measure 57
0000
0010
0001
1000
,  // measure 58
1000
0010
0100
0001
,  // measure 59
0000
0001
1000
0100
,  // measure 60
0010
0110
0000
0010
,  // measure 61
0001
1000
0010
0200
,  // measure 62
0000
0301
0000
1000
,  // measure 63
0100
0010
0001
2000
,  // measure 64
0000
3100
0000
0020
,  // measure 65
0000
0031
1000
0020
,  // measure 66
0000
0130
0001
1000
,  // measure 67
0100
0010
0001
1000
,  // measure 68
0000
0110
0000
0000
;
