#TITLE:Seduction;
#SUBTITLE:;
#ARTIST:Yoji Biomehanika;
#TITLETRANSLIT:;
#SUBTITLETRANSLIT:;
#ARTISTTRANSLIT:;
#CREDIT:;
#BANNER:seduction.jpg;
#BACKGROUND:seduction-bg.jpg;
#LYRICSPATH:;
#CDTITLE:;
#MUSIC:seduction.ogg;
#OFFSET:0.000;
#SAMPLESTART:62.087;
#SAMPLELENGTH:12.000;
#SELECTABLE:YES;
#BPMS:0.000=138.980;
#STOPS:;
#BGCHANGES:;

//---------------dance-single - Renard----------------
#NOTES:
     dance-single:
     Renard:
     Challenge:
     11:
     0.815,0.814,0.438,0.088,1.000:
0000
0000
0000
0000
,
0000
0000
0000
0000
,
0000
0000
0000
0000
,
0000
0000
0000
0000
,
0000
0000
2000
0000
0001
0000
0000
3010
0000
0000
0002
0000
1000
0000
0000
0103
,
0000
0000
2000
0000
0010
0000
0000
3100
0000
0000
0002
0000
0010
0000
0000
0103
,
0000
0000
0200
0000
1000
0000
0000
0301
0000
0000
0020
0000
1000
0000
0000
0031
,
0000
0000
0200
0000
1000
0000
0000
0310
0000
0000
0000
0000
0000
0000
0000
0000
,
0100
0000
0001
0000
1000
0100
0000
1100
0000
0000
1000
0000
0001
0010
0000
0011
,
0000
0000
0010
0000
0100
1000
0000
1100
0000
0000
1000
0000
0100
0010
0000
0011
,
0000
0000
0010
0000
0100
1000
0000
1100
0000
0000
1000
0000
0100
0010
0000
0011
,
0000
0001
0010
0100
1000
0001
0100
0000
,
0010
0000
1000
0000
0001
0100
0000
0101
0000
0000
0100
0000
0010
1000
0000
1010
,
0000
0000
1000
0000
0001
0100
0000
0101
0000
0000
0100
0000
0010
1000
0000
1010
,
0000
1000
0100
0010
0001
0010
0100
1000
,
0010
0000
0100
0000
0001
0100
0000
0110
0000
0000
0010
0000
1000
0000
0100
0000
,
0010
0000
0001
0000
0010
0100
0000
0110
0000
0000
0100
0000
1000
0010
0000
0110
,
0000
0000
0100
0000
0001
0010
0000
0110
0000
0000
0100
0000
1000
0010
0000
0110
,
0000
0000
0100
0000
0001
0010
0000
0110
0000
0000
0100
0000
1000
0010
0000
0110
,
0000
0000
0100
0000
0001
0010
0000
0110
0000
0000
0100
0000
1000
0010
0000
0110
,
0000
0000
0100
0000
0001
1000
0000
1001
0000
0000
1000
0000
0100
0010
0000
0110
,
0000
0000
0010
0000
0001
1000
0000
1001
0000
0000
0100
0000
0010
0100
0000
0110
,
0000
0000
0010
0000
1000
0100
0000
1100
0000
0000
0010
0000
0001
1000
0000
1001
,
0000
0000
0001
0000
0100
0001
0000
0101
0000
0000
0001
1000
0010
1000
0001
1000
,
0001
0000
1000
0100
1000
0000
0100
1000
0001
0000
1000
0100
1000
0000
0100
1000
,
0001
0000
1000
0100
1000
0000
0100
1000
0001
0000
1000
0100
1000
0000
0100
1000
,
0001
0000
1000
0100
1000
0000
0100
1000
0001
0000
1000
0100
1000
0000
0100
0000
,
1100
0000
0000
0011
0000
0000
0101
0000
0000
1010
0000
0000
0110
0000
1001
0000
,
0001
0100
0001
0100
0000
0000
0000
0000
0000
0010
1000
0010
1000
0000
0000
0000
0000
0000
0100
1000
0100
1000
0000
0000
,
0001
0010
0001
0010
0000
0000
0000
0000
0000
0100
1000
0100
1000
0000
0000
0000
0000
0000
0001
0100
0001
0100
0000
0000
,
0010
1000
0010
1000
0000
0000
0000
0000
0000
0001
0010
0001
0010
0000
0000
0000
0000
0000
0100
1000
0100
1000
0000
0000
,
0011
0000
0000
0110
0000
0000
1100
0000
0000
1010
0000
0000
0101
0000
0011
0000
,
1000
0100
0010
0001
0000
0000
0000
0000
0000
1000
0100
0010
0001
0000
0000
0000
0000
0000
1000
0100
0010
0001
0000
0000
,
0001
0010
0100
1000
0000
0000
0000
0000
0000
0001
0010
0100
1000
0000
0000
0000
0000
0000
0001
0010
0100
1000
0000
0000
,
1000
0100
0010
0001
0000
0000
0000
0000
0000
1000
0100
0010
0001
0000
0000
0000
0000
0000
1000
0100
0010
0001
0000
0000
,
0001
0010
0100
1000
0000
0000
0000
0000
0000
0001
0010
0100
1000
0000
0000
0000
0000
0000
0001
0010
0100
1000
0000
0000
,
0001
0100
0001
0100
0000
0000
0010
0000
0000
1000
0010
1000
0010
0000
0000
1000
0000
0000
0001
0010
0001
0010
0000
0000
,
0100
1000
0100
1000
0000
0000
0100
0000
0000
0010
0001
0010
0001
0000
0000
1000
0000
0000
0010
0100
0010
0100
0000
0000
,
0010
1000
0010
1000
0000
0000
0010
0000
0000
0100
0001
0100
0001
0000
0000
0010
0000
0000
0100
1000
0100
1000
0000
0000
,
0001
0000
0001
0010
0000
0010
0100
0000
0100
1000
0000
1000
0001
0000
0010
0000
,
0100
1000
0100
1000
0000
0000
0100
0000
0000
0010
0001
0010
0001
0000
0000
0100
0000
0000
0010
1000
0010
1000
0000
0000
,
0010
0100
0010
0100
0000
0000
0001
0000
0000
0010
0100
0010
0100
0000
0000
1000
0000
0000
0001
0100
0001
0100
0000
0000
,
0010
1000
0010
1000
0000
0000
0100
0000
0000
0010
0001
0010
0001
0000
0000
0100
0000
0000
0010
1000
0010
1000
0000
0000
,
0001
0100
0001
0100
0000
0000
0001
0000
0000
1000
0100
1000
0100
0000
0000
1000
0000
0000
1000
0100
0010
0001
0000
0000
,
1000
0010
1000
0010
0000
0000
0100
0000
0000
0001
0100
0001
0100
0000
0000
0001
0000
0000
1000
0100
1000
0100
0000
0000
,
0010
0001
0010
0001
0000
0000
0010
0000
0000
0100
1000
0100
1000
0000
0000
0001
0000
0000
0100
0010
0100
0010
0000
0000
,
0100
0001
0100
0001
0000
0000
0100
0000
0000
0010
1000
0010
1000
0000
0000
0100
0000
0000
0010
0001
0010
0001
0000
0000
,
1000
0000
1000
0100
0000
0100
0010
0000
0010
0001
0000
0001
1000
0000
0100
0000
,
0010
0001
0010
0001
0000
0000
0010
0000
0000
0100
1000
0100
1000
0000
0000
0010
0000
0000
0100
0001
0100
0001
0000
0000
,
0100
0010
0100
0010
0000
0000
1000
0000
0000
0100
0010
0100
0010
0000
0000
0001
0000
0000
1000
0010
1000
0010
0000
0000
,
0100
0001
0100
0001
0000
0000
0010
0000
0000
0100
1000
0100
1000
0000
0000
0010
0000
0000
0100
0001
0100
0001
0000
0000
,
1000
0010
1000
0010
0000
0000
1000
0000
0000
0001
0010
0001
0010
0000
0000
0001
0000
0000
0001
0010
0100
1000
0000
0000
,
0001
0000
0100
0000
0010
1000
0000
1010
0000
0000
1000
0000
0100
0010
0000
0011
,
0000
0000
0010
0000
0100
1000
0000
1010
0000
0000
0100
0000
0001
0010
0000
0011
,
0000
0000
0010
0000
0100
1000
0000
1010
0000
0000
0100
0000
0001
0010
0000
0011
,
0000
0000
0010
0000
0100
1000
0000
1010
0000
0000
1000
0000
0001
0100
0000
0002
,
2000
0000
0000
0000
,
0000
0000
0000
0000
0000
0000
0000
0000
0000
0000
0000
3003
0000
0000
0000
0000
;

//---------------dance-single - Renard----------------
#NOTES:
     dance-single:
     Renard:
     Hard:
     8:
     0.558,0.590,0.204,0.019,0.433:
0000
0000
0000
0000
,
0000
0000
0000
0000
,
0000
0000
0000
0000
,
0000
0000
0000
0000
,
1000
0000
0100
0000
1000
0100
0000
1000
0000
0000
0001
0000
0010
0001
0000
0010
,
0000
0000
0001
0000
1000
0001
0000
1000
0000
0000
0010
0000
0100
0001
0000
0000
,
1000
0000
0100
0000
0010
0001
0000
0010
0000
0000
0100
0000
1000
0100
0000
1000
,
0000
0000
0001
0000
0010
0001
0000
0010
0000
0000
0000
0000
0000
0000
0000
0000
,
0001
0000
1000
0000
0010
0000
0000
0100
0000
0000
0001
0000
1000
0000
0000
0100
,
0000
0000
0010
0000
0001
0000
0000
1000
0000
0000
0010
0000
0100
0000
0000
0001
,
0000
0000
0010
0000
0100
0000
0000
1000
0000
0000
0100
0000
0010
0000
0000
0001
,
0000
0000
1000
0000
0010
0000
0000
0100
0000
0000
0001
0000
1000
0000
0000
0100
,
0000
0000
0010
0000
0001
0000
0000
0011
0000
0000
0010
0000
0100
0000
0000
0110
,
0000
0000
0100
0000
1000
0000
0000
1100
0000
0000
1000
0000
0010
0000
0000
1010
,
0000
0000
0100
0000
0001
0000
0000
0101
0000
0000
0000
0001
1000
0000
0000
1001
,
0000
0000
1000
0000
0100
0010
0000
0001
0000
0000
1000
0000
0010
0000
0100
0000
,
0001
0100
0001
0100
0010
0100
0010
0100
,
0010
0000
1000
0000
0100
0010
0000
0110
0000
0000
0000
0000
0000
0000
0000
0000
,
0010
0001
0010
0001
1000
0010
1000
0010
,
0100
0000
0001
0000
1000
0100
0000
1100
0000
0000
0000
0000
0000
0000
0000
0000
,
1000
0100
1000
0100
0010
0100
0010
0100
,
0010
0000
0001
0000
0100
0010
0000
0110
0000
0000
0000
0000
0000
0000
0000
0000
,
0010
1000
0001
0100
0001
1000
0100
0010
,
0001
0000
1000
0000
0010
0000
0100
0000
0001
0000
1000
0000
0001
1000
0001
1000
,
0001
0001
0100
0100
,
0010
1000
0010
1000
0010
1000
0010
1000
,
0100
0100
0010
0010
,
0001
0000
0000
0011
0000
0000
0010
0000
0000
0110
0000
0000
0100
0000
1000
0000
,
0010
0100
0010
0000
0000
0000
0100
0001
0100
0000
0000
0000
0001
1000
0001
0000
,
1000
0100
1000
0000
0000
0000
0001
0010
0001
0000
0000
0000
1000
0010
1000
0000
,
0001
0100
0001
0000
0000
0000
1000
0100
1000
0000
0000
0000
0001
0010
0001
0000
,
0010
0000
0000
0010
0000
0000
0100
0000
0000
0100
0000
0000
0100
0000
0100
0000
,
1000
0010
1000
0000
0000
0000
0001
0100
0001
0000
0000
0000
1000
0100
1000
0000
,
0001
0010
0001
0000
0000
0000
1000
0010
1000
0000
0000
0000
0001
0100
0001
0000
,
1000
0100
1000
0000
0000
0000
0001
0010
0001
0000
0000
0000
1000
0010
1000
0000
,
0001
0100
0001
0000
0000
0000
1000
0010
1000
0000
0000
0000
0100
1000
0100
0000
,
1000
0000
0100
0000
0010
0000
0001
0000
1000
0000
0010
0000
0100
0010
0100
0000
,
0001
0000
0010
0000
0100
0000
1000
0000
0010
0000
0100
0000
0001
1000
0001
0000
,
1000
0000
0100
0000
0010
0000
0001
0000
1000
0000
0010
0000
0100
0010
0100
0000
,
0001
0000
0000
0010
0000
0000
0100
0000
0000
1000
0000
0000
0010
0000
0100
0000
,
0001
1000
0001
0000
1000
0000
0100
0000
0010
0000
0001
0000
1000
0010
1000
0000
,
0010
0100
0010
0000
0100
0000
0001
0000
0010
0000
0100
0000
1000
0001
1000
0000
,
0001
0100
0001
0000
0100
0000
0010
0000
1000
0000
0100
0000
0010
0100
0010
0000
,
0001
0010
0001
0000
0010
0000
0100
0000
1000
0000
0010
0000
0100
0000
0001
0000
,
1000
0000
1000
0100
0000
0100
0010
0000
,
0001
0000
0001
1000
0000
1000
0010
0000
,
0100
0000
0100
0001
0000
0001
0010
0000
,
0011
0000
0000
0011
0000
0000
0110
0000
0000
0110
0000
0000
1100
0000
0000
0000
,
1000
0000
0000
0000
0000
0000
0001
0100
0001
0000
0000
0000
0100
0000
0010
0000
,
1000
0000
0000
0000
0000
0000
0100
0010
0100
0000
0000
0000
0010
0000
0001
0000
,
1000
0010
1000
0000
0000
0000
0001
0100
0001
0000
0000
0000
1000
0100
1000
0000
,
0001
0010
0001
0000
0000
0000
1000
0010
1000
0000
0000
0000
0001
0100
0001
0000
,
1000
0000
0100
0000
0010
0000
0000
0011
0000
0000
0010
0000
0100
0000
1000
0000
,
0010
0000
0100
0000
0001
0000
0000
0101
0000
0000
0100
0000
0010
0000
1000
0000
,
0100
0000
1000
0000
0001
0000
0000
1001
0000
0000
1000
0000
0100
0000
0010
0000
,
0001
0000
0010
0000
0100
0000
0000
1100
0000
0000
1000
0000
0010
0000
0100
0000
,
2002
0000
0000
0000
,
0000
0000
0000
0000
0000
0000
0000
0000
0000
0000
0000
3003
0000
0000
0000
0000
;

//---------------dance-single - Renard----------------
#NOTES:
     dance-single:
     Renard:
     Medium:
     5:
     0.370,0.393,0.010,0.010,0.039:
0000
0000
0000
0000
,
0000
0000
0000
0000
,
0000
0000
0000
0000
,
0000
0000
0000
0000
,
1000
1000
1000
1000
,
0001
0001
0001
0001
,
0100
0100
0100
0100
,
0010
0010
0010
0000
,
1000
0000
0010
1000
0010
0000
0100
0001
,
0100
0000
0001
0010
0001
0000
0010
0100
,
0010
0000
0100
1000
0100
0000
1000
0001
,
0100
0000
0100
0010
0100
0000
0000
0000
,
0001
0000
1000
0100
1000
0000
0001
0010
,
0001
1000
0001
1000
,
0010
0000
1000
0100
1000
0000
0001
0100
,
0001
0000
1000
0000
0001
0000
1000
0001
,
1000
0000
0010
0000
1000
0000
0001
0100
,
0001
1000
0100
1000
0001
0000
1000
0000
,
0001
0001
0100
0100
,
0010
1000
0010
0000
1000
0000
0001
0000
,
0100
0010
1000
0100
,
0010
0001
0010
0000
0100
0000
0100
0000
,
1000
1000
0001
0001
,
0100
0010
0100
0000
0001
0000
1000
0000
,
0100
0100
0010
0010
,
0001
1000
0001
1000
0001
1000
0001
1000
,
0010
0010
0100
0100
,
0001
0000
0000
1000
0000
0000
0100
0000
0000
0010
0000
0000
0001
0000
0010
0000
,
0100
0000
0000
0100
0000
0000
0100
0000
,
0100
0000
0000
0100
0000
0000
0100
0000
,
0010
0000
0000
0010
0000
0000
0010
0000
,
0001
0000
0000
0010
0000
0000
0100
0000
0000
1000
0000
0000
0010
0000
0100
0000
,
0001
0000
0000
0001
0000
0000
1000
0000
,
0001
0000
0000
1000
0000
0000
0001
0000
,
1000
0000
0000
1000
0000
0000
0001
0000
,
1000
0000
0000
0001
0000
0000
0100
0000
,
0001
0100
0000
0010
1000
0000
0100
1000
,
0001
0010
0000
0100
1000
0000
0001
0010
,
0001
1000
0000
0001
0100
0000
0010
1000
,
0001
0000
0000
0001
0000
0000
0001
0000
0000
0001
0000
0000
0001
0000
0001
0000
,
1000
0100
0000
0010
0001
0000
1000
0010
,
0100
0001
0000
1000
0100
0000
0010
0001
,
1000
0100
0000
1000
0001
0000
0010
0100
,
1000
0001
0000
0100
0010
0000
1000
0100
,
0010
0001
0000
1000
0100
0000
0010
0001
,
1000
0010
0000
0100
0001
0000
1000
0100
,
1000
0001
0000
0010
0001
0000
0010
0001
,
1000
0000
0000
1000
0000
0000
1000
0000
0000
1000
0000
0000
1000
0000
1000
0000
,
0001
0010
0000
0100
1000
0000
0010
0100
,
0001
0010
0000
0100
1000
0000
0001
0010
,
0001
1000
0000
0010
0100
0000
0001
1000
,
0100
0000
0000
1000
0000
0000
0100
0000
,
1000
0100
1000
0000
0100
1000
0100
0000
,
1000
0100
1000
0100
1000
0100
1000
0000
,
0001
0010
0001
0000
0010
0001
0010
0000
,
0001
0010
0001
0010
0001
0000
0011
0000
,
2000
0000
0000
0000
,
0000
0000
0000
0000
0000
0000
0000
0000
0000
0000
0000
3000
0000
0000
0000
0000
;

//---------------dance-single - Renard----------------
#NOTES:
     dance-single:
     Renard:
     Easy:
     2:
     0.249,0.337,0.068,0.107,0.000: // measure 1
0000
0000
0000
0000
,  // measure 2
0000
0000
0000
0000
,  // measure 3
0000
0000
0000
0000
,  // measure 4
0000
0000
0000
0000
,  // measure 5
0000
1000
1000
0001
,  // measure 6
0000
0001
0001
1000
,  // measure 7
0000
0001
0001
1000
,  // measure 8
0000
1000
1000
0000
,  // measure 9
1000
1000
0001
1000
,  // measure 10
0001
0001
1000
0001
,  // measure 11
1000
1000
0001
1000
,  // measure 12
0001
0000
1000
0000
,  // measure 13
0001
0001
1000
0001
,  // measure 14
1000
1000
0001
1000
,  // measure 15
0001
0001
1000
0001
,  // measure 16
1000
0001
1000
0001
,  // measure 17
0100
0100
0010
0000
,  // measure 18
0010
0100
0010
0000
,  // measure 19
1000
1000
0001
0000
,  // measure 20
1000
0001
1000
0000
,  // measure 21
0100
0010
0001
1000
,  // measure 22
0100
0010
0010
0000
,  // measure 23
0010
0100
1000
0001
,  // measure 24
0010
0100
0100
0000
,  // measure 25
2000
0000
3002
0000
,  // measure 26
0203
0000
0000
0000
,  // measure 27
0320
0000
2030
0000
,  // measure 28
3002
0000
0000
0000
,  // measure 29
1003
0000
0000
1000
0000
0000
1000
0000
,  // measure 30
1000
0000
0000
1000
0000
0000
1000
0000
,  // measure 31
0001
0000
0000
0001
0000
0000
0001
0000
,  // measure 32
0100
0000
0000
0100
0000
0000
0100
0000
,  // measure 33
0010
0000
0000
0010
0000
0000
0010
0000
,  // measure 34
0100
0000
0000
0100
0000
0000
0100
0000
,  // measure 35
0001
0000
0000
0001
0000
0000
0001
0000
,  // measure 36
2000
0000
0000
3002
0000
0000
2003
0000
,  // measure 37
3001
0101
0001
1000
,  // measure 38
0100
1100
1000
0001
,  // measure 39
0100
0101
0001
1000
,  // measure 40
1100
0000
0000
0011
0000
0000
1001
0000
,  // measure 41
0001
0100
0001
0000
,  // measure 42
1000
0100
1000
0000
,  // measure 43
0001
0010
0001
0000
,  // measure 44
1000
0010
1000
0000
,  // measure 45
0001
0000
0000
0001
0000
0000
0100
0000
,  // measure 46
0010
0000
0000
0010
0000
0000
1000
0000
,  // measure 47
0100
0000
0000
0100
0000
0000
0010
0000
,  // measure 48
0001
0000
0000
1000
0000
0000
0001
0000
,  // measure 49
0100
0000
0000
0010
0000
0000
0100
0000
,  // measure 50
0001
0000
0000
1000
0000
0000
0001
0000
,  // measure 51
0010
0000
0000
0100
0000
0000
0010
0000
,  // measure 52
0001
0000
0000
1000
0000
0000
0001
0000
,  // measure 53
1000
1000
0001
0100
,  // measure 54
0001
0000
1000
0000
,  // measure 55
0100
0100
0010
0001
,  // measure 56
1000
0000
0001
0000
,  // measure 57
0220
0000
0000
0000
,  // measure 58
0000
0000
0000
0330
;
