#TITLE:Save You;
#SUBTITLE:;
#ARTIST:Dream Line Out;
#TITLETRANSLIT:;
#SUBTITLETRANSLIT:;
#ARTISTTRANSLIT:;
#CREDIT:;
#BANNER:save.png;
#BACKGROUND:save-bg.png;
#LYRICSPATH:;
#CDTITLE:;
#MUSIC:save.ogg;
#OFFSET:0.000;
#SAMPLESTART:84.000;
#SAMPLELENGTH:12.000;
#SELECTABLE:YES;
#BPMS:0.000=160.000;
#STOPS:298.000=0.188
;
#BGCHANGES:;

//---------------dance-single - Renard----------------
#NOTES:
     dance-single:
     Renard:
     Hard:
     8:
     0.644,0.614,0.597,0.043,0.013:
0000
0000
0000
0000
,
0000
0000
0000
0000
,
0000
0000
0000
0000
0000
0000
0000
1001
,
0000
0001
0100
0101
0000
1000
0100
0000
,
2002
0010
0000
0010
,
0000
0010
0000
3013
,
0001
0000
0100
0100
0010
0000
1000
1010
,
0000
0100
0001
0010
0100
1001
0000
0000
,
0101
0000
0100
0010
1000
0100
1000
0001
,
0010
0001
0100
0001
0100
0010
1000
0000
,
1010
0000
0010
0100
0001
0000
0001
0010
,
0100
0000
1000
0001
0100
0010
0100
0001
,
1000
0000
1100
0000
0010
0001
1000
0001
,
0100
0000
0101
0000
0001
0100
0010
1000
,
0100
0000
1100
0010
0001
0000
0101
0010
,
1000
0000
1001
0000
0001
0100
0101
0000
,
1010
0000
0010
0100
0001
0010
0001
1000
,
0100
1000
0010
1000
0010
0100
0001
0000
,
0101
0000
0100
0010
1000
0000
1000
0100
,
0010
0000
0001
1000
0010
0100
0010
1000
,
0001
0000
0011
0000
0100
1000
0001
1000
,
0010
0000
1010
0000
1000
0010
0100
0001
,
0010
0000
0011
0100
1000
0000
1010
0100
,
0001
1000
1001
0000
0202
0000
0313
0000
,
0001
0000
0100
0010
0110
0000
0010
1000
,
0100
0000
0100
0010
0011
0000
0010
0100
,
1000
0000
0010
1000
1010
0000
0010
0100
,
0001
0000
0100
0010
0110
0000
0010
1000
,
0100
0000
1000
0100
0010
0001
0010
0100
,
1000
0000
1000
0001
0010
0100
1000
0010
,
0100
0000
0001
0100
0010
0000
1010
0000
,
1001
0000
0000
0000
1001
0000
0000
0000
0000
0000
1000
0001
1000
0000
0000
0000
,
0001
0100
0001
0100
0010
0100
0010
0100
,
0010
1000
0010
1000
0100
1000
0100
1000
,
0001
0010
0001
0010
0100
0010
0100
0010
,
0100
1000
0100
1000
0010
1000
1010
0000
,
0110
0000
0101
0000
0100
0010
1000
0010
,
0100
0010
0100
0001
0100
0001
0010
0001
,
0010
0100
0010
0100
1000
0100
1000
0001
,
1000
0001
1000
1001
0000
0110
1001
0000
,
0001
0000
0100
0010
1000
0000
0010
0100
,
0001
0000
0010
0100
0000
1100
0000
1000
,
0010
0000
0100
0001
0100
0000
0001
1000
,
0100
0000
0010
0001
0000
0110
0000
0100
,
1000
0000
0010
0100
0001
0000
0100
0010
,
1000
0010
1010
0100
,
0001
1000
1001
0000
0100
0010
0110
0000
,
1000
0010
0010
0100
0001
0010
0011
0000
,
0100
1000
1010
0000
0010
0100
0110
0000
,
0100
0001
0101
0000
0001
0010
0110
0000
,
0100
1000
1010
0000
0010
0100
0101
0000
,
0100
0010
1000
0100
0010
0001
0010
0010
,
0100
1000
1100
0000
1000
0001
1001
0000
,
0001
0000
0100
0000
0010
0000
0000
0000
0100
0000
0001
0100
0001
0000
0000
0000
,
1000
0100
1000
0001
0010
0001
1000
0010
,
1000
0001
0100
0001
1000
0100
0010
0001
,
1000
0000
0001
0100
0010
0000
1000
0100
,
0010
0000
0001
0010
0100
1000
0001
0001
,
0100
0000
0010
0010
1000
0000
0100
0010
,
0001
0010
0110
0000
0100
1000
1100
0000
,
1010
0000
0100
0001
0100
0010
1000
0100
,
1000
0000
0001
0010
0000
0001
0100
0010
,
1000
0000
0010
0100
0001
0100
0010
0000
,
1010
0000
1001
0000
1000
0100
0010
0001
,
1000
0000
1001
0000
0001
0100
0001
0000
,
0100
0000
0110
0000
0010
1000
0100
0000
,
1000
0000
1001
0000
0001
1000
0010
0100
,
0001
0100
0010
1000
0100
0010
0110
0000
,
0011
0110
1100
1001
,
1010
1010
1010
0000
0002
1000
1003
0000
,
0001
0100
0010
1000
0010
0100
0001
1000
,
0100
0010
0100
1000
0001
0010
0100
0110
,
0000
0100
1000
0010
0100
0001
0100
0110
,
0000
0010
1000
1010
0000
0001
0100
0000
,
0001
0000
0100
0000
0000
0100
0010
0000
1000
0000
1001
0000
1001
0000
0000
0000
;

//---------------dance-single - Renard----------------
#NOTES:
     dance-single:
     Renard:
     Medium:
     5:
     0.367,0.485,0.138,0.260,0.000:
0000
0000
0000
0000
,
0000
0000
0000
0000
,
0000
0000
0000
0000
,
0000
0000
0000
0000
,
0000
0000
0000
0000
,
0000
0000
0000
0000
,
0000
0000
0000
0000
,
0000
1000
0100
0010
0001
1000
0000
0000
,
0001
0100
0010
0010
,
1000
0100
0010
0010
,
0001
0100
0010
0010
,
2000
0000
3200
0320
,
0030
0001
0000
0010
,
0200
0000
1300
0001
,
0100
0100
0010
1000
,
0010
0000
0100
0001
0100
0001
0100
0001
,
0100
0000
0010
1000
,
0100
0100
0010
0010
,
0002
0000
0000
0000
2003
0000
0000
3000
,
0020
0000
0000
0030
,
0100
0100
0010
1000
,
0001
0001
0100
0001
,
1000
0000
0100
0010
,
0000
0000
0001
0000
0010
0100
1000
0000
,
0001
1000
1000
0001
,
0001
0010
0100
1000
,
0001
0001
1000
0010
,
0200
0000
0320
0000
,
1030
0020
0000
1030
,
0002
0000
0103
0001
,
0010
0010
0100
1000
,
0001
0100
0001
0000
0000
0000
1001
0000
,
2000
0000
0000
3000
0100
0000
0010
0000
,
0002
0000
0000
0003
0010
0000
0100
0000
,
1000
0001
1000
0010
,
0100
0100
0001
1000
,
0100
0000
0100
1000
,
0001
0000
0010
0001
,
1000
0010
0100
0001
,
1000
0000
0001
0000
1000
0100
1000
0000
,
0002
0000
0023
0000
,
0230
0000
0000
1300
,
1000
2000
0000
0000
,
3002
0000
0000
0000
,
0103
0020
0000
1030
,
0200
0000
0320
0000
,
0031
0000
0001
0010
0100
0000
0100
1000
,
0001
0000
0000
0000
1000
0001
0100
0000
,
0001
0000
0001
0000
1000
0000
1000
0100
,
1000
0001
0010
0001
,
1000
0000
1000
0000
0010
0000
0100
0001
,
0100
0000
0001
0000
1000
0000
0100
1000
,
0001
0001
0011
0011
,
0110
0000
0000
0000
1100
0000
0000
1000
,
0001
0100
0001
1000
,
0100
0000
1000
0001
0010
0001
1000
0000
,
0020
0000
0230
0000
,
0302
0000
0000
2003
,
3200
0320
0000
0031
,
0001
0000
0010
0000
0100
1000
0100
0000
,
1000
0002
0000
0203
,
0320
0000
1030
0000
,
1010
1010
1100
1100
,
1001
0000
1000
0000
0100
0010
0001
0000
,
1000
1000
0001
0000
,
0100
0000
0100
0000
0010
0000
0010
1000
,
0010
0000
1000
0000
0100
0000
0010
0001
,
0010
0000
0100
0000
1000
0000
0001
0100
,
0001
0011
0011
1001
,
1001
0000
0000
0000
0110
0000
0000
0010
,
1000
0001
0100
0001
,
1000
0000
0100
0000
1000
0000
0001
0010
,
0001
0000
0010
0000
0100
0000
1000
0001
,
0100
0000
0010
0000
1000
0001
0100
0000
,
0001
1000
0000
1000
0010
0000
1001
0000
;

//---------------dance-single - Renard----------------
#NOTES:
     dance-single:
     Renard:
     Easy:
     2:
     0.262,0.356,0.000,0.294,0.000: // measure 1
0000
0000
0000
0000
,  // measure 2
0000
0000
0000
0000
,  // measure 3
0000
0000
0000
0000
,  // measure 4
0000
0000
0000
0000
,  // measure 5
0000
0000
0000
0000
,  // measure 6
0000
0000
0000
0000
,  // measure 7
0000
0000
0000
0000
,  // measure 8
0000
1000
1000
0000
,  // measure 9
0001
1000
0001
1000
,  // measure 10
0010
0000
0010
0000
,  // measure 11
1000
0000
0001
0010
,  // measure 12
0002
0000
0023
0000
,  // measure 13
0030
0200
0000
1300
,  // measure 14
0002
0000
0000
0003
,  // measure 15
0100
0000
0001
1000
,  // measure 16
0100
0100
0010
0001
,  // measure 17
2000
0000
0000
0000
,  // measure 18
3001
0000
0100
0001
,  // measure 19
2000
0000
3200
0000
,  // measure 20
0310
0000
0001
0010
,  // measure 21
0100
0000
1000
0001
,  // measure 22
1000
0000
0001
0010
,  // measure 23
0001
0000
1000
0000
,  // measure 24
0010
0000
0100
0001
,  // measure 25
1000
0000
0100
0000
,  // measure 26
0010
0001
0010
0100
,  // measure 27
1000
0000
0001
0010
,  // measure 28
0002
0000
2003
0000
,  // measure 29
3010
0100
0001
0100
,  // measure 30
0010
0000
1000
0001
,  // measure 31
1000
0100
0010
0001
,  // measure 32
1000
0001
0000
0000
,  // measure 33
1000
0000
0100
0000
,  // measure 34
0010
0001
0010
0000
,  // measure 35
0100
0000
1000
0000
,  // measure 36
0001
0010
0001
0000
,  // measure 37
1000
0000
0100
0000
,  // measure 38
1000
0001
1000
0000
,  // measure 39
0001
0010
0100
1000
,  // measure 40
1000
0100
0010
0001
,  // measure 41
2000
0000
3002
0000
,  // measure 42
0203
0000
0000
0310
,  // measure 43
0020
0000
0000
0000
,  // measure 44
0030
0000
0000
0000
,  // measure 45
0000
0020
0000
1030
,  // measure 46
0200
0000
0320
0000
,  // measure 47
0032
0023
0230
2300
,  // measure 48
3001
0000
0000
0001
,  // measure 49
1000
0000
1000
0100
,  // measure 50
0010
0000
0010
0001
,  // measure 51
1000
0000
0001
0100
,  // measure 52
0010
0000
1000
0010
,  // measure 53
1000
1000
0001
0001
,  // measure 54
2000
0000
3002
0000
,  // measure 55
0103
0000
0001
1000
,  // measure 56
0100
0000
0010
0001
,  // measure 57
0020
0000
0230
0000
,  // measure 58
2300
0000
0000
3001
,  // measure 59
0002
0000
0000
0000
,  // measure 60
0103
0000
0010
0000
,  // measure 61
1000
0200
0000
0310
,  // measure 62
0002
0000
2003
0000
,  // measure 63
3002
0000
0203
0310
,  // measure 64
2000
0000
3000
0010
,  // measure 65
0100
0000
0100
0001
,  // measure 66
1000
0000
0100
0010
,  // measure 67
0001
0000
0010
0100
,  // measure 68
1000
0000
0001
0100
,  // measure 69
0001
0001
1000
1000
,  // measure 70
0002
0000
0023
0000
,  // measure 71
0130
0000
1000
0001
,  // measure 72
0100
0000
0010
1000
,  // measure 73
0100
0000
0010
0001
,  // measure 74
1000
0000
0001
0000
,  // measure 75
0100
0000
0000
0000
0000
0001
1000
0000
;
