#TITLE:Ruff Ride Provider;
#SUBTITLE:;
#ARTIST:DJ Kurt;
#TITLETRANSLIT:;
#SUBTITLETRANSLIT:;
#ARTISTTRANSLIT:;
#CREDIT:;
#BANNER:ride.png;
#BACKGROUND:ride-bg.png;
#LYRICSPATH:;
#CDTITLE:;
#MUSIC:ride.ogg;
#OFFSET:0.000;
#SAMPLESTART:33.841;
#SAMPLELENGTH:12.000;
#SELECTABLE:YES;
#BPMS:0.000=177.300;
#STOPS:;
#BGCHANGES:;

//---------------dance-single - Renard----------------
#NOTES:
     dance-single:
     Renard:
     Challenge:
     9:
     0.765,1.000,0.409,0.087,0.143:
0000
0000
0000
0000
,
0000
0000
0000
0000
,
0001
1000
1100
0000
1000
0001
0010
0001
,
1000
0010
1010
0000
1000
0001
0100
0010
,
1000
0001
1001
0000
1000
0100
0010
0001
,
0010
0000
0110
0000
0100
0100
0000
0100
,
1000
0000
1010
0000
1000
0001
0100
0001
,
1000
1100
1000
0011
,
0001
0100
0010
0000
1010
0000
1001
0000
,
2200
0000
0000
0000
0010
0001
0000
0001
,
0010
3300
1000
0100
0010
0001
0010
0100
,
1000
0000
1000
0010
0100
0001
0010
0001
,
0010
0000
0010
0001
0100
0010
1000
0100
,
0010
0010
0100
0100
0010
0010
0010
0010
,
0001
0000
0010
0100
1000
0001
0100
0010
,
1000
0000
1000
0010
0000
0010
0100
0001
,
0010
0100
1000
0000
0001
0000
1001
0000
,
0220
0000
1000
0331
,
0010
0100
0000
0001
0100
0000
0010
0100
,
1000
0000
0100
0010
0000
1000
0000
0100
,
0000
0010
0001
0010
0100
1000
0001
0010
,
0100
0100
0220
0330
,
0010
0001
0000
0000
0010
0100
0000
0000
,
1000
0010
0100
0001
0100
0010
0000
0000
,
0000
1000
0100
0010
0001
0010
0100
2000
,
0200
0020
0002
3333
,
1000
0100
1000
0000
0001
0000
0010
0000
0001
0000
1000
0000
0010
0000
0100
0000
,
0001
0100
0001
0000
0100
0000
0001
0000
1000
0000
0100
0000
0010
0000
0001
0000
,
0010
0001
0010
0000
0001
0000
0010
0000
0100
0000
1000
0000
0001
0000
0100
0000
,
0001
0100
0001
0000
0100
0000
0010
0000
1000
0010
1000
0000
0010
0000
1000
0000
,
0100
1000
0100
0000
1000
0000
0100
0000
0010
0000
0001
0000
0010
0000
0001
0000
,
1000
0001
1000
0000
0001
0000
0100
0000
0010
0000
1000
0000
0100
0000
1000
0000
,
0100
1000
0100
0000
1000
0000
0001
0000
0010
0001
0010
0000
0001
0000
0100
0000
,
0001
0100
0001
0000
0100
0000
0010
0000
1000
0010
1000
0000
0010
0000
1000
0000
,
0010
0100
0010
0000
1000
0000
1000
0000
0010
0000
0100
0000
0001
0000
0010
0000
,
0001
0010
0001
0000
0010
0000
0010
0000
0100
0000
1000
0000
0010
0000
0100
0000
,
0001
0100
0001
0000
0100
0000
0010
0000
1000
0010
1000
0000
0010
0000
1000
0000
,
0100
0010
0001
0000
0011
0000
0011
0000
0001
0000
0010
0000
0100
0000
1000
0000
,
0100
1000
0100
0000
1100
0000
1100
0000
0001
0010
0001
0000
0011
0000
0011
0000
,
0001
0100
0001
0000
0101
0000
0101
0000
1000
0010
1000
0000
1010
0000
1010
0000
,
1000
0001
1000
0000
0010
0100
0010
0000
1000
0001
1000
0000
0010
0100
0010
0000
,
1000
0100
0010
0001
1000
0100
0010
0001
1000
0100
0010
0001
1000
0100
0010
0001
,
1000
1000
0001
0001
0100
0100
0001
0001
,
1000
1000
0100
0100
0010
0010
0001
0001
,
0100
0100
0001
0001
0100
0100
0010
0010
,
1000
1000
0100
0100
0010
0010
0001
0001
,
1000
1000
0001
0001
0100
0100
0001
0001
,
0010
0010
0100
0100
1000
1000
0010
0010
,
1000
1000
0001
0001
0100
0100
0001
0001
,
0010
0010
0001
0001
1000
1000
0100
0100
,
1000
1000
0010
0010
0001
0001
0010
0010
,
1000
1000
0100
0100
0001
0001
0100
0100
,
1000
1000
0100
0100
0001
0001
1000
1000
,
0010
0010
0001
0001
0100
0100
0010
0010
,
1000
1000
1000
1000
1000
1000
1000
1000
,
0100
0100
0100
0100
0100
0100
0100
0100
,
0010
0010
0010
0010
0010
0010
0010
0010
,
0001
0000
0000
1111
,
1000
0000
1000
0001
0000
0001
0100
0010
,
1000
0000
1000
0100
0000
1100
0000
1100
,
1000
0000
0100
0010
0000
0010
0001
0010
,
0100
0000
0100
1100
0000
1001
0000
1010
,
1000
0000
0100
0010
0000
0001
0010
0100
,
1000
0000
0001
0101
0000
1001
0000
0011
,
0001
0000
0100
0010
0000
0010
1000
0100
,
0010
0000
0001
0011
0000
0110
0000
1100
,
1000
0010
0100
0001
0010
0000
0001
0010
,
0100
0000
1000
0010
0000
0100
0001
0000
,
0100
0010
1000
0100
0010
0001
0010
0100
,
0010
0000
0110
0000
0110
0000
0000
0100
,
1000
0010
0000
0000
0100
0001
0000
0000
,
0010
0100
1000
0100
0010
0001
0000
0000
,
0000
1000
0001
0100
0010
1000
0100
0010
,
0110
0000
0000
0110
0000
0000
0010
0000
0001
0000
1000
0000
0001
0000
0000
0000
,
1001
0000
0010
0100
0010
0100
0001
1000
,
0001
0000
1001
0000
1000
0100
0010
0001
,
1000
0000
1001
0000
0001
0100
0010
1000
,
0100
0000
0010
0000
0001
0010
0000
0001
,
0010
0000
0110
0000
0100
1000
0010
0100
,
0001
0000
0001
0100
0000
0010
1000
0100
,
0010
0001
0010
0000
0011
0000
0110
0000
,
0100
1000
0010
0100
0001
0000
0110
0000
,
1001
0000
0000
0000
;

//---------------dance-single - Renard----------------
#NOTES:
     dance-single:
     Renard:
     Hard:
     9:
     0.681,0.606,0.165,0.009,0.000:
0000
0000
0000
0000
,
0000
0000
0000
0000
,
1000
0000
0001
0100
0010
1000
0100
0010
,
0001
0011
0010
0110
,
0100
0000
1000
0010
0100
0001
0010
0100
,
1000
0000
1100
0000
1000
0001
0000
0010
,
0001
0000
1000
0001
0100
0010
1000
0100
,
0010
0000
0010
0001
0000
0000
1000
0010
,
0100
0001
0100
0000
0010
0000
1000
0000
,
1100
0000
1100
0000
0110
0000
0000
0010
,
0001
0000
0010
0100
1000
0001
0100
0010
,
1000
0000
0010
0000
0000
1000
0010
0000
,
0100
0000
0001
0010
0100
1000
0100
0010
,
0001
0001
1000
0001
1000
0001
1000
0001
,
1000
0000
0001
0010
0100
1000
0001
0100
,
0010
0000
1000
0010
0000
0000
1000
0010
,
0100
0001
0010
0000
0100
0000
1000
0000
,
1100
0110
0101
0110
,
1100
0000
1000
0100
0010
0000
0001
0010
,
0100
0000
1000
0001
0000
0100
0000
0010
,
0000
1000
0100
0010
0001
0010
0100
1000
,
0001
0000
0100
0000
0110
0000
0000
0010
,
1000
0001
0000
0000
0100
0010
0000
0000
,
1000
0100
0010
0001
0010
0100
0000
0000
,
0000
1000
0010
0100
0001
0100
0010
1000
,
0200
0000
0000
0310
,
0001
0010
0100
1000
0010
0100
0010
0100
,
0001
0010
0100
1000
0010
0100
0010
0100
,
0001
0010
0100
1000
0010
0100
0010
0100
,
0001
0010
0100
1000
0010
0100
0010
0100
,
0010
1000
0100
0010
0001
0100
0010
0100
,
0010
1000
0100
0010
0001
0100
0010
0100
,
0010
1000
0100
0010
0001
0100
0010
0100
,
0010
1000
0100
0010
0001
0010
0100
1000
,
0001
0010
0100
1000
0010
0100
0010
0100
,
0001
0010
0100
1000
0100
0010
0100
0010
,
0001
0100
0010
1000
0100
0010
0100
0010
,
0100
1000
0010
0100
0001
0010
0001
0010
,
0100
0010
0100
0010
0100
1000
0100
1000
,
0010
1000
0010
1000
0001
0100
0001
0100
,
0001
0010
0100
1000
0010
0100
0001
0010
,
0100
1000
0100
0010
0001
0100
1000
0100
,
0010
0100
0010
0100
0010
0100
0010
0100
,
0010
0100
0010
0100
0010
0100
0010
0100
,
0010
0100
0010
0100
0010
0100
0010
0100
,
0010
0100
0010
0100
0010
0100
0010
0100
,
0001
1000
0001
1000
0001
1000
0001
1000
,
0001
1000
0001
1000
0001
1000
0001
1000
,
0001
1000
0001
1000
0001
1000
0001
1000
,
0001
1000
0001
1000
0001
1000
0001
1000
,
0100
0010
0100
0010
0100
0010
0100
0010
,
0100
0010
0100
0010
0100
0010
0100
0010
,
0100
0010
0100
0010
0100
0010
0100
0010
,
0100
0010
0100
0010
0100
0010
0100
0010
,
1000
0001
1000
0001
1000
0001
1000
0001
,
1000
0001
1000
0001
1000
0001
1000
0001
,
1000
0001
1000
0001
1000
0001
1000
0001
,
1000
0000
0000
0000
,
1000
0000
1000
0001
0000
0100
0010
1000
,
0100
0000
0100
0010
0000
0010
0001
0010
,
0100
1000
0010
0100
0000
0100
0001
0010
,
0100
0000
0100
1000
0000
1000
0010
0100
,
0001
0010
0001
1000
0000
1000
0001
1000
,
0010
0000
0010
0100
0000
0100
0001
0010
,
0100
1000
0001
0100
0000
0100
0001
1000
,
0100
0010
0001
0010
0000
0010
0100
1000
,
0010
0100
0001
0010
0000
0010
0001
1000
,
0010
0100
0001
0010
0000
0010
0001
0100
,
0010
1000
0100
0010
0000
0010
0100
1000
,
0010
0100
0001
0010
0000
0010
0001
0100
,
0010
1000
0100
1000
0000
1000
0100
0010
,
0001
1000
0010
0100
0000
0100
0001
0010
,
0100
1000
0100
0010
0000
0010
0001
0010
,
0100
0100
0100
0100
,
1000
0100
0010
0001
1000
0010
0100
0001
,
1000
1001
0000
0110
,
0010
0000
1000
0100
0010
0001
0010
0100
,
1000
0000
1100
0000
1000
0100
0000
0100
,
0010
0000
0001
0010
0100
1000
0001
0100
,
0010
0000
0000
1000
0000
0000
0010
0000
,
0100
0001
0010
0000
0100
0000
1000
0000
,
1100
0000
0110
0011
,
1001
0000
0000
0000
;

//---------------dance-single - Renard----------------
#NOTES:
     dance-single:
     Renard:
     Medium:
     5:
     0.442,0.464,0.157,0.478,0.000:
0000
0000
0000
0000
,
0000
0000
0000
0000
,
1000
0000
0001
0000
0100
0001
0100
0001
,
0100
0000
0001
0000
,
1000
0000
0100
1000
0100
1000
0100
1000
,
0100
0000
0000
0000
1000
0001
0000
0000
,
0010
0000
0000
0000
0100
1000
0100
0000
,
1000
0000
0001
0100
0000
0000
0001
0000
,
0100
0010
1000
0001
,
2000
0000
0000
0000
,
3100
0000
0010
0000
0001
0000
1000
0001
,
1000
0001
0010
0100
,
1000
0000
0001
1000
0001
0000
0100
0000
,
0010
0000
1000
0000
0001
1000
0000
0001
,
1000
0001
0100
0010
,
1000
0000
0000
0001
0000
0000
1000
0000
,
0100
0010
0001
1000
,
0002
0000
0000
0000
,
0103
0100
0100
0100
,
0100
0100
0100
0100
,
0010
1000
0100
0010
,
0001
1000
0001
0100
,
0020
0000
0230
0000
,
0302
2003
3200
0000
,
0000
0320
0032
2003
,
0002
0000
0000
0000
0000
3003
0110
0000
,
0010
0000
1000
0000
0010
1000
0010
0000
,
0001
0100
0001
0000
,
0010
0000
1000
0000
0010
1000
0010
0000
,
0001
0100
0001
0000
,
0010
1000
0010
1000
,
0001
0100
0001
0100
,
0010
1000
0010
1000
,
0001
0000
1000
0000
0001
1000
0001
1000
,
0001
1000
0100
0100
,
1000
0001
0010
0010
,
0001
1000
0100
0100
,
1000
0000
0001
0000
0010
0001
0010
0000
,
0001
0000
1000
0001
1000
0000
0001
1000
,
0001
0000
1000
0001
1000
0000
0001
1000
,
0001
0000
1000
0001
1000
0000
0001
1000
,
0001
0000
1000
0001
1000
0000
0001
0000
,
2000
0000
3200
0000
,
0320
0032
2003
3200
,
0320
0000
0032
0000
,
2003
3200
0320
0032
,
2003
0000
3200
0000
,
0320
0032
2003
3200
,
0320
0000
0032
0000
,
2003
3200
0320
0032
,
2003
0000
3200
0000
,
0320
0032
2003
3200
,
0320
0000
0032
0000
,
2003
3200
0320
0031
,
2000
0000
3200
0000
,
0320
0000
0032
0000
,
2003
0000
0000
0000
,
0002
0000
0000
3013
,
0000
0000
0000
1001
0000
0000
0000
0000
,
0000
0000
0000
0110
0000
1001
0000
0110
,
0000
0000
0000
1001
0000
0000
0000
0000
,
0000
0000
0000
0110
0000
1001
0000
0110
,
0000
0000
0000
1001
0000
0000
0000
0000
,
0000
0000
0000
0110
0000
0110
0000
1001
,
0000
0000
0000
0110
0000
0000
0000
0000
,
0000
0000
0000
1001
0000
0110
0000
1001
,
0000
1000
0100
0010
,
0001
1000
0001
0010
,
0100
1000
0001
0100
,
0010
0010
1001
0000
,
1000
0100
0000
0000
0010
0001
0000
0000
,
1000
0000
0010
1000
0010
1000
0000
0000
,
0000
0000
0001
0000
0100
0000
0010
1000
,
0010
0010
0010
0010
,
1000
0000
0100
1000
0100
1000
0100
1000
,
0100
0000
0000
0000
,
0000
0000
0010
0001
0010
0001
0010
0001
,
0010
0000
0000
0000
,
0000
0000
0100
0000
1000
0001
1000
0000
,
0001
0000
0100
0001
0000
0000
1000
0000
,
0100
0010
0001
1000
,
0002
0000
0023
0230
,
1300
0000
0000
0000
;

//---------------dance-single - Renard----------------
#NOTES:
     dance-single:
     Renard:
     Easy:
     3:
     0.281,0.357,0.000,0.122,0.000: // measure 1
0000
0000
0000
0000
,  // measure 2
0000
0000
0000
0000
,  // measure 3
1000
0000
1000
0001
,  // measure 4
1000
0000
0001
0000
,  // measure 5
1000
0001
1000
0001
,  // measure 6
0100
0000
0100
0010
,  // measure 7
1000
0000
0010
0000
,  // measure 8
0100
0100
0100
0001
,  // measure 9
1000
0100
0010
0001
,  // measure 10
2000
0000
0000
0000
,  // measure 11
3001
0000
0100
0010
,  // measure 12
1000
0000
0000
0000
,  // measure 13
0001
0010
0100
1000
,  // measure 14
0001
0001
0001
0001
,  // measure 15
0001
0000
0010
0100
,  // measure 16
1000
0000
0001
0000
,  // measure 17
0100
0010
0100
0010
,  // measure 18
2000
0000
0000
0000
,  // measure 19
3001
0000
0001
0000
,  // measure 20
0001
0000
0001
0000
,  // measure 21
0001
0020
0130
1000
,  // measure 22
0001
0010
0200
0000
,  // measure 23
1300
0000
0020
0000
,  // measure 24
0230
0000
0302
0000
,  // measure 25
0000
1003
0100
0010
,  // measure 26
0002
0000
0000
1003
,  // measure 27
0001
1000
0001
1000
,  // measure 28
0001
1000
0001
1000
,  // measure 29
0010
0100
0010
0100
,  // measure 30
0010
0100
0010
0100
,  // measure 31
0001
1000
0001
1000
,  // measure 32
0010
0100
0010
0100
,  // measure 33
0001
1000
0001
1000
,  // measure 34
0010
0100
0010
0100
,  // measure 35
0001
1000
0001
1000
,  // measure 36
0010
0100
0010
0100
,  // measure 37
0001
1000
0001
1000
,  // measure 38
0010
0100
0001
1000
,  // measure 39
0010
0100
0001
1000
,  // measure 40
0010
0100
0001
1000
,  // measure 41
0010
0100
0001
1000
,  // measure 42
0010
0100
0001
1000
,  // measure 43
0010
0000
0010
0000
,  // measure 44
1000
0000
1000
0000
,  // measure 45
0010
0000
0010
0000
,  // measure 46
1000
0000
1000
0000
,  // measure 47
0001
0000
0001
0000
,  // measure 48
0100
0000
0100
0000
,  // measure 49
0001
0000
0001
0000
,  // measure 50
0100
0000
0100
0000
,  // measure 51
0010
0000
0010
0000
,  // measure 52
1000
0000
1000
0000
,  // measure 53
0001
0000
0001
0000
,  // measure 54
0100
0000
0100
0000
,  // measure 55
0020
0000
0000
0000
,  // measure 56
2030
0000
0000
0000
,  // measure 57
0200
0000
0000
0000
,  // measure 58
0000
0000
0000
3310
,  // measure 59
1000
0000
1000
0000
,  // measure 60
0001
0000
0001
0000
,  // measure 61
1000
0000
1000
0000
,  // measure 62
0001
0000
0000
0000
,  // measure 63
0001
0000
0001
0000
,  // measure 64
1000
0000
1000
0000
,  // measure 65
0001
0000
1000
0000
,  // measure 66
0001
0000
0000
0000
,  // measure 67
0010
0000
0010
0000
,  // measure 68
0100
0010
0100
0000
,  // measure 69
0010
0000
0100
0000
,  // measure 70
0010
0100
0010
0000
,  // measure 71
0001
0000
1000
0000
,  // measure 72
0010
0100
0001
0000
,  // measure 73
1000
0000
0001
0000
,  // measure 74
0100
0100
0100
0100
,  // measure 75
0010
0000
0010
0000
,  // measure 76
2000
0000
0000
0000
,  // measure 77
3001
0000
0001
0000
,  // measure 78
0100
0000
0010
1000
,  // measure 79
0010
0000
1000
0000
,  // measure 80
0001
0000
0100
0001
,  // measure 81
1000
0100
0010
0001
,  // measure 82
2000
0000
3002
0000
,  // measure 83
0103
0000
0000
0000
;
