#TITLE:Rosebed;
#SUBTITLE:;
#ARTIST:Emoticon feat Sonitus Vir;
#TITLETRANSLIT:;
#SUBTITLETRANSLIT:;
#ARTISTTRANSLIT:;
#CREDIT:;
#BANNER:rosebed.png;
#BACKGROUND:rosebed-bg.png;
#LYRICSPATH:;
#CDTITLE:;
#MUSIC:rosebed.ogg;
#OFFSET:0.000;
#SAMPLESTART:44.775;
#SAMPLELENGTH:11.000;
#SELECTABLE:YES;
#BPMS:0.000=91.000,32.000=182.000,240.000=91.000,256.500=182.000;
#STOPS:;
#BGCHANGES:;

//---------------dance-single - Renard----------------
#NOTES:
     dance-single:
     Renard:
     Challenge:
     13:
     0.985,1.000,0.233,0.651,0.937:
0000
0000
0000
0000
,
0000
0000
0000
0000
,
1000
0000
0000
0000
0001
0000
0000
0000
1000
0000
0000
0000
0001
0000
0000
0000
0000
0000
0000
0000
0000
0000
0000
0000
0100
0000
0000
0000
0000
0000
0000
0000
0000
0000
0000
0000
0000
0000
0000
0000
0000
0000
0000
0000
0000
0000
0000
0000
0010
0000
0000
0000
0000
0000
0000
0000
0000
0000
0000
0000
1000
0000
0000
0000
0000
0000
0000
0000
0000
0000
0000
0000
0100
0000
0000
0000
0000
0000
0000
0000
0000
0000
0000
0000
0000
0000
0000
0000
0000
0000
0000
0000
0000
0000
0000
0000
1001
0000
0000
0000
0000
0000
0000
0000
0000
0000
0000
0000
0000
0000
0000
0000
0000
0000
0000
0000
0000
0000
0000
0000
0010
0000
0000
0000
0000
0000
0000
0000
0000
0000
0000
0000
0000
0000
0000
0000
0000
0000
0000
0000
0000
0000
0000
0000
0100
0000
0000
0000
0000
0000
0000
0000
0000
0000
0000
0000
0001
0000
0000
0000
0000
0000
0000
0000
0000
0000
0000
0000
1000
0000
0000
0000
0000
0000
0100
0000
0000
0000
0000
0000
1000
0000
0000
0000
0000
0000
0100
0000
0000
0000
0000
0000
,
1000
0000
0000
0000
0000
0000
0000
0000
0000
0000
0000
0000
0000
0000
0000
0000
0000
0000
0000
0000
0000
0000
0000
0000
0110
0000
0000
0000
0000
0000
0000
0000
0000
0000
0000
0000
0000
0000
0000
0000
0000
0000
0000
0000
0000
0000
0000
0000
0001
0000
0000
0000
0000
0000
0000
0000
0100
0000
0000
0000
0000
0000
0000
0000
0001
0000
0000
0000
0000
0000
0000
0000
1000
0000
0000
0000
0000
0000
0000
0000
0000
0000
0000
0000
0000
0000
0000
0000
0000
0000
0000
0000
0000
0000
0000
0000
0001
0000
0000
0000
0000
0000
0000
0000
0000
0000
0000
0000
0100
0000
0000
0000
0000
0000
0000
0000
0000
0000
0000
0000
0010
0000
0000
0000
0000
0000
0000
0000
0000
0000
0000
0000
0100
0000
0000
0000
0000
0000
0001
0000
0000
0000
0000
0000
0100
0000
0000
0000
0000
0000
0000
0000
0000
0000
0000
0000
0000
0000
0000
0000
0000
0000
0000
0000
0000
0000
0000
0000
0001
0000
0000
0000
0000
0000
0000
0000
0000
0000
0000
0000
0000
0000
0000
0000
0000
0000
0000
0000
0000
0000
0000
0000
,
1000
0000
0001
0000
0000
0000
0000
0000
0000
0000
0000
0000
0000
0000
0000
0000
0000
0000
0000
0000
0000
0000
0000
0000
0100
0000
0010
0000
0000
0000
0000
0000
0000
0000
0000
0000
0000
0000
0000
0000
0000
0000
0000
0000
0000
0000
0000
0000
1000
0000
0100
0000
0000
0000
0000
0000
0000
0000
0000
0000
0000
0000
0000
0000
0000
0000
0000
0000
0000
0000
0000
0000
0010
0000
0001
0000
0000
0000
0000
0000
0000
0000
0000
0000
0000
0000
0000
0000
0000
0000
0000
0000
0000
0000
0000
0000
1000
0000
0000
0000
0000
0000
0000
0000
0000
0000
0000
0000
0001
0000
0000
0000
0000
0000
0000
0000
0000
0000
0000
0000
0100
0000
0000
0000
0000
0000
0000
0000
0000
0000
0000
0000
0000
0000
0000
0000
0000
0000
0000
0000
0000
0000
0000
0000
0010
0000
0000
0000
0000
0000
0000
0000
0000
0000
0000
0000
0000
0000
0000
0000
0000
0000
0000
0000
0000
0000
0000
0000
1000
0000
0000
0000
0000
0000
0000
0000
0000
0000
0000
0000
0000
0000
0000
0000
0000
0000
0000
0000
0000
0000
0000
0000
,
0010
0100
0001
0000
1000
0000
0010
0000
1002
0000
0203
0310
1001
0000
0100
0000
,
0001
0000
0000
0000
1000
0000
0000
0000
0001
0000
0000
0000
1000
0000
0000
0000
0000
0000
0000
0000
0000
0000
0000
0000
0010
0000
0000
0000
0000
0000
0000
0000
0000
0000
0000
0000
0000
0000
0000
0000
0000
0000
0000
0000
0000
0000
0000
0000
0100
0000
0000
0000
0000
0000
0000
0000
0000
0000
0000
0000
0001
0000
0000
0000
0000
0000
0000
0000
0000
0000
0000
0000
0010
0000
0000
0000
0000
0000
0000
0000
0000
0000
0000
0000
0000
0000
0000
0000
0000
0000
0000
0000
0000
0000
0000
0000
0001
0000
0000
0000
0000
0000
0000
0000
0000
0000
0000
0000
0000
0000
0000
0000
0000
0000
0000
0000
0000
0000
0000
0000
0100
0000
0000
0000
0000
0000
0000
0000
0000
0000
0000
0000
0000
0000
0000
0000
0000
0000
0000
0000
0000
0000
0000
0000
0010
0000
0000
0000
0000
0000
0000
0000
0000
0000
0000
0000
1000
0000
0000
0000
0000
0000
0000
0000
0000
0000
0000
0000
0001
0000
0000
0000
0000
0000
0010
0000
0000
0000
0000
0000
0001
0000
0000
0000
0000
0000
0010
0000
0000
0000
0000
0000
,
0001
0000
0000
0000
0000
0000
0000
0000
0000
0000
0000
0000
0000
0000
0000
0000
0000
0000
0000
0000
0000
0000
0000
0000
0110
0000
0000
0000
0000
0000
0000
0000
0000
0000
0000
0000
0000
0000
0000
0000
0000
0000
0000
0000
0000
0000
0000
0000
1000
0000
0000
0000
0000
0000
0000
0000
0010
0000
0000
0000
0000
0000
0000
0000
1000
0000
0000
0000
0000
0000
0000
0000
0100
0000
0000
0000
0000
0000
0000
0000
0000
0000
0000
0000
0000
0000
0000
0000
0000
0000
0000
0000
0000
0000
0000
0000
1000
0000
0000
0000
0000
0000
0000
0000
0000
0000
0000
0000
0010
0000
0000
0000
0000
0000
0000
0000
0000
0000
0000
0000
0100
0000
0000
0000
0000
0000
0000
0000
0000
0000
0000
0000
0010
0000
0000
0000
0000
0000
1000
0000
0000
0000
0000
0000
0010
0000
0000
0000
0000
0000
0000
0000
0000
0000
0000
0000
0000
0000
0000
0000
0000
0000
0000
0000
0000
0000
0000
0000
0001
0000
0000
0000
0000
0000
0000
0000
0000
0000
0000
0000
0000
0000
0000
0000
0000
0000
0000
0000
0000
0000
0000
0000
,
1000
0010
0100
0000
0001
0000
0010
0100
,
0000
0000
0010
0000
0000
0000
0100
1000
0100
0000
0010
0000
0001
0000
0000
0000
,
1000
0010
0100
0100
0001
0001
0010
0100
,
0001
0010
0001
0100
0010
0000
1000
0100
1000
0010
0100
0000
0001
0010
0001
0000
,
1000
0100
1000
0010
1000
0100
0010
0001
1000
0000
0010
0000
0100
0000
0000
0000
,
0001
0010
0001
0100
0001
0010
0100
1000
0001
0000
0100
0000
0010
0000
0000
0000
,
1000
0100
1000
0001
0010
0000
0000
0000
0001
0010
0001
1000
0100
0000
0000
0000
,
0101
0000
1010
0000
1001
1001
0110
0110
,
0010
1000
0010
0100
0001
0000
0010
0100
1000
0001
0100
0000
0010
1000
0001
0000
,
0100
0010
1000
0001
0010
0000
0100
1000
0010
1000
0001
0000
1000
0001
0010
0000
,
0001
0000
1000
0000
0100
0000
1000
0000
0001
0010
0001
0000
1000
0000
0020
0000
,
0000
0000
0130
0000
0001
0000
0100
0000
0010
1000
0010
1000
0010
0000
0100
0000
,
0001
0000
0010
0000
0100
0000
1000
0000
0001
0100
0001
0000
0100
0000
0020
0000
,
0000
0000
1030
0000
0100
0000
1000
0000
0010
0100
0001
1000
0010
0100
0001
1000
,
0010
0000
0100
0000
0001
0000
1000
0000
0100
0010
0100
0000
1000
0000
0020
0000
,
0100
0000
0130
0000
0010
0000
1000
0100
0010
0000
0100
1000
0010
0000
1000
0100
,
0010
0000
0100
0000
1000
0000
0001
0010
0001
0000
0100
0010
0100
0000
0002
0000
,
1000
0000
1003
0000
0010
0000
0100
0001
1000
0100
0010
0100
1000
0000
0001
0000
,
2000
0000
0200
3000
0002
0300
0203
2000
,
0300
0002
3000
0200
0000
0003
2300
0002
,
3000
2003
0002
3000
2003
3200
0302
0023
,
0000
2030
3020
0032
0000
1003
1001
0000
,
0011
0000
0000
0001
0010
0000
0000
0010
1000
0000
0000
1000
0010
0000
0001
0000
,
0000
0000
1000
0000
0000
0000
0010
0000
0000
0000
0000
1000
0001
0000
1000
0000
,
0000
0000
0001
0000
1000
0000
0000
1000
0001
0000
0010
0000
1000
0000
0010
0000
,
0000
0001
0100
1000
0000
0100
1001
0000
,
1000
0100
1000
0010
1000
0100
1000
0100
1000
0010
1000
0100
0010
0001
0010
0001
,
0100
0010
0100
0010
0100
0010
1000
0100
1000
0010
0100
0010
0100
0001
0010
0100
,
1000
0001
0010
0001
0100
0001
1000
0001
0010
0001
0100
0010
1000
0100
0010
0001
,
1000
0100
1000
0010
1000
0010
0100
0001
0010
0001
0010
0001
0010
0100
1000
0100
,
0010
0100
1000
0010
1000
0100
1000
0100
1000
0010
1000
0100
0010
0001
0010
0001
,
0100
0010
0100
0010
0100
0010
1000
0100
1000
0010
0100
0010
0100
0001
0010
0100
,
1000
0001
0010
0001
0100
0001
1000
0001
0010
0001
0100
0010
1000
0100
0010
0001
,
1000
0100
1000
0010
1000
0010
0100
0001
0010
0001
0010
0001
0010
0100
1000
0100
,
0010
0001
0010
0000
0001
0000
0010
0000
0001
0000
0000
0000
1001
0000
0000
0000
,
0100
0001
0010
0000
0100
0000
1000
0000
0011
0000
0000
0000
1100
0000
0000
0000
,
0010
1000
0100
0010
0001
0000
0010
0000
0100
0000
1000
0000
0001
0000
0000
0000
,
0100
1000
0010
0100
0001
0000
0010
0000
0001
0000
0000
0000
0110
0000
0000
0000
,
0100
1000
0100
0000
1000
0000
0100
0000
1001
0000
0000
0000
0101
0000
0000
0000
,
0010
1000
0100
0000
0010
0000
0001
0000
1000
0000
0000
0000
1010
0000
0000
0000
,
0100
0001
0010
0100
1000
0000
0100
0000
0010
0000
0001
0000
1100
0000
0000
0000
,
0010
0001
0100
0010
1000
0000
0100
0000
1001
0000
0000
0000
0110
0000
0000
0000
,
1000
0100
0010
0001
0100
0010
1000
0100
0001
0100
1000
0010
0100
0001
0010
1000
,
0010
0001
0010
0100
1000
0000
0100
0001
0100
1000
0010
0000
0100
0001
0010
0000
,
0002
0000
0020
0003
2000
0030
3020
0002
,
0030
2000
0003
0020
0000
3000
0032
2000
,
0003
3002
2000
0003
3002
0023
2030
3200
,
0000
0302
0203
2300
0000
3001
0001
0000
,
1000
0000
0000
1000
0100
0000
0000
0100
0001
0000
0000
0001
0100
0000
1000
0000
,
0000
0000
0001
0000
0000
0000
0100
0000
0000
0000
0000
0001
1000
0000
0001
0000
,
1000
0100
0010
0001
0010
0000
0100
1000
0100
0001
0100
0000
1000
0010
0100
0000
,
0001
0010
1000
0010
0001
0100
0010
1000
0100
0001
1000
0010
0001
0100
0010
1000
,
0200
0000
2000
0300
0020
3000
0200
0030
0001
0001
0002
0300
0020
0003
0100
0100
,
0200
0030
2000
0300
0020
3000
0200
0030
0002
0300
0010
0000
0020
0003
0100
0000
,
0200
0030
2000
0300
0020
3000
0100
0100
0200
0030
0002
0300
0020
0000
0000
0003
,
0200
0030
0002
0300
0200
0003
2000
0300
0100
3100
0200
0000
0002
0000
2000
0000
,
0010
3303
0000
0000
0000
0000
0000
0000
;

//---------------dance-single - Renard----------------
#NOTES:
     dance-single:
     Renard:
     Hard:
     9:
     0.599,0.685,0.223,0.204,0.029:
0000
0000
0000
0000
,
0000
0000
0000
0000
,
0000
0000
0000
0000
,
0000
0000
0000
0000
,
0020
2030
3200
0320
,
0031
0010
0002
0000
0010
0000
0013
0000
,
0001
0000
0010
0000
0100
0000
1000
0010
,
0100
0000
0000
0000
0001
0000
0000
0000
0100
0000
0000
0000
0010
1000
0001
1000
,
0010
0100
0001
0000
0100
0000
0100
0010
,
0000
1000
0000
0100
0000
0010
0001
0000
,
0010
0100
1000
0000
0010
0000
0100
0001
,
0000
0100
0000
0010
1000
0000
0010
0000
,
1000
0010
0100
0001
0100
0000
0010
1000
,
0000
0100
0000
0010
0001
0000
0010
0000
,
0100
1000
0001
0100
0010
0000
1000
0010
,
0000
0010
0100
0000
0001
0100
0010
0000
,
1010
0000
0000
1001
0000
0000
0101
0000
,
0001
0100
1000
0100
0001
0010
0100
1000
,
0001
1000
0001
0100
0010
0100
0010
1000
,
0100
0010
0001
1000
0001
1000
0010
0100
,
0010
0100
0001
1000
0100
0010
0100
1000
,
0001
0010
0100
0010
0001
1000
0001
1000
,
0001
0100
0010
1000
0001
1000
0001
1000
,
0010
0100
0001
1000
0001
1000
0001
1000
,
0100
0010
0100
0010
0001
0100
0010
1000
,
0100
1000
0001
0100
0010
1000
0100
0010
,
0001
0010
0002
0000
0103
0000
0100
0010
,
1000
0000
1000
0010
0100
0000
0100
0010
,
2000
0000
0100
0000
3100
0000
0100
0020
,
0002
0030
0100
0000
0100
0100
0103
0000
,
1000
0100
2000
0000
3010
0000
0010
0100
,
0001
0000
0001
0100
0010
0000
0010
0100
,
0002
0000
0010
0000
0013
0000
0010
0200
,
2000
0300
0010
0000
0010
0010
3010
0000
,
1010
0000
0101
0000
0001
0100
0010
0000
,
1100
0000
0011
0000
1000
0100
0010
0000
,
1001
0000
0110
0000
1000
0001
0100
0000
,
0110
0000
1001
0000
0001
1000
0010
1000
,
0010
0100
0001
0000
0100
0010
1000
0000
,
0100
0010
0001
0000
0010
0100
1000
0000
,
0001
1000
0100
1000
0001
0100
0001
1000
,
0010
1000
0001
0010
0001
1000
1001
0000
,
1000
0100
1000
0000
0001
0000
0100
0000
0010
0000
0000
0000
1000
0000
0000
0000
,
0010
1000
0010
0000
0100
0000
1000
0000
0001
0000
0000
0000
0010
0000
0000
0000
,
0001
0010
0001
0000
1000
0000
0010
0000
0100
0000
0000
0000
0001
0000
0000
0000
,
0100
0001
0100
0000
0010
0000
0001
0000
1000
0000
0100
0000
1000
0000
0000
0000
,
0001
0100
0010
0000
1001
0000
1010
0000
,
0100
0100
0001
0000
2010
0000
3100
0000
,
0100
0010
0001
0000
0011
0000
0101
0000
,
1000
0010
0100
0002
0100
0100
2000
0000
,
0010
0100
0010
0100
0010
0100
3013
0000
,
1000
0100
0010
0001
0010
0100
1000
0001
,
1000
1000
0100
0100
0010
0001
0010
0100
,
0010
0010
0001
0001
0010
0100
1000
0100
,
0010
0010
0001
0001
0010
0001
0010
0100
,
1000
1000
0100
0100
0010
0010
0001
0000
,
0001
0001
0010
0010
0100
1000
0100
0010
,
0100
0100
1000
1000
0100
0010
0001
0010
,
0100
0100
1000
1000
0100
1000
0100
0010
,
0001
0001
0010
0010
0100
0100
1000
0000
,
0102
1000
0010
0100
0200
0003
0020
0300
,
1030
1010
1100
1001
0102
0000
0013
0000
,
0100
0010
1000
0100
0010
0001
0010
0100
,
1000
0010
0100
0001
1000
0100
0010
0002
,
1010
0003
0000
0000
0000
0000
0000
0000
;

//---------------dance-single - Renard----------------
#NOTES:
     dance-single:
     Renard:
     Medium:
     6:
     0.397,0.621,0.068,0.068,0.000:
0000
0000
0000
0000
,
0000
0000
0000
0000
,
0000
0000
0000
0000
,
0000
0000
0000
0000
,
1000
0100
0010
0001
0001
0010
0100
0010
,
0000
0001
1000
0010
0100
0100
0010
0010
,
0000
1000
0001
0100
0001
0001
0010
0100
,
1000
0001
0100
0010
1000
0110
1001
0001
,
0100
0000
0100
0000
0100
0000
0100
0010
,
0000
0010
0000
0000
1000
0000
0010
0000
,
0100
0000
0100
0000
0100
0000
0001
1000
,
0000
0100
0000
1000
0001
0000
1000
0000
,
0001
0000
0001
0000
0100
0000
0010
1000
,
0000
0010
0000
0100
0001
0000
0100
0000
,
0010
0000
0010
0000
1000
0001
1000
0001
,
0000
0010
0000
0100
0000
1000
0001
0000
,
1000
0000
0000
0000
,
1001
0000
0000
0110
0000
0000
1001
0000
,
1000
0000
0001
0000
0100
0000
0001
1000
,
0000
0100
0000
0000
1000
0000
0001
0000
,
0010
0000
0001
0000
1000
0000
0010
0100
,
0000
0001
0000
0000
1000
0000
0100
0000
,
1000
0000
0001
0000
0010
0001
0000
1000
,
0000
0001
0100
0000
0010
0000
0100
0000
,
0010
0000
1000
0000
0001
1000
0000
0100
,
0000
1000
0001
0000
0011
0000
1000
0000
,
0010
0000
0100
0000
0001
0000
0100
0001
,
0000
1000
0000
0100
0000
0000
0010
0001
,
0000
0000
1000
0000
0001
0100
0001
0100
,
0000
0000
0000
0001
0000
0000
1000
0000
,
0100
0000
1000
0000
0001
0000
0010
0001
,
0000
0000
0000
1000
0000
0000
0010
0100
,
0000
0000
0001
0000
0100
0010
0100
0010
,
0000
0000
0000
1000
0000
0000
0010
0000
,
1000
0000
0010
0000
1000
0001
1000
0001
,
0000
0000
0010
0000
0100
1000
0100
1000
,
0000
0001
0010
0001
,
1000
1000
0001
0001
,
0100
0000
0010
0000
1000
0000
0000
0010
,
0000
0100
0001
1000
,
0000
0100
0010
0001
,
1000
0001
0100
0010
,
1000
0000
0010
0000
1000
0000
0000
0001
,
0000
0100
0001
1000
,
0000
0100
0010
0001
,
0010
0000
0100
0000
1000
0100
1000
0100
,
1000
0000
0001
0000
0010
0000
0001
1000
,
0000
0000
0001
0000
0100
0000
0010
1000
,
0000
0001
0100
0001
,
1000
0000
0100
0000
1000
0001
1000
0000
,
0001
1000
0001
1000
0001
1000
0001
1000
,
0001
0000
0000
0100
0000
0000
0010
0000
,
1000
0000
0010
0000
1000
0000
0001
1000
,
0000
0001
0000
0100
0000
0000
0010
1000
,
0000
0000
0010
0000
0100
0000
0001
1000
,
0000
0000
0001
1000
0000
0001
1000
0000
,
0100
0000
0010
0000
0001
0000
1000
0001
,
0000
0100
0000
0010
0000
0000
1000
0001
,
0000
0000
0010
0000
0100
0000
1000
0001
,
0000
0000
1000
0010
0000
0100
0001
0000
,
2000
0000
3200
0000
0310
0010
0010
0010
,
0000
0001
0010
0100
1000
1000
0001
0001
,
0000
0200
0320
2030
3200
0000
0320
0000
,
0031
0010
0100
1000
0010
0100
0001
0010
,
1001
0000
0000
0000
;

//---------------dance-single - Renard----------------
#NOTES:
     dance-single:
     Renard:
     Easy:
     2:
     0.251,0.466,0.000,0.165,0.000: // measure 1
0000
0000
0000
0000
,  // measure 2
0000
0000
0000
0000
,  // measure 3
0000
0000
0000
0000
,  // measure 4
0000
0000
0000
0000
,  // measure 5
1000
0001
0200
0000
,  // measure 6
0301
1000
0200
0000
,  // measure 7
1300
0001
0020
0000
,  // measure 8
0031
1000
0010
0010
,  // measure 9
0100
0100
0100
0000
,  // measure 10
0100
0000
0000
0000
,  // measure 11
0001
0001
0001
0000
,  // measure 12
0001
0000
0001
0000
,  // measure 13
1000
0100
1000
0100
,  // measure 14
1000
0000
0000
0000
,  // measure 15
0001
0010
0001
0000
,  // measure 16
0010
0001
1000
0001
,  // measure 17
0100
0000
0000
0000
,  // measure 18
0010
0010
0010
0010
,  // measure 19
0100
0100
0100
0000
,  // measure 20
0010
0000
1000
0010
,  // measure 21
0100
0100
0100
0000
,  // measure 22
0001
0000
0010
0001
,  // measure 23
0010
0010
0010
0000
,  // measure 24
0100
0000
1000
0100
,  // measure 25
1000
1000
1000
0000
,  // measure 26
0001
0010
0001
0000
,  // measure 27
1000
0000
0010
0000
,  // measure 28
0100
0001
0100
0000
,  // measure 29
0001
0000
0010
0000
,  // measure 30
0100
1000
0100
0000
,  // measure 31
1000
0000
0001
0000
,  // measure 32
0010
0001
0010
0000
,  // measure 33
0001
0000
1000
0000
,  // measure 34
0010
1000
0010
1000
,  // measure 35
0001
0000
0100
0000
,  // measure 36
0001
0000
0100
0000
,  // measure 37
0010
0000
1000
0000
,  // measure 38
0010
0000
1000
0000
,  // measure 39
0100
0000
1000
0100
,  // measure 40
1000
0000
0100
0000
,  // measure 41
1000
0000
0001
0000
,  // measure 42
0010
0001
0010
0001
,  // measure 43
1000
0000
0001
0000
,  // measure 44
0100
0000
0001
0000
,  // measure 45
1000
0000
0100
0000
,  // measure 46
1000
0001
1000
0001
,  // measure 47
0010
0000
0100
0000
,  // measure 48
0010
0000
0100
0000
,  // measure 49
1000
0001
1000
0000
,  // measure 50
0001
0100
0010
1000
,  // measure 51
0002
0000
0000
0000
,  // measure 52
1003
0000
1000
0000
,  // measure 53
0001
0100
0001
0000
,  // measure 54
1000
0100
1000
0000
,  // measure 55
0001
0000
0001
0010
,  // measure 56
0100
0000
1000
0000
,  // measure 57
0001
0000
0100
0001
,  // measure 58
1000
0000
0100
0000
,  // measure 59
1000
1000
1000
0000
,  // measure 60
0001
1000
0001
0100
,  // measure 61
0020
2030
3200
0000
,  // measure 62
0320
0032
0203
0000
,  // measure 63
0320
2030
3200
0000
,  // measure 64
0320
0032
0203
2300
,  // measure 65
3010
0000
0000
0000
;
