#TITLE:Roll the Track;
#SUBTITLE:;
#ARTIST:Interstate;
#TITLETRANSLIT:;
#SUBTITLETRANSLIT:;
#ARTISTTRANSLIT:;
#CREDIT:;
#BANNER:roll.png;
#BACKGROUND:roll-bg.png;
#LYRICSPATH:;
#CDTITLE:;
#MUSIC:roll.ogg;
#OFFSET:0.000;
#SAMPLESTART:35.616;
#SAMPLELENGTH:12.000;
#SELECTABLE:YES;
#BPMS:0.000=175.200;
#STOPS:;
#BGCHANGES:;

//---------------dance-single - Renard----------------
#NOTES:
     dance-single:
     Renard:
     Hard:
     9:
     0.616,0.671,0.012,0.280,0.140:
0000
0000
0000
0000
,
0000
0000
0000
0000
,
0000
0000
0000
0000
,
0000
0000
0000
0000
,
1000
0000
0001
0000
0000
0000
0100
0000
0000
0000
0010
0000
0000
1000
0000
1000
,
0010
0000
0100
0000
0000
0000
0001
0000
0000
0000
0010
0000
0000
0100
0000
0100
,
1000
0000
0010
0000
0000
0000
0100
0000
0000
0000
0001
0000
0000
1000
0000
1000
,
0001
0010
0000
0100
0000
1000
0001
1000
,
0001
0100
0000
0010
0000
1000
0100
0000
,
0010
0001
0000
0010
0000
0100
1000
0000
,
0010
0100
0000
0001
0000
0100
0001
0000
,
1000
0100
0000
1000
0000
0010
0100
0000
,
0001
0010
0000
0100
0000
1000
0001
0000
,
0010
0001
0000
1000
0000
0010
0100
0000
,
0001
0100
0000
0010
0000
1000
0010
0000
,
0100
0001
0000
1000
0000
0100
0010
0001
,
0010
0100
0000
1000
0000
0001
0010
0000
,
0001
1000
0000
0010
0000
0100
0001
0000
,
0100
0001
0000
1000
0000
0100
0010
0000
,
0100
1000
0000
0001
0000
0010
0100
0000
,
0010
0100
0000
0010
0000
0001
0100
0000
,
0010
0001
0000
0010
0000
0100
0010
0000
,
1000
0100
0000
0010
0000
1000
0010
0000
,
0100
1000
0000
0010
0000
0100
0001
0000
,
2002
0000
0000
0000
,
0000
0000
0000
0000
0000
0000
0000
3003
,
0200
0000
0000
0000
0001
0000
0000
0000
0002
0300
0000
0000
1000
0000
0010
0000
,
0020
0003
0000
0000
1000
0000
0000
0000
0200
0030
0000
0000
0001
0000
0010
0000
,
2000
0300
0000
0000
0000
0000
0000
0000
0001
0000
0000
0000
0010
0000
0000
0000
,
0001
0000
0100
0001
0010
0000
3010
0000
,
0010
1000
0001
0100
0002
0000
0010
0000
,
0200
0003
0000
0000
1000
0000
0010
0000
0002
0300
0000
0000
1000
0000
0000
0000
,
0020
0003
0000
0000
0001
0000
0000
0000
1000
0000
0000
0000
0100
0000
0100
0000
,
0200
0030
0000
0000
0001
0000
0000
0000
1000
0000
1000
0000
1300
0000
0000
0000
,
0020
0000
0000
0000
1000
0000
0000
0000
2000
0030
0000
0000
0001
0000
0100
0000
,
0200
3000
0000
0000
0001
0000
0000
0000
0020
0300
0000
0000
1000
0000
0100
0000
,
0002
0030
0000
0000
0000
0000
0000
0000
1000
0000
0000
0000
0100
0000
0000
0000
,
1000
0000
0010
1000
0100
0000
0103
0000
,
0100
0001
1000
0010
2000
0000
0100
0000
,
0020
3000
0000
0000
0001
0000
0100
0000
2000
0030
0000
0000
0001
0000
0000
0000
,
0200
3000
0000
0000
1000
0000
0000
0000
0001
0000
0000
0000
0010
0000
0010
0000
,
0310
0000
0000
0010
0001
0000
1000
0000
0002
0000
0000
0000
2000
0000
0000
3003
,
0001
0000
0100
0000
0010
0000
1000
0000
0010
0000
0100
0000
0010
0000
1000
0010
,
1000
0000
0010
0000
0100
0000
0001
0000
0010
0000
0100
0000
1000
0000
0001
0010
,
0001
0000
0010
0000
0100
0000
1000
0000
0001
0000
0100
0000
0010
0000
1000
0010
,
1000
0000
0010
0000
0100
0000
0001
0000
0010
0000
0100
0000
1000
0000
0001
0010
,
0001
0000
0010
0000
0100
0000
1000
0000
0001
0000
0100
0000
0010
0000
1000
0010
,
1000
0000
0010
0000
0100
0000
0001
0000
0010
0000
0100
0000
1000
0000
0001
0010
,
0001
0000
1000
0000
0010
0000
0100
0000
0001
0000
0100
0000
0010
0000
1000
0010
,
1000
0000
0010
0000
0100
0000
0001
0000
0010
0000
0100
0000
1000
0001
1000
0000
,
0001
0000
1000
0000
0010
0000
0100
0000
0001
0000
0100
0000
0001
0100
0001
0100
,
0001
0100
0010
1000
0100
0010
0001
1000
,
0001
0000
1000
0000
0100
0000
0010
0000
0001
0000
1000
0000
0100
1000
0100
1000
,
0100
0010
0001
0100
0010
1000
0010
0100
,
0001
0000
0100
0000
0010
0000
1000
0000
0010
0000
0100
0000
0001
0100
0001
0100
,
0001
0100
0001
0010
0100
1000
0100
0010
,
0001
0000
1000
0000
0100
0000
1000
0000
0001
0000
1000
0000
0010
1000
0010
1000
,
0010
0100
0001
1000
0010
1000
1000
1000
,
0001
0000
0000
0000
;

//---------------dance-single - Renard----------------
#NOTES:
     dance-single:
     Renard:
     Medium:
     4:
     0.303,0.387,0.000,0.390,0.000:
0000
0000
0000
0000
,
0000
0000
0000
0000
,
0000
0000
0000
0000
,
0000
0000
0000
0000
,
0000
1000
0000
0001
0000
1000
0000
0001
,
0000
0100
0000
0010
0000
0100
0000
0010
,
0000
1000
0000
0001
0000
1000
0000
0001
,
0100
0000
0000
0000
,
0010
0000
0000
0000
,
2000
0000
0000
0000
,
3020
0000
0000
0000
,
0000
0000
0000
0000
,
0030
0000
0200
0000
,
0302
0000
0023
0000
,
0032
0000
0000
0000
,
2003
0000
0000
0000
,
3000
0000
0020
0000
,
2030
0000
3020
0000
,
0230
0000
0000
0000
,
0000
0000
0000
0000
,
0300
0000
0002
0000
,
0023
0000
0032
0000
,
2003
0000
0000
0000
,
3020
0000
0000
0000
,
0130
0000
0000
0000
,
0000
0000
0000
0000
,
0100
0001
0200
0000
,
0320
0000
2030
0000
,
3100
1000
0100
1000
,
0001
0010
0001
1000
,
0010
0100
0002
0000
,
0023
0000
0230
0000
,
2300
0000
0000
0000
,
3002
0000
0000
0000
,
0103
0010
2000
0000
,
3002
0000
0013
0100
,
2000
0000
3002
0000
,
0103
0010
0100
0001
,
1000
0100
0020
0000
,
0031
0010
0200
0000
,
1300
0010
0100
0001
,
0020
0000
0230
0000
,
1300
1000
0010
0010
,
0100
0000
0100
0000
0001
0000
1000
0100
,
1000
0001
0010
0100
,
1000
0000
0001
0000
0100
0000
0001
0100
,
0001
0000
0010
0000
0100
0000
1000
0001
,
1000
0000
0001
0000
0100
0000
0010
0100
,
0010
1000
0100
0010
,
0001
1000
0001
0001
,
1000
0001
1000
0001
,
0010
0100
0010
0100
,
1000
0001
1000
0001
,
0010
0100
0010
0000
,
0100
0010
0100
0010
,
0001
1000
0001
1000
,
0010
0100
0010
0100
,
0000
0001
0000
1000
0000
0001
0000
0100
;

//---------------dance-single - Renard----------------
#NOTES:
     dance-single:
     Renard:
     Easy:
     2:
     0.202,0.282,0.000,0.377,0.000: // measure 1
0000
0000
0000
0000
,  // measure 2
0000
0000
0000
0000
,  // measure 3
0000
0000
0000
0000
,  // measure 4
0000
0000
0000
0000
,  // measure 5
1000
0000
1000
0000
,  // measure 6
0001
0001
0001
0000
,  // measure 7
0001
0000
0001
0000
,  // measure 8
1000
1000
1000
0000
,  // measure 9
0002
0000
0000
0000
,  // measure 10
0203
0000
0000
0000
,  // measure 11
0320
0000
0000
0000
,  // measure 12
0000
0000
0000
0000
,  // measure 13
0030
0000
0000
0000
,  // measure 14
2000
0000
0000
0000
,  // measure 15
3020
0000
0000
0000
,  // measure 16
0230
0000
0000
0000
,  // measure 17
0300
0000
0000
0000
,  // measure 18
0002
0000
0000
0000
,  // measure 19
0023
0000
0000
0000
,  // measure 20
0000
0000
0000
0000
,  // measure 21
0030
0000
0200
0000
,  // measure 22
2300
0000
3200
0000
,  // measure 23
2300
0000
0000
0000
,  // measure 24
3002
0000
0000
0000
,  // measure 25
0103
0000
0000
0000
,  // measure 26
0000
0000
0000
0000
,  // measure 27
0001
0000
0200
0000
,  // measure 28
0320
0000
0230
0000
,  // measure 29
0320
0000
0000
0000
,  // measure 30
1000
0000
0000
0000
,  // measure 31
1030
0000
0200
0000
,  // measure 32
0320
0000
0032
0000
,  // measure 33
2003
0000
0000
0000
,  // measure 34
0002
0000
0000
3003
,  // measure 35
0000
0000
0002
0000
,  // measure 36
0203
0000
0320
0000
,  // measure 37
2030
0000
0000
0000
,  // measure 38
0000
0000
0000
0000
,  // measure 39
3000
0000
0002
0000
,  // measure 40
0023
0000
0230
0000
,  // measure 41
2300
0000
0000
0000
,  // measure 42
3002
0000
0000
0000
,  // measure 43
0103
0000
0100
0000
,  // measure 44
0010
0000
0100
0000
,  // measure 45
0010
0000
0100
0000
,  // measure 46
0010
0000
1000
0000
,  // measure 47
0001
0000
1000
0000
,  // measure 48
0001
0000
0100
0000
,  // measure 49
0010
0000
1000
0000
,  // measure 50
0001
1000
0001
1000
,  // measure 51
0001
0000
0010
0000
,  // measure 52
0100
0000
1000
0001
,  // measure 53
1000
0000
0100
0000
,  // measure 54
0010
0000
0001
1000
,  // measure 55
0001
0000
0010
0000
,  // measure 56
0100
0000
1000
0001
,  // measure 57
1000
0000
0001
1000
,  // measure 58
0000
0001
0000
0001
0000
0100
0000
0010
;
