#TITLE:Rocktronica;
#SUBTITLE:;
#ARTIST:Neko;
#TITLETRANSLIT:;
#SUBTITLETRANSLIT:;
#ARTISTTRANSLIT:;
#CREDIT:;
#BANNER:rock.png;
#BACKGROUND:rock-bg.png;
#LYRICSPATH:;
#CDTITLE:;
#MUSIC:rock.ogg;
#OFFSET:0.000;
#SAMPLESTART:64.532;
#SAMPLELENGTH:12.000;
#SELECTABLE:YES;
#BPMS:0.000=145.000;
#STOPS:;
#BGCHANGES:;

//---------------dance-single - Renard----------------
#NOTES:
     dance-single:
     Renard:
     Challenge:
     10:
     0.775,0.765,0.200,0.116,0.946:
0000
0000
0000
0000
,
0000
0000
0000
0000
,
0000
0000
0000
0000
,
0000
0000
0000
0000
,
1000
0000
0001
0000
0100
0001
0100
0000
0010
0000
1000
0000
0100
1000
0100
0000
,
1000
0000
0001
0000
0010
0001
0010
0000
0001
0000
1000
0000
0010
1000
0010
0000
,
1000
0000
0100
0000
0010
0001
0010
0000
0100
0000
1000
0000
0001
1000
0001
0000
,
1000
0010
1000
0010
0100
0001
0100
0001
0010
0001
0010
0001
0010
0100
0010
0000
,
0010
0000
0100
0000
1000
0010
0000
1000
0010
0000
0100
0001
0000
0100
0010
0000
,
1000
0000
0100
0000
0010
0001
0000
0010
0100
0000
1000
0001
0000
0010
0100
0000
,
1000
0000
0001
0000
0100
0010
0000
1000
0010
0000
0100
0000
0001
0100
0000
0010
,
1000
0000
0000
0000
0000
0000
0101
0000
0000
0000
0000
0000
0010
0000
0000
0000
0000
0000
1100
0000
0000
0000
0000
0000
0010
0000
0000
0000
0000
0000
0001
0000
0000
0000
0000
0000
1000
0000
0000
0001
0000
0000
1000
0000
0001
0000
2000
0000
,
0002
0000
0000
0000
0000
0000
0000
3003
,
0220
0000
0000
0000
0000
0000
0000
0000
0000
0000
0330
0000
0100
0010
0100
0010
,
1000
0000
1000
0001
0000
0001
0100
0000
0100
0010
0000
0010
1000
0000
0100
0010
,
0001
0000
0001
0010
0000
0010
0100
0000
0100
1000
0000
1000
0001
0000
0010
0100
,
1000
0000
0001
0100
0000
0010
1000
0000
0010
0100
0000
0001
0100
0000
0010
1000
,
0100
0000
0010
0000
0001
0000
0010
0100
0000
1000
0000
0001
0010
0000
0100
1000
,
0001
0000
0001
0100
0000
0100
0001
0000
0001
1000
0100
0010
0001
0000
0000
0000
,
0010
0000
0010
0100
0000
0100
1000
0000
1000
0010
1000
0001
0100
0000
0000
0000
,
0100
0000
0100
0001
0000
0001
0100
0000
0100
0010
0000
0010
1000
0000
0000
0000
,
1010
0000
0000
0000
0101
0000
0000
0000
1000
0000
0100
0000
0000
0000
0010
0000
0001
0000
0000
0000
0010
0000
0100
0000
0000
0000
1000
0001
1000
0000
0000
0000
,
0001
0000
0100
0000
0010
1000
0000
0010
0100
0000
0001
0100
0000
0010
0000
0000
,
1000
0100
0010
0001
0010
0100
1000
0001
,
0010
0000
0100
0000
1000
0001
0000
0010
0100
0000
1000
0001
0000
0010
0100
0000
,
1000
0000
0010
0000
0100
0000
0001
0100
0010
0000
1000
0010
0000
0100
0001
0000
,
1000
0000
0001
0000
0100
0010
0000
1000
0010
0000
0100
0001
0000
0100
0010
0000
,
1000
0000
0100
0000
0010
0001
0000
0010
0100
0000
1000
0001
0000
0010
0100
0000
,
1000
0000
0001
0000
0100
0010
0000
1000
0010
0000
0100
0001
0000
0100
0010
0000
,
1000
0000
0100
0000
0010
0001
0000
0010
0100
0000
1000
0001
0000
0010
0100
0000
,
1000
0001
0000
1000
0001
0000
1000
0001
0000
1000
0001
0000
0100
0010
0000
0100
,
0010
0000
0100
0010
0000
0100
0010
0000
1000
0100
0000
1000
0100
0000
1000
0100
,
0000
1000
0100
0000
0010
0001
0000
0010
0001
0000
0010
0001
0000
0010
0001
0000
,
1000
0001
0000
0001
0100
0000
0010
1000
0100
0010
0000
0001
0010
0000
0100
1000
,
0001
0010
0000
0100
1000
0000
0001
0100
0010
1000
0000
0010
0100
0001
0000
0100
,
0010
1000
0000
0100
0010
0001
0000
0010
0100
0000
1000
0000
0001
0000
0100
0000
,
0010
0000
0010
0000
0010
0000
0200
0000
0000
0310
0000
0000
0220
0000
0000
0000
0000
0000
0000
0000
0000
0000
0000
0000
,
0000
0000
0000
0330
2002
0000
0000
0000
,
0000
0000
0000
0000
0000
0000
0000
0000
0000
0000
3003
0000
1000
0001
1000
0001
,
1000
0000
0001
0000
1001
0000
0001
0100
0000
0010
1000
0000
0100
0000
0010
0000
,
0001
0000
0010
0000
0100
0000
1000
0001
0000
0010
0000
0000
0100
0000
1000
0000
,
0010
0000
0100
0000
0101
0000
0100
0010
0000
1000
0100
0000
0010
0000
0001
0000
,
0010
0000
0100
0000
1000
0000
0001
0100
0000
0010
0000
1000
0010
0000
0100
0001
,
0100
0000
0010
0000
1000
0000
0100
0010
0000
0001
0010
0000
0100
0000
1000
0000
,
0001
0000
0010
0000
0100
0000
1000
0001
0000
0000
1001
0000
0101
0000
0000
0000
,
0100
0000
0010
0000
1000
0000
0100
0010
0000
0001
0010
0000
0100
0000
1000
0000
,
0001
0000
0100
0000
1010
0000
1000
0001
0000
0100
0010
1000
0100
0000
0010
0001
,
0010
0001
0010
0000
0011
0000
0010
0100
0000
1000
0100
0000
1100
0000
0000
0000
,
1000
0010
1000
0000
1010
0000
1000
0010
0000
0100
0001
0000
0101
0000
0000
0000
,
0100
0001
0010
0000
0100
0000
0010
0100
0000
1000
0100
0000
1000
0000
0010
0000
,
0100
0000
0001
0000
0100
0000
0010
1000
0000
0010
0000
0100
0001
0000
0100
0010
,
1000
0100
0010
0000
0001
0000
0010
0100
0000
1000
0001
0000
0010
0000
0100
0000
,
1000
0001
1000
0000
0001
0000
0100
0010
0000
1000
0010
0000
0100
0000
0001
0000
,
1001
0000
0110
0000
1000
0001
0000
0100
0010
0000
1000
0001
0000
0100
0010
0000
,
1000
0100
0010
0001
0010
0100
1000
0001
0100
0010
1000
0001
0010
0100
0010
0001
,
2002
0000
0000
0000
,
3003
0000
0000
0000
;

//---------------dance-single - Renard----------------
#NOTES:
     dance-single:
     Renard:
     Hard:
     8:
     0.550,0.607,0.021,0.021,0.442:
0000
0000
0000
0000
,
0000
0000
0000
0000
,
0000
0000
0000
0000
,
0000
0000
0000
0000
,
1000
0001
1000
0001
1000
0001
1000
0001
,
0100
0010
0100
0010
0100
0010
0100
0010
,
1000
0001
1000
0001
1000
0001
1000
0001
,
0100
0010
1000
0001
0100
0000
0110
0000
,
0010
0000
1000
0000
0010
1000
0000
0010
1000
0000
0010
1000
0000
0010
1000
0000
,
0001
0000
0100
0000
0001
0100
0000
0001
0100
0000
0001
0100
0000
0001
0100
0000
,
0001
0000
0010
0000
0001
0010
0000
0000
0100
0000
1000
0000
0100
1000
0000
0000
,
0001
0000
0100
0000
0010
0000
1000
0000
0001
0000
0100
0000
0010
1000
0010
0000
,
1001
0000
0000
0000
,
0000
0000
0000
0000
,
1000
0000
0000
0010
0000
0010
0100
0000
0000
0001
0000
0001
0010
0000
0000
0000
,
0100
0000
0000
1000
0000
1000
0010
0000
0000
0100
0000
0100
0001
0000
0000
0000
,
0010
0000
0000
0100
0000
0100
0010
0000
0000
0001
0000
0001
1000
0000
0000
0000
,
0001
0000
0100
0000
0010
0000
1000
0010
0000
1000
0000
0010
0100
0000
0000
0000
,
0001
0000
0000
0010
0000
0010
0100
0000
0000
1000
0000
1000
0010
0000
0000
0000
,
0100
0000
0000
0001
0000
0001
1000
0000
0000
0100
0000
0100
0010
0000
0000
0000
,
0001
0000
0000
1000
0000
1000
0010
0000
0000
0100
0000
0100
0001
0000
0000
0000
,
0010
0000
0100
0000
1000
0000
0001
0100
0000
0010
0000
1000
0010
0000
0000
0000
,
1000
0000
0001
0000
1000
0010
0000
1000
0100
0000
1000
0001
0000
1000
0010
0000
,
0000
0000
0000
0000
,
1000
0000
0000
0010
0000
0010
0100
0000
0000
0001
0000
0001
0010
0000
0000
0000
,
0100
0000
0000
0000
1000
0000
0000
0001
0000
0100
0000
0000
0010
0000
0000
0000
,
1000
0000
0001
0000
0100
0001
0000
0010
0001
0000
1000
0001
0000
0100
0001
0000
,
0000
0000
0000
0000
,
0001
0000
0000
0100
0000
0100
0010
0000
0000
1000
0000
1000
0010
0000
0000
0000
,
0100
0000
0000
0000
0001
0000
0000
1000
0000
0100
0000
0000
0010
0000
0000
0000
,
0001
0001
0010
0100
0100
1000
0010
0010
,
0100
0001
0001
0010
0100
0100
1000
0010
,
0010
0100
0001
0001
0010
0100
0100
1000
,
0010
0000
0100
0000
0010
0000
0100
0000
0001
1000
0000
0001
1000
0000
0000
0000
,
0010
0000
0100
0000
0010
0000
0100
0000
0001
1000
0000
0001
1000
0000
0010
0000
,
0100
0010
0000
0000
0100
0010
0000
0000
0100
0000
0100
0000
0100
0000
0100
0000
,
0001
0000
1000
0000
0001
0000
2000
0000
0000
3002
0000
0000
1003
0000
0000
0000
0000
0000
0000
0000
0000
0000
0000
0000
,
0000
0000
0000
0000
,
0000
0000
0000
0000
,
1000
0100
0010
0001
0100
0010
0100
0010
,
1000
0100
0010
0001
0100
0010
0100
0010
,
1000
0100
0010
0001
0100
0010
0100
0010
,
1000
0000
0100
0000
0010
0000
0001
0010
0000
0100
1000
0000
0001
0000
0010
0000
,
0100
1000
0001
0100
0010
0100
0010
0100
,
0010
1000
0100
0010
0001
0100
0010
0100
,
0010
1000
0100
0010
0001
0100
0010
0100
,
0010
0000
1000
0000
0010
0000
0100
0001
0000
0100
0000
0010
0100
0000
0010
0000
,
1000
0100
0010
0001
1000
0100
0010
0001
,
0010
0100
1000
0001
0010
0100
1000
0100
,
0010
0001
1000
0010
0100
0001
0100
0010
,
1000
0000
0001
0000
0010
0000
0100
1000
0000
0001
0000
0010
0001
0000
1000
0000
,
0010
0100
0001
0010
0001
1000
0100
1000
,
0001
0100
0001
1000
0010
1000
0100
0010
,
0001
0000
0010
0000
0100
1000
0000
1000
0100
0000
0100
1000
0000
1000
0001
0000
,
1000
0000
0001
0100
0001
0000
1000
0100
1000
0000
0001
0010
0001
0000
1000
0000
,
0010
0000
0000
0000
;

//---------------dance-single - Renard----------------
#NOTES:
     dance-single:
     Renard:
     Medium:
     5:
     0.350,0.376,0.021,0.095,0.000:
0000
0000
0000
0000
,
0000
0000
0000
0000
,
0000
0000
0000
0000
,
0000
0000
0000
0000
,
1000
0001
0000
1000
0000
0001
0000
1000
,
0001
1000
0000
0001
0000
1000
0000
0001
,
1000
0001
0000
1000
0000
0001
0000
1000
,
0001
0000
1000
0000
0001
1000
0001
0000
,
1000
0001
1000
0001
,
1000
0001
1000
0001
,
0010
0010
0100
0100
,
1000
1000
0001
0001
1000
1000
0001
0000
,
1001
0000
0000
0000
,
0000
0000
0000
0000
,
1000
0000
0001
0100
0001
0100
0001
0000
,
1000
0000
0100
1000
0100
1000
0100
0000
,
1000
0000
0001
0010
0001
0010
0001
0000
,
1000
0010
0100
0001
,
1000
0000
0001
0010
0001
0010
0001
0000
,
1000
0000
0001
0100
0001
0100
0001
0000
,
0001
0000
1000
0100
1000
0100
1000
0000
,
0001
0000
1000
0000
0010
1000
0010
0000
,
1000
0001
0010
0001
,
1000
0001
0010
0001
,
1000
0001
0010
0001
,
2000
3002
0023
0000
,
0031
1000
0100
1000
,
0001
1000
0100
1000
,
0001
1000
0100
1000
,
0002
2003
3200
0320
,
0031
0000
0000
0010
0000
0000
0100
0000
,
0000
1000
0000
0000
0010
0000
0000
0100
,
0000
0000
0001
0000
0000
1000
0000
0000
,
0100
0100
0010
0010
,
0001
0001
1000
1000
,
0001
0001
1000
1000
0001
1000
0001
1000
,
0002
2003
3001
0000
,
0000
0000
1001
0000
,
0000
0000
0000
0000
,
1000
0000
0001
0000
1000
0001
1000
0000
,
0001
0010
0001
0010
,
0001
0000
1000
0000
0001
1000
0001
0000
,
1000
0100
1000
0100
,
1000
0000
0100
0000
0010
0100
0010
0000
,
0001
0000
0100
0000
0010
0100
0010
0000
,
1000
0000
0100
0000
0010
0100
0010
0000
,
0001
1000
0010
0100
,
0001
0000
1000
0000
0100
1000
0100
0000
,
1000
0000
0001
0000
0010
0001
0010
0000
,
0001
0100
0010
1000
,
0100
1000
0001
0010
,
0100
0000
1000
0000
0001
0100
0001
0000
,
0100
0000
0010
0000
1000
0100
1000
0000
,
0100
0010
0001
1000
,
0001
0100
0001
1000
0100
1000
0001
0010
,
0001
0000
0000
0000
;

//---------------dance-single - Renard----------------
#NOTES:
     dance-single:
     Renard:
     Easy:
     2:
     0.276,0.492,0.032,0.189,0.000: // measure 1
0000
0000
0000
0000
,  // measure 2
0000
0000
0000
0000
,  // measure 3
0000
0000
0000
0000
,  // measure 4
0000
0000
0000
0000
,  // measure 5
1000
0001
0100
0010
,  // measure 6
1000
0001
0100
0010
,  // measure 7
1000
0001
0100
0010
,  // measure 8
1000
1000
1000
1000
,  // measure 9
0002
0000
2003
0000
,  // measure 10
3002
0000
2003
0000
,  // measure 11
3002
2003
3002
2003
,  // measure 12
3002
2003
3002
2003
,  // measure 13
3001
0000
0000
0000
,  // measure 14
0110
0000
0000
0000
,  // measure 15
0010
0000
0010
0010
,  // measure 16
0100
0000
0100
0100
,  // measure 17
0010
0000
0010
0010
,  // measure 18
1000
0001
1000
0001
,  // measure 19
0100
0000
0100
0100
,  // measure 20
0010
0000
0010
0010
,  // measure 21
0100
0000
0100
0100
,  // measure 22
0010
0100
0010
0100
,  // measure 23
0010
1000
0010
1000
,  // measure 24
0002
0000
0000
0000
,  // measure 25
0103
0001
0100
0001
,  // measure 26
0020
0000
0000
0000
,  // measure 27
0130
1000
0100
1000
,  // measure 28
0002
0000
0000
0000
,  // measure 29
0013
0100
0010
0100
,  // measure 30
2000
0000
0000
0000
,  // measure 31
3001
0000
1000
0000
,  // measure 32
0001
0000
1000
0000
,  // measure 33
0001
0000
1000
0000
,  // measure 34
0001
0001
1000
1000
,  // measure 35
0001
0001
1000
1000
,  // measure 36
0001
1000
0001
0001
,  // measure 37
2000
3002
1003
0000
,  // measure 38
0000
0000
0110
0000
,  // measure 39
0000
0000
0000
0000
,  // measure 40
0010
0010
0010
0010
,  // measure 41
0010
0010
0010
0010
,  // measure 42
0010
0010
0010
0010
,  // measure 43
1000
0001
1000
0001
,  // measure 44
0100
0100
0100
0100
,  // measure 45
0100
0100
0100
0100
,  // measure 46
0100
0100
0100
0100
,  // measure 47
0001
1000
0001
1000
,  // measure 48
0100
0010
0100
0010
,  // measure 49
0100
0010
0100
0010
,  // measure 50
0100
0010
0100
0010
,  // measure 51
0100
0010
0100
0100
,  // measure 52
1000
0001
1000
0001
,  // measure 53
1000
0001
1000
0001
,  // measure 54
1000
0001
1000
0001
,  // measure 55
1000
0001
0100
0010
,  // measure 56
1001
0000
0000
0000
;
