#TITLE:Rocker (Eric Prydz Remix);
#SUBTITLE:;
#ARTIST:Alter Ego;
#TITLETRANSLIT:;
#SUBTITLETRANSLIT:;
#ARTISTTRANSLIT:;
#CREDIT:;
#BANNER:rocker.png;
#BACKGROUND:rocker-bg.png;
#LYRICSPATH:;
#CDTITLE:;
#MUSIC:rocker.ogg;
#OFFSET:0.000;
#SAMPLESTART:59.077;
#SAMPLELENGTH:12.000;
#SELECTABLE:YES;
#BPMS:0.000=130.000;
#STOPS:;
#BGCHANGES:;

//---------------dance-single - Renard----------------
#NOTES:
     dance-single:
     Renard:
     Hard:
     9:
     0.580,0.590,0.225,0.000,0.371:
0000
0000
0000
0000
,
0000
0000
0000
0000
,
0001
0100
0000
0000
0010
0000
0100
0000
0010
1000
0000
0000
0100
0000
0010
0000
,
0001
1000
0001
0100
0001
0000
1001
0000
,
1000
0100
0000
0000
0010
0000
0001
0000
0100
0010
0000
0000
0100
0000
0001
0000
,
1000
0100
0010
0001
1000
0000
0101
0000
,
0010
0000
0000
0000
1000
0000
0100
0000
0010
0001
0000
0000
1001
0000
0000
0000
,
0110
0000
0001
1000
0000
0100
0011
0000
,
0100
1000
0100
1000
0000
0000
0001
0010
0001
0010
0000
0000
0000
0000
0000
0000
,
0001
0100
0001
0100
0000
0000
0010
1000
0010
1000
0010
0000
0000
0000
0000
0000
,
1000
0100
1000
0000
0000
0000
0001
0010
0001
0010
0001
0000
0000
0000
0000
0000
,
0100
0001
0100
0000
0000
0000
0010
1000
0010
1000
0010
0000
1000
0000
0000
0000
,
0010
0100
0010
0000
0000
0000
0100
0001
0100
0001
0000
0000
1001
0000
0000
0000
,
1000
0100
1000
0000
1100
0000
0010
0100
0010
0100
0010
0000
0110
0000
0000
0000
,
0010
0001
0010
0000
0011
0000
0001
0100
0001
0000
0000
0000
0101
0000
0000
0000
,
0100
0010
0100
0000
0110
0000
0010
0000
1000
0010
1000
0010
1000
0000
0010
0000
,
0000
0000
1000
0010
0000
0010
0100
0000
,
0100
0001
0000
0001
0010
0100
1000
0000
,
0001
0000
0001
0100
0000
0100
0001
0000
,
1000
0100
0000
0000
0000
0000
0010
0001
0010
0001
0010
0000
0001
0000
0000
0000
,
0100
0000
0100
0010
0000
0010
1000
0000
,
0001
0100
0000
0000
0010
0000
1000
0000
0100
0000
1000
0000
0100
0000
0000
0000
,
0010
0001
0000
0000
0100
0000
0001
0000
0100
0000
0010
0000
1000
0000
0001
0000
,
0100
0000
0001
0000
0100
0000
0010
0000
1000
0000
0001
0000
0100
0001
0000
0100
,
0010
0000
0000
1000
0100
0000
0010
0000
0001
0000
0010
0000
0100
0000
1000
0000
,
0001
0000
0000
0100
0010
0000
1000
0000
0010
0000
0000
0000
1001
0000
0000
0000
,
1000
0000
0000
0100
0010
0000
0001
0000
0010
0000
0100
0000
1000
0000
0010
0000
,
0100
0000
0000
0001
0100
0000
0010
0000
0100
0000
0000
0000
1001
0000
0000
0000
,
1100
0000
0000
0010
0001
0000
0100
0000
0010
0000
1000
0000
0001
0000
0100
0000
,
0001
0000
1000
0100
1000
0000
0001
0000
0010
0000
0000
0000
1001
0000
0000
0000
,
0010
0000
0000
0001
0100
0000
0010
0000
1000
0000
0100
0000
0010
0000
0001
0000
,
1000
0001
0000
1000
0001
0000
1000
0010
0000
1000
0001
0000
1001
0000
0000
0000
,
1000
0000
0010
0100
0000
0001
0100
0000
,
0010
0000
1000
0000
0000
0000
0100
0000
0010
0000
0001
0010
0001
0000
0010
0000
,
0100
0000
0100
1000
0000
1000
0010
0000
,
0100
0001
0100
0000
0010
0000
1000
0000
0100
0000
0000
1000
0001
0000
1000
0000
,
0001
0000
0001
0100
0000
0100
0001
0000
,
0001
0000
1000
0000
0100
0000
0000
0100
0010
0000
0001
0100
0001
0000
0100
0000
,
0010
0000
0000
0010
0000
0000
1000
0000
0000
1000
0000
0000
0100
0000
0000
0000
,
0100
0000
0010
0000
0001
0000
1000
0001
1000
0000
0001
0000
0100
0000
0010
0000
,
1000
0000
0000
1000
0001
0000
0100
0000
0010
0000
0000
0010
1000
0000
0100
0000
,
0010
0001
0010
0100
1000
0000
1100
0000
,
0010
0000
0000
0001
0100
0000
0010
0000
1000
0000
0001
0100
0001
0000
0100
0000
,
0010
1000
0100
0010
0001
0000
0011
0000
,
0001
0010
0001
0000
0010
0000
0100
0000
1000
0000
0010
0000
0100
0000
0010
0000
,
1000
0010
1000
0000
0010
0000
0100
0000
0010
0000
0000
0000
1001
0000
0000
0000
,
1000
0100
1000
0000
0001
0000
0010
0000
0001
0000
0100
0000
0010
0000
1000
0000
,
0100
1000
0100
0000
1000
0000
0001
0010
0001
1000
0001
0000
1001
0000
0000
0000
;

//---------------dance-single - Renard----------------
#NOTES:
     dance-single:
     Renard:
     Medium:
     4:
     0.307,0.295,0.000,0.169,0.000:
0000
0000
0000
0000
,
0000
0000
0000
0000
,
0000
0000
0000
0000
,
0000
0000
0000
0000
,
1000
0000
0001
0000
1000
0001
1000
0000
,
0001
0000
1000
0000
0001
0000
1000
0001
,
1000
0000
0001
0000
1000
0001
1000
0000
,
0001
1000
0001
0200
,
0310
0000
0000
0010
0010
0000
0000
0000
,
0100
0000
0000
0100
0100
0000
0100
0000
,
0001
0000
0000
0001
0001
0000
0000
0000
,
1000
0000
0000
1000
1000
0000
1000
0000
,
0100
1000
0100
1000
,
0001
0010
0001
0010
,
0001
0100
0001
0100
,
0010
0000
1000
0000
0010
1000
0010
0000
,
2000
0000
0000
3002
0000
0000
0203
0000
,
0000
0320
0000
0000
0000
0000
0000
0000
,
0230
0000
0000
0302
0000
0000
2003
0000
,
0000
0000
0000
0000
,
3020
0000
0000
0230
0000
0000
0302
0000
,
0000
2003
0000
0000
0000
0000
0000
0000
,
3002
0000
0000
0203
0000
0000
0320
0000
,
0000
0000
0000
0130
,
0100
0000
0001
0100
0001
0000
0100
0000
,
0010
0000
1000
0010
1000
0000
0010
0000
,
1000
0000
0100
1000
0100
0000
1000
0000
,
0001
0000
0010
0001
0000
1000
0001
0000
,
0100
0000
0001
0000
1000
0000
0100
1000
,
0100
0000
1000
0000
0001
0010
0001
0000
,
1000
0000
0010
0000
0100
0001
0100
0000
,
0010
0000
1000
0000
0001
0100
0001
0000
,
1000
0000
0100
1000
0000
0100
1000
0000
,
0100
1000
0000
0000
0100
0000
1000
0000
,
0001
0000
0010
0001
0000
0010
0001
0000
,
0010
0100
1000
0100
,
1000
0000
0001
1000
0000
0001
1000
0000
,
0001
1000
0000
0000
0001
0000
1000
0000
,
0010
0000
0100
0010
0000
0100
0010
0000
,
0100
0001
1000
0100
,
0010
0000
0001
0010
,
0100
0000
1000
0000
0001
0100
0001
0000
,
0100
0010
1000
0010
,
1000
0000
0100
0000
0010
0001
0010
0000
,
0100
1000
0100
1000
,
0001
0000
0010
0000
0001
1000
0001
0000
,
0100
0010
0100
0010
,
1000
0000
0010
0000
1000
0001
1000
0000
;

//---------------dance-single - Renard----------------
#NOTES:
     dance-single:
     Renard:
     Easy:
     2:
     0.214,0.241,0.000,0.236,0.000: // measure 1
0000
0000
0000
0000
,  // measure 2
0000
0000
0000
0000
,  // measure 3
0000
0000
0000
0000
,  // measure 4
0000
0000
0000
0000
,  // measure 5
1000
0001
1000
0000
,  // measure 6
0001
1000
0001
0200
,  // measure 7
0301
0000
1000
0001
,  // measure 8
1000
1000
1000
1000
,  // measure 9
0002
0000
0203
0000
,  // measure 10
0320
0000
1030
1000
,  // measure 11
2000
0000
3200
0000
,  // measure 12
0320
0000
0031
0001
,  // measure 13
0020
0000
0230
0000
,  // measure 14
2300
0000
3020
0000
,  // measure 15
0230
0000
0302
0000
,  // measure 16
0013
0010
0010
0010
,  // measure 17
0002
0000
0000
2003
,  // measure 18
0000
0000
0000
0000
,  // measure 19
3020
0000
0000
0230
,  // measure 20
0000
0000
0000
0000
,  // measure 21
0302
0000
0000
2003
,  // measure 22
0000
0000
0000
0000
,  // measure 23
3200
0000
0000
0320
,  // measure 24
0000
0000
0000
0000
,  // measure 25
0031
0010
0001
0010
,  // measure 26
0001
0010
0001
0000
,  // measure 27
1000
0100
1000
0100
,  // measure 28
1000
0100
1000
0000
,  // measure 29
0001
0100
0001
0100
,  // measure 30
0001
0100
0001
0000
,  // measure 31
1000
0010
1000
0010
,  // measure 32
1000
0010
1000
0001
,  // measure 33
1000
0000
1000
0001
,  // measure 34
0100
0000
0100
0000
,  // measure 35
0010
0000
0010
1000
,  // measure 36
0100
0000
0100
0000
,  // measure 37
1000
0000
1000
0001
,  // measure 38
0010
0000
0010
0000
,  // measure 39
0001
0000
0001
1000
,  // measure 40
0010
0000
0010
0000
,  // measure 41
0100
0000
0100
0000
,  // measure 42
0100
0000
0001
0001
,  // measure 43
1000
0000
1000
0000
,  // measure 44
0100
0000
1000
1000
,  // measure 45
0010
0000
0010
0000
,  // measure 46
0010
0000
0100
0100
,  // measure 47
0001
0000
0001
0000
,  // measure 48
1000
0100
0010
0001
;
