#TITLE:Rock'n Music;
#SUBTITLE:;
#ARTIST:M1;
#TITLETRANSLIT:;
#SUBTITLETRANSLIT:;
#ARTISTTRANSLIT:;
#CREDIT:;
#BANNER:music.png;
#BACKGROUND:music-bg.png;
#LYRICSPATH:;
#CDTITLE:;
#MUSIC:music.ogg;
#OFFSET:0.000;
#SAMPLESTART:58.773;
#SAMPLELENGTH:12.000;
#SELECTABLE:YES;
#BPMS:0.000=130.629,157.000=65.320,164.500=130.639;
#STOPS:124.000=1.378
,164.500=0.230
;
#BGCHANGES:;

//---------------dance-single - Renard----------------
#NOTES:
     dance-single:
     Renard:
     Challenge:
     10:
     0.678,0.699,0.299,0.009,0.598:
0000
0000
0000
0000
,
0000
0000
0000
0000
,
0001
0000
1000
0100
1000
0000
0001
0010
0000
0001
0000
1000
0000
0010
0100
0000
,
0010
0000
0100
0001
0100
0000
0010
1000
0010
0000
0000
0000
0000
0000
0000
0000
,
0001
0000
1000
0100
1000
0000
0001
0010
0000
0001
0000
1000
0000
0001
0100
0000
,
0001
0000
0100
0010
0100
0000
0010
1000
0000
0100
0000
1000
0000
0001
1000
0000
,
0001
0000
0100
0001
0100
0000
0010
1000
0000
0010
0000
1000
0000
0100
1000
0000
,
0001
0000
0010
0001
0010
0000
0001
1000
0000
0001
0000
0100
0001
0100
0001
0000
,
0100
0000
0110
0010
1000
0100
1100
0000
,
1001
0000
0001
0100
0110
0000
0010
0000
,
1000
1000
0010
0000
0100
0001
0001
0010
,
0100
0100
1000
0000
0010
0000
0100
0000
,
0101
0000
0110
0010
0010
1000
0001
0000
,
0101
0000
0001
1000
0100
0000
1100
0000
,
1001
1010
0000
0000
0000
1000
0010
0100
,
0101
1001
0000
0000
0101
M01M
1001
0000
,
0001
0000
0100
0000
0101
0000
0100
0010
1000
0000
0010
0000
1010
0000
1000
0100
,
0010
0000
0001
0000
0011
0000
0010
0100
1000
0000
0001
0000
1001
0000
0001
0100
,
0010
0000
1000
0000
1010
0000
1000
0100
0010
0000
0001
0000
0011
0000
0010
0100
,
1000
0000
0001
0000
0100
0000
0010
1000
0001
0000
M01M
0000
1001
0000
0000
0000
,
1000
0000
0010
0000
1010
0000
0010
0100
0001
0000
0100
0000
0101
0000
0001
0010
,
0100
0000
1000
0000
1100
0000
0100
0010
0001
0000
1000
0000
1001
0000
1000
0010
,
0100
0000
0001
0000
0101
0000
0001
0010
0100
0000
1000
0000
1100
0000
0100
0010
,
0001
0000
1000
0000
0010
0000
0100
0001
1000
0000
M10M
0000
1001
0000
0000
0000
,
1000
M001
100M
M001
100M
M001
100M
M001
,
100M
M001
100M
M001
100M
M001
100M
M001
,
100M
M001
100M
M001
100M
M001
100M
M001
,
100M
M001
100M
M001
100M
M001
100M
M001
,
01M0
0M10
01M0
0M10
01M0
0M10
01M0
0M10
,
01M0
0M10
01M0
0M10
01M0
0M10
01M0
0M10
,
01M0
0M10
01M0
0M10
01M0
0M10
01M0
0M10
,
M00M
0M00
00M0
M00M
1001
0000
0001
0100
0001
0000
0100
0010
0000
1000
0000
0100
,
0000
0010
0001
0000
0010
0000
0100
1000
0100
0000
1000
0010
0000
0100
0000
0001
,
0000
0100
0001
0000
0100
0000
0001
1000
0001
0000
1000
0100
0000
1000
0000
0001
,
0000
0010
0001
0000
0010
0000
0001
1000
0001
0000
1000
0010
0100
0001
0000
0100
,
0000
0010
1000
0000
1001
0000
1000
0010
1000
0000
0010
0100
0000
0001
0000
0010
,
0000
0100
1000
0000
0100
0000
0010
0001
0010
0000
0001
0100
0000
0010
0000
1000
,
0000
0010
1000
0000
0010
0000
1000
0001
1000
0000
0001
0010
0000
0001
0000
1000
,
0000
0100
1000
0000
0100
0000
1000
0001
1000
0000
0001
0100
0010
1000
0000
0010
,
0000
0100
0001
0000
1MMM
M1MM
MM1M
MMM1
MM1M
M1MM
1MMM
MM1M
M1MM
MMM1
M1MM
MM1M
,
1MMM
M1MM
1MMM
MMM1
MM1M
MMM1
MM1M
M1MM
1MMM
MM1M
M1MM
MMM1
1MMM
M1MM
1MMM
M1MM
,
MM1M
MMM2
MMM0
MMM3
1000
0000
0001
0100
0001
0000
0100
0010
0000
1000
0000
0100
,
0000
0010
0001
0000
0010
0000
0100
1000
0100
0000
1000
0010
0000
0100
0000
0001
,
0000
0100
0001
0000
0100
0000
0001
1000
0001
0000
1000
0100
0000
0010
0000
0001
,
0000
0010
0100
0000
1000
0000
0001
0100
0010
0000
1000
0100
0000
0010
0000
0001
,
0000
0010
0100
0000
1000
0000
0001
1000
0001
0000
0100
0010
0000
1000
0010
0000
,
1010
0000
1000
0000
0100
0000
0010
0001
0010
0000
0001
0010
0000
0100
1000
0000
,
1100
0000
1000
0000
0010
0000
0100
0001
0100
0000
0010
1000
0000
0001
1000
0000
,
1100
0000
1000
0000
0001
0000
0010
0001
0010
0000
0001
1000
0000
0010
0000
0100
,
0001
0001
1000
1000
M001
M001
100M
100M
,
M001
M001
100M
M001
100M
M001
100M
M001
,
100M
M001
100M
100M
M001
M001
100M
100M
,
M001
M001
100M
100M
M001
M001
100M
M001
,
100M
M001
01M0
01M0
0M10
0M10
01M0
0M10
,
01M0
0M10
0M10
01M0
01M0
0M10
0M10
01M0
,
01M0
0M10
01M0
0M10
01M0
01M0
0M10
01M0
,
0M10
01M0
0M10
0M10
01M0
0M10
01M0
01M0
,
0M10
01M0
0000
0000
0000
0000
0000
0000
;

//---------------dance-single - Renard----------------
#NOTES:
     dance-single:
     Renard:
     Hard:
     8:
     0.542,0.569,0.308,0.000,0.254:
0000
0000
0000
0000
,
0000
0000
0000
0000
,
0000
0000
0000
0000
,
0000
0000
0000
0000
,
1000
0000
0100
0000
0010
0000
0001
0010
0000
0100
0000
1000
0000
0001
0100
0000
,
0010
0000
1000
0000
0100
0000
0010
0001
0000
1000
0000
0001
0000
0010
0100
0000
,
1000
0000
0010
0000
0100
0000
0001
1000
0000
0100
0000
1000
0000
0001
0010
0000
,
0001
0000
1000
0000
0010
0000
0100
0001
0000
0100
0000
0010
0000
1000
0100
0000
,
1000
0000
0100
0100
0010
0010
0001
0000
,
1000
0000
1000
0001
0100
0000
0000
0000
,
0110
0110
0000
0000
0000
0010
0100
0010
,
1001
1001
0000
0000
0000
0000
0000
0000
,
0000
0000
0001
0001
0010
0010
0100
0000
,
1000
0000
1000
0010
0100
0000
0000
0000
,
1001
1001
0000
0000
0000
1000
0001
1000
,
0110
0110
0000
0000
0000
0000
1001
0000
,
1000
0100
0010
0001
1000
0010
0110
0000
,
0101
0000
0001
1000
1001
0000
1100
0000
,
1000
0100
0010
0000
0010
0001
1000
0010
,
0110
0110
0000
0100
0001
0010
0001
0000
,
0110
0000
0100
1000
0010
0100
0101
0000
,
0110
0000
0010
1000
1010
0000
1100
0000
,
1000
0100
0110
0000
0010
0001
1000
0010
,
0100
0001
0101
0000
0001
0100
0010
1000
,
0001
0001
0001
0001
0001
0001
0001
0001
,
0001
0001
0001
0001
0001
0001
0001
0001
,
0001
0001
0001
0001
0001
0001
0001
0001
,
0001
0001
0001
0001
0001
0001
0100
0010
,
1000
1000
1000
1000
1000
1000
1000
1000
,
1000
1000
1000
1000
1000
1000
1000
1000
,
1000
1000
1000
1000
1000
1000
1000
1000
,
0000
0000
0000
0000
0001
0000
0100
0000
0010
0000
1000
0100
0000
0010
0000
0001
,
0000
0010
0100
0000
1000
0000
0001
0000
0010
0000
0100
1000
0000
0100
0000
0010
,
0000
0001
1000
0000
0010
0000
0100
0000
0001
0000
0100
0010
0000
1000
0000
0010
,
0000
0100
0001
0000
1000
0000
0100
0000
0010
0000
0001
0010
0000
0100
0000
1000
,
0000
0100
0010
0000
0001
0000
1000
0000
0010
0000
0100
0001
0000
1000
0000
0100
,
0000
1000
0001
0000
0010
0000
0001
0000
1000
0000
0010
0100
0000
0001
0000
1000
,
0000
0001
0010
0000
0100
0000
1000
0000
0010
0000
0100
0001
0000
0100
0000
0010
,
0000
1000
0010
0000
1000
0000
0100
0000
0010
0000
0001
0010
0000
0100
0000
1000
,
0000
0001
0100
0000
0010
0000
1000
0100
0010
0001
0010
0000
0110
0000
0100
1000
,
0010
0000
0110
0000
0100
0001
0000
0000
0000
0010
0100
1000
0010
0100
0001
0000
,
1000
0100
1100
0000
1000
0000
0100
0000
0010
0000
0001
0000
0010
0000
0100
0000
,
1000
0000
1100
0000
0100
0010
0110
0000
,
0011
0000
0001
0010
0110
0000
0100
1000
,
0010
0100
0001
0010
0011
0000
0010
0100
,
1000
0010
0100
0001
1000
0100
0010
0100
,
0110
0000
0100
0000
0100
1000
0001
0000
,
0101
0000
0001
0100
1010
0000
0100
0001
,
0010
0100
1000
0100
0011
0000
0010
0100
,
1000
0000
0010
0010
0100
0100
0010
0010
,
0100
0100
0010
0010
0100
0100
0010
0010
,
0100
0100
0010
0010
0100
0100
0010
0010
,
0100
0100
0010
0010
0100
0100
0010
0010
,
0100
0010
1000
1000
0001
0001
1000
1000
,
0001
0001
1000
1000
0001
0001
1000
1000
,
0001
0001
1000
1000
0001
0001
1000
1000
,
0001
0001
1000
1000
0001
0001
1000
1000
,
0010
0100
0000
0000
0000
0000
0000
0000
;

//---------------dance-single - Renard----------------
#NOTES:
     dance-single:
     Renard:
     Medium:
     5:
     0.321,0.543,0.154,0.100,0.000:
0000
0000
0000
0000
,
0000
0000
0000
0000
,
0000
0000
0000
0000
,
0000
0000
0000
0000
,
1000
0000
0001
0000
0100
0010
0100
0000
,
0001
0000
1000
0000
0100
0010
0100
0000
,
1000
0000
0001
0000
0100
0010
0100
0000
,
0001
0000
1000
0000
0100
0010
0100
0000
,
1000
0000
0001
1000
0001
1000
0001
0000
,
1000
0000
0001
1000
0001
0000
0000
0000
,
0100
0100
0000
0000
0000
0000
0000
0000
,
0010
0010
0000
0000
0000
0000
0000
0000
,
0000
0000
0100
0010
0100
0010
0100
0000
,
0010
0000
0100
0010
0100
0000
0000
0000
,
0001
0001
0000
0000
0000
0000
0000
0000
,
1000
1000
0000
0000
0001
0000
1001
0000
,
0000
0000
1000
0000
0100
1000
0100
0000
,
1000
0001
0010
0000
,
0001
1000
0000
0000
0000
0000
0010
0000
,
0100
0010
0000
0000
0100
0000
0001
0000
,
1000
0000
0100
1000
0100
0000
1000
0000
,
0001
0000
0010
0001
0010
0000
0000
0000
,
0001
1000
0000
0000
0000
0000
0001
0000
,
0100
0010
0000
0000
0000
0000
1000
0010
,
1000
1000
1000
1000
,
1000
1000
1000
1000
,
1000
1000
1000
1000
,
1000
0000
1000
0000
1000
0000
1000
1000
,
0001
0001
0001
0001
,
0001
0001
0001
0001
,
0001
0001
0001
0001
,
0001
1000
1100
1000
,
1100
0010
0011
0010
,
0011
0001
0101
0001
,
0101
0010
1010
0010
,
1010
1000
1100
1000
,
1100
0010
0011
0010
,
0011
0001
0101
0001
,
0101
0010
1010
0010
,
1010
0000
2000
3200
0320
0032
0023
0230
,
2300
0000
3002
0000
0000
0023
0230
0000
,
2300
3010
1000
0000
0010
0100
0010
0100
,
0010
0100
0001
1000
,
0000
0000
0001
0010
0000
0000
0000
0000
,
0100
1000
0100
1000
0000
0000
0001
0000
,
0010
0001
1000
0010
,
0100
0000
0001
0000
1000
0100
1000
0000
,
0000
0000
0001
0010
0000
0000
0000
0000
,
0100
1000
0100
1000
0000
0000
0000
0000
,
0001
0010
0001
0000
0001
0000
0001
0000
,
0001
0001
0001
0001
,
0001
0001
0001
0001
,
0001
0001
0001
0001
,
0001
0001
1000
0000
1000
0000
1000
0000
,
1000
1000
1000
1000
,
1000
1000
1000
1000
,
1000
1000
1000
1000
,
1000
1000
0000
0000
0000
0000
0000
0000
;

//---------------dance-single - Renard----------------
#NOTES:
     dance-single:
     Renard:
     Easy:
     2:
     0.226,0.258,0.000,0.118,0.000: // measure 1
0000
0000
0000
0000
,  // measure 2
0000
0000
0000
0000
,  // measure 3
0000
0000
0000
0000
,  // measure 4
0000
0000
0000
0000
,  // measure 5
1000
0000
0001
0000
,  // measure 6
0100
0010
0100
0000
,  // measure 7
0001
0000
1000
0000
,  // measure 8
0010
0100
0010
0000
,  // measure 9
2000
0000
3002
0000
,  // measure 10
0103
0100
0200
0000
,  // measure 11
0320
0000
0000
0000
,  // measure 12
0230
0000
0000
0000
,  // measure 13
0302
0000
2003
0000
,  // measure 14
3100
0100
0200
0000
,  // measure 15
0310
0000
0010
0000
,  // measure 16
0002
0000
1000
1003
,  // measure 17
1000
0001
1000
0001
,  // measure 18
0100
0000
0100
0000
,  // measure 19
0001
0000
0000
1000
,  // measure 20
0100
0000
1000
0000
,  // measure 21
0000
0001
0010
0001
,  // measure 22
1000
0000
1000
0000
,  // measure 23
0100
0000
0000
1000
,  // measure 24
0001
0000
0000
0100
,  // measure 25
0010
0010
0010
0010
,  // measure 26
0010
0010
0010
0010
,  // measure 27
0010
0010
0010
0010
,  // measure 28
0010
0010
0010
0010
,  // measure 29
0100
0100
0100
0100
,  // measure 30
0100
0100
0100
0100
,  // measure 31
0100
0100
0100
0100
,  // measure 32
0000
0010
0010
0100
,  // measure 33
0010
0100
0100
0010
,  // measure 34
0000
1000
1000
0001
,  // measure 35
1000
0001
0001
1000
,  // measure 36
0000
0001
0000
0010
,  // measure 37
0001
1000
0000
0100
,  // measure 38
1000
0001
0000
0100
,  // measure 39
0001
1000
0010
1000
,  // measure 40
0001
1000
0002
0103
,  // measure 41
0020
2030
0000
3200
,  // measure 42
0000
0310
0010
0001
,  // measure 43
0000
0010
0100
1000
,  // measure 44
0000
0010
0000
0100
,  // measure 45
0001
0100
0000
0010
,  // measure 46
1000
0001
0000
0100
,  // measure 47
0001
1000
0000
0001
,  // measure 48
0000
0010
0000
0100
,  // measure 49
1000
0001
0000
0100
,  // measure 50
0001
1000
1000
1000
,  // measure 51
1000
1000
1000
1000
,  // measure 52
1000
1000
1000
1000
,  // measure 53
1000
1000
1000
1000
,  // measure 54
1000
0001
0001
0001
,  // measure 55
0001
0001
0001
0001
,  // measure 56
0001
0001
0001
0001
,  // measure 57
0001
0001
0001
0001
,  // measure 58
0001
0000
0000
0000
;
