#TITLE:Rock Ya Hardcore (Hixxy Remix);
#SUBTITLE:;
#ARTIST:DJ Kurt;
#TITLETRANSLIT:;
#SUBTITLETRANSLIT:;
#ARTISTTRANSLIT:;
#CREDIT:;
#BANNER:rock.png;
#BACKGROUND:rock-bg.png;
#LYRICSPATH:;
#CDTITLE:;
#MUSIC:rock.ogg;
#OFFSET:0.000;
#SAMPLESTART:32.487;
#SAMPLELENGTH:12.000;
#SELECTABLE:YES;
#BPMS:0.000=177.300,96.000=176.700,128.000=176.500,156.000=177.700,204.000=176.600,236.000=177.700;
#STOPS:;
#BGCHANGES:;

//---------------dance-single - Renard----------------
#NOTES:
     dance-single:
     Renard:
     Hard:
     9:
     0.700,0.757,0.427,0.088,0.416:
0000
0000
0000
0000
,
0000
0000
0000
0000
,
0000
0000
0000
0000
,
0000
0000
0000
0000
,
2000
0000
3010
0100
0001
0010
0001
0000
,
0010
0100
1000
0001
0100
0000
0000
0000
,
0010
1000
0001
0100
0010
1000
0001
1000
,
0001
1000
0001
0000
1000
0001
1000
0000
0001
1000
0001
0000
1000
0001
1000
0000
,
0010
0100
0001
0000
0101
0000
0010
1000
,
0100
0010
0001
0000
0011
0000
0001
1000
,
0001
0100
0010
0000
0110
0000
0010
1000
,
0001
0100
0001
0100
0001
0100
0001
0100
,
0010
1000
0100
0010
0110
0000
0100
1000
,
0010
0100
0010
0000
0110
0000
0100
0000
,
0001
0010
0100
0010
0110
0000
0010
0001
,
0100
0001
0100
0010
0100
0010
1000
0010
,
1000
0000
0010
0000
1010
0000
0000
0100
0000
0000
0001
0000
0010
0000
0001
0000
,
0010
0000
0001
0000
0011
0000
0000
0001
0000
0000
0010
0000
0100
0000
1000
0000
,
0010
0000
1000
0000
1010
0000
0000
0010
0000
0000
0100
0000
0001
0000
1000
0000
,
0100
0000
0010
0000
0110
0000
0000
0100
0000
0000
1000
0000
0010
0000
0100
0000
,
0001
0000
0100
0000
0101
0000
0000
0100
0000
0000
0010
0000
1000
0000
0100
0000
,
0010
0000
0001
0000
0011
0000
0000
0001
0000
0000
0010
0000
0100
0000
1000
0000
,
0010
0100
0110
0010
1010
1000
1001
0001
,
0102
2000
0000
3013
,
0001
0000
0000
0001
1000
0000
0010
0000
0100
0000
0000
0000
0001
0000
0000
0000
,
1000
0000
0001
0100
0001
0000
1000
0000
0100
0000
0000
0000
0010
0000
0000
0000
,
0001
0000
1000
0010
0100
0001
1000
0100
,
1000
0001
1000
0010
0100
0001
1000
0100
,
0010
0000
0000
0010
0001
0000
1000
0000
0010
0000
0000
0000
0100
0000
0000
0000
,
0001
0000
1000
0001
1000
0000
0010
0000
0100
0000
0000
0000
0001
0000
0000
0000
,
0010
0000
0000
0010
0001
0000
1000
0000
0010
0000
0000
0010
0100
0000
0001
0000
,
0101
0110
1100
0110
,
0101
0000
0000
0010
0000
0010
1000
0000
0000
0100
0000
0000
,
0010
0000
0010
0001
0000
0001
1000
0000
0000
0101
0000
0000
,
0010
0000
1000
0100
0000
0000
1000
0000
0001
0100
0000
0000
,
0001
0000
0010
0001
0000
0000
1000
0000
0000
0001
0000
1000
,
0010
0000
0100
0001
0000
0001
0100
0000
0000
0110
0000
0000
,
0001
0000
1000
0100
0000
0010
0100
0000
0000
0110
0000
0000
,
0100
0000
1000
0010
0000
0000
0101
0000
0000
0110
0000
0000
,
1001
0000
0110
0000
1001
0000
0110
0000
1001
0000
0110
0000
,
2002
0000
0000
3003
,
1000
0000
1000
0001
0000
0001
0100
0010
1000
0001
0000
0001
,
0100
0000
0100
0001
0000
0001
1000
0100
1000
0100
0000
1000
,
0001
0000
0001
0100
0000
0100
0001
1000
0100
0010
0000
0010
,
0001
0000
0001
1000
0000
1000
0010
0000
0100
0001
0000
1000
,
0001
0000
0100
0010
0000
1000
0001
1000
0001
1000
0000
0010
,
0100
0000
0100
0001
0000
0001
1000
0100
1000
0001
0000
1000
,
0001
0000
0001
0010
0000
0010
0001
0000
0001
1000
0000
1000
,
0001
0000
0001
0100
0000
0100
0010
0000
1000
0001
0000
1000
,
0001
0000
0000
0000
,
2000
0000
0001
0001
3010
0000
0101
0000
,
0001
0000
0000
0001
1000
0000
0010
0000
0100
0000
0001
1000
0001
0000
0100
0000
,
0010
1000
0100
0010
0001
0000
0001
0000
,
1000
0000
0010
0100
0001
0000
0001
0100
,
0010
0000
0000
0000
0010
0000
1000
0000
0100
0000
0010
0001
0010
0000
0001
0000
,
1000
0000
1000
0010
0100
0000
0001
0000
,
0100
1000
0100
1000
0100
0000
0001
0000
,
0010
0001
0010
0000
1000
0010
1000
0000
,
2010
0000
3200
0000
0310
0001
0010
1000
,
0010
0000
0000
0001
0100
0000
0000
0000
,
0010
0000
1000
0010
1000
0000
0010
0000
0100
0000
0000
0000
0000
0000
0000
0000
,
0001
0000
0000
1000
0100
0000
0010
0001
,
1000
0000
0010
0000
0100
0000
0000
0000
0001
0000
0100
0001
1000
0000
0001
0000
,
1000
0000
0000
0000
0000
0000
0100
0010
0001
0000
0000
0000
0000
0000
0000
0000
,
0001
1000
0001
0000
1000
0000
0010
0000
0100
0000
0000
0000
0001
0000
0000
0000
,
0000
1010
0000
1100
0000
0011
0000
0101
;

//---------------dance-single - Renard----------------
#NOTES:
     dance-single:
     Renard:
     Medium:
     6:
     0.483,0.613,0.361,0.022,0.022:
0000
0000
0000
0000
,
0000
0000
0000
0000
,
0000
0000
0000
0000
,
0000
0000
0000
0000
,
0001
0000
0001
0100
0010
0000
0010
0000
,
1000
0000
0100
1000
0100
0000
0000
0000
,
1000
1000
0010
0010
,
0100
0001
0100
0001
0100
0001
0100
0001
,
0100
0000
0100
0010
1000
0000
1000
0000
,
0100
1000
0100
1000
0100
0000
0000
0000
,
1000
0010
1000
0010
1000
0010
1000
0010
,
1000
0001
1000
0001
1000
0001
1000
0001
,
1000
0000
0001
0100
0010
0000
1000
0000
,
0100
0010
0100
0010
0100
0000
0010
0000
,
0001
1000
0001
1000
0001
1000
0001
0001
,
0100
0100
0100
0100
,
0100
0010
1000
0010
1000
0000
0010
0000
,
0100
0100
0001
0010
,
0100
1000
0010
0100
,
0001
0100
0001
0100
0010
0000
0010
0000
,
1000
0010
0000
0100
0001
0000
0100
0000
,
0010
1000
0100
0010
,
0001
1000
0001
1000
0001
1000
0001
1000
,
0001
0001
0000
0100
,
0100
0000
0010
1000
0010
0000
1000
0000
,
0010
0100
0001
0100
0001
0000
1000
0000
,
0001
0001
0100
0100
,
0010
1000
0100
0001
,
0010
0010
0001
0100
,
1000
0010
1000
0010
,
0100
0000
0001
1000
0000
0001
0000
1000
,
0000
0000
0000
0000
,
1010
1100
0011
0101
,
0001
1000
0001
1000
,
0100
0011
0100
1010
,
0100
1001
0000
1010
,
0101
0011
1010
1001
,
0101
1001
1010
0000
,
1001
0100
1010
0100
,
0001
0000
0001
0000
0001
0000
1000
0000
1000
0000
1000
0000
,
0101
0000
0000
0000
,
0100
0010
1000
1010
,
0100
0001
0010
0011
,
0001
1000
0010
0110
,
0110
0100
0101
0001
,
1001
1000
1010
0010
,
0110
0100
0101
0001
,
0100
0011
0100
1010
,
1001
1000
1001
0001
,
2002
0000
0000
0000
,
0000
0000
0000
3003
,
1000
0000
1000
0001
0100
0000
0100
0000
,
0001
1000
0001
1000
0001
0000
1000
0000
,
0010
0100
0001
1000
,
0001
0010
0100
1000
,
0001
0000
1000
0001
1000
0000
0001
0000
,
0100
0001
0100
0001
0100
0000
0010
0000
,
1000
0001
1000
0001
,
1000
1000
0001
0001
,
1000
0000
0000
1000
0010
0000
0000
0000
,
0100
0000
0001
0010
0001
0000
0000
0000
,
0010
0000
0010
0100
1000
0000
1000
0010
,
0100
0001
0100
0000
,
0001
0000
0000
1000
0001
0000
0000
0000
,
0100
0000
0001
1000
0001
0000
0000
0000
,
1000
0100
0000
0010
0000
0001
0000
1001
;

//---------------dance-single - Renard----------------
#NOTES:
     dance-single:
     Renard:
     Easy:
     2:
     0.306,0.324,0.044,0.044,0.000: // measure 1
0000
0000
0000
0000
,  // measure 2
0000
0000
0000
0000
,  // measure 3
0000
0000
0000
0000
,  // measure 4
0000
0000
0000
0000
,  // measure 5
0000
0000
0000
0000
,  // measure 6
0000
0000
0000
0000
,  // measure 7
0000
0000
0000
0000
,  // measure 8
0000
0000
0000
0000
,  // measure 9
1000
0001
0100
0100
,  // measure 10
0001
1000
0200
0000
,  // measure 11
1300
0001
0010
0100
,  // measure 12
2000
0000
0000
0000
,  // measure 13
3001
0010
0001
1000
,  // measure 14
0010
0100
0002
0003
,  // measure 15
0010
0010
0100
0100
,  // measure 16
1000
1000
0001
0001
,  // measure 17
0100
0110
0000
0010
,  // measure 18
1000
0100
0000
0010
,  // measure 19
0001
0011
0000
0010
,  // measure 20
0100
0100
0100
0100
,  // measure 21
0000
1000
0001
0100
,  // measure 22
0000
0001
0000
1000
,  // measure 23
0100
0100
0100
0100
,  // measure 24
0100
0010
0001
1000
,  // measure 25
0001
0001
0100
0100
,  // measure 26
0010
0100
0010
0000
,  // measure 27
1000
0000
0100
0000
,  // measure 28
0010
0001
0010
0000
,  // measure 29
0001
0001
0010
0010
,  // measure 30
0100
1000
0100
0000
,  // measure 31
1000
0000
0010
0100
,  // measure 32
0001
1000
0001
1000
,  // measure 33
0010
0010
0010
0010
,  // measure 34
0100
0100
0100
0000
,  // measure 35
0010
0100
0010
0100
,  // measure 36
0010
0100
0010
0000
,  // measure 37
1000
1000
1000
1000
,  // measure 38
0001
0001
0001
0000
,  // measure 39
1000
0001
1000
0001
,  // measure 40
0110
0000
0000
0000
,  // measure 41
1001
0000
0000
0000
,  // measure 42
1000
1000
0001
0001
,  // measure 43
1000
1000
0001
0001
,  // measure 44
1000
0001
1000
0001
,  // measure 45
1000
0100
0010
0001
,  // measure 46
1000
1000
0001
0001
,  // measure 47
1000
1000
0001
0001
,  // measure 48
1000
0001
1000
0001
,  // measure 49
1000
0100
0010
0001
,  // measure 50
2000
0000
0000
0000
,  // measure 51
3001
0000
0000
0000
,  // measure 52
1000
0001
1000
0001
,  // measure 53
0100
0100
0100
0000
,  // measure 54
0001
0010
0001
0010
,  // measure 55
0001
0001
0001
0000
,  // measure 56
1000
0100
1000
1000
,  // measure 57
0001
0010
0100
0000
,  // measure 58
0010
0001
1000
0001
,  // measure 59
0100
0010
0100
0010
,  // measure 60
1000
0000
0001
0000
,  // measure 61
0100
0010
0100
0000
,  // measure 62
0001
0000
1000
0000
,  // measure 63
0100
0010
0001
0000
,  // measure 64
1000
0000
0001
0000
,  // measure 65
1000
0001
0100
0000
,  // measure 66
0000
0010
0000
1000
0000
0001
0000
0100
;
