#TITLE:Rock That Body (Nustyle Mix);
#SUBTITLE:;
#ARTIST:Plus System;
#TITLETRANSLIT:;
#SUBTITLETRANSLIT:;
#ARTISTTRANSLIT:;
#CREDIT:;
#BANNER:rock.png;
#BACKGROUND:rock-bg.png;
#LYRICSPATH:;
#CDTITLE:;
#MUSIC:rock.ogg;
#OFFSET:0.000;
#SAMPLESTART:76.647;
#SAMPLELENGTH:12.000;
#SELECTABLE:YES;
#BPMS:0.000=175.350;
#STOPS:;
#BGCHANGES:;

//---------------dance-single - Renard----------------
#NOTES:
     dance-single:
     Renard:
     Challenge:
     9:
     0.624,0.667,0.095,0.028,0.906:
0000
0000
0000
0000
,
0000
0000
0000
0000
,
0000
0000
0000
0000
,
0000
0000
0000
0000
0000
0000
1000
0000
1000
0001
0000
0001
,
0100
0100
0010
0010
,
1000
0000
0010
0100
0000
0001
0100
0000
0010
1000
0000
0001
,
0100
0100
0001
0001
,
1000
0000
0000
0110
0000
0000
0001
0000
0010
0001
0010
0001
,
0010
0000
0000
0100
0000
0000
1000
0000
0010
0000
0000
0100
,
0001
0000
0100
0000
0000
0010
1000
0000
0010
0000
0000
0000
,
0100
0000
0000
0001
0000
0000
1000
0000
0010
0000
0000
0100
,
0001
0000
0100
0000
0000
0010
1000
0000
0010
0100
0000
0001
,
0100
0000
0000
0010
0000
0000
1000
0000
0010
0000
0000
0100
,
0001
0000
0100
0000
0000
0010
1000
0000
0010
0100
0000
0001
,
1000
0000
0000
0100
0000
0000
0010
0000
0001
0000
0000
1000
,
0001
0000
1000
0010
0000
0100
0001
0000
0100
0010
0000
0000
,
1000
0000
1000
0010
0000
0010
0100
0000
0100
0000
0000
0001
,
0100
0000
0010
0000
0000
1000
0010
0000
0010
0000
0000
0000
,
1000
0000
0000
0010
0000
0100
0001
0000
0010
0000
0000
0100
,
1000
0000
0001
1000
0000
0010
0100
0000
0010
0100
0010
0100
,
0010
0000
0000
1000
0000
0000
0001
0000
0001
0000
0000
0100
,
0010
0000
1000
0000
0000
0100
0100
0000
0100
0000
0000
0000
,
0010
0000
0000
0001
0000
0000
0100
0000
0100
0000
0000
0010
,
1000
0000
0100
0000
0000
0010
0010
0000
0010
0010
0000
0010
,
0001
0000
0000
0100
0000
0001
0100
0000
0010
1000
0000
0001
,
0100
0000
0010
1000
0000
0001
0100
0000
0100
0010
0000
0010
,
1000
0100
0010
0001
,
0010
0100
1000
0010
0100
0001
0100
0000
0000
0010
0000
0000
,
1000
0000
0000
0010
0000
0000
0100
0000
0100
0001
0000
0001
,
0010
0000
0010
0100
0000
0100
1000
0000
1000
0010
0000
0010
,
0100
0001
0100
0010
,
1000
0000
1000
0100
0000
0100
0100
0000
0100
0100
0000
0000
,
0010
0000
0000
0001
0000
0000
1000
0000
1000
0001
0000
0000
,
0100
0000
0000
0010
0000
1000
0010
0000
0000
1010
0000
0000
,
0001
0000
0000
0100
0000
0000
0001
0000
1000
0100
0000
0010
,
0001
0000
0000
0010
0000
0100
1000
0000
0000
1001
0000
0000
,
0001
0000
0000
0010
0000
0000
0100
1000
0010
0100
0000
0001
,
0100
0000
0000
0010
0000
1000
0010
0000
0000
0100
0000
0000
,
0001
0000
0000
0100
0000
0000
0010
1000
0001
0100
0000
0010
,
1000
0000
0000
0010
0000
0100
0001
0000
0000
1000
0000
0100
,
0010
0000
0000
0001
0000
0000
0010
0100
1000
0001
0000
0010
,
0100
0000
0000
1000
0000
0010
0100
0000
0000
0001
0000
0000
,
0100
0000
0000
0010
0000
0000
1000
0001
0100
0010
0000
1000
,
0010
0000
0000
0100
0000
0001
1000
0000
0000
0010
0000
0000
,
0100
0000
0000
0001
0000
0000
1000
0100
0010
0001
0000
0010
,
0100
0000
0000
1000
0000
0010
0100
0000
0000
0001
0000
0000
,
0100
0000
0000
0010
0000
0000
1000
0001
0100
0010
0000
1000
,
0001
0000
0000
0100
0000
0010
1000
0000
0000
0001
0000
0000
,
0100
0010
0100
0010
,
0100
0010
0100
0010
0100
0010
0100
0010
0100
0010
0000
0000
,
1000
1000
0001
0001
,
1000
0001
1000
0001
1000
0001
1000
0001
1000
0001
0000
0000
,
0100
0010
1000
0001
,
1000
0010
0100
0001
1000
0010
0100
0001
1000
0010
0000
0000
,
0001
0100
0010
1000
,
0100
0010
0001
0010
0100
1000
0002
0000
0000
0000
0000
0000
,
1003
0000
0000
0010
0000
0000
0100
0001
0100
0010
1000
0001
,
0100
0000
0100
0010
0000
0010
1000
0000
1000
0100
0000
0100
,
0010
0000
0010
0001
0000
0001
0010
0100
1000
0001
0010
0100
,
1000
0000
1000
0010
0000
0010
0100
0000
0100
0001
0000
0001
,
0100
0000
0100
0010
0000
0010
1000
0010
0100
0001
1000
0010
,
0100
0000
0100
0001
0000
0001
0010
0000
0010
0100
0000
0100
,
0010
0000
0010
0001
0000
0001
1000
0010
0100
0001
1000
0010
,
1000
0000
1000
0001
0000
0001
0100
0000
0100
0001
0000
0000
,
1000
0000
0000
0100
0000
0000
0010
0001
0010
0100
1000
0001
,
0100
0000
0100
0010
0000
0010
1000
0000
0000
0010
0000
0000
,
0100
0000
0000
0001
0000
0000
0100
0010
1000
0001
0100
0010
,
1000
0000
1000
0010
0000
0010
0100
0000
0000
0101
0000
0000
,
1010
0000
0000
1100
0000
0000
0100
0010
0001
0010
0100
1000
,
0001
0000
0001
0100
0000
0100
0010
0000
0000
1001
0000
0000
,
1100
0000
0000
0011
0000
0000
0001
0010
0100
1000
0001
0100
,
0010
0000
0010
1000
0000
1000
0010
0000
0000
0101
0000
0020
,
2000
0000
0000
0000
,
0000
0000
0000
0000
,
3030
0000
0000
0000
;

//---------------dance-single - Renard----------------
#NOTES:
     dance-single:
     Renard:
     Hard:
     9:
     0.511,0.554,0.000,0.019,0.612:
0000
0000
0000
0000
,
0000
0000
0000
0000
,
0000
0000
0000
0000
,
0000
0000
0000
0000
,
1000
0001
1000
0001
,
0100
0000
0000
0010
0000
0000
1000
0000
1000
0001
0000
0001
,
1000
0100
0010
0001
,
1000
0000
1000
0001
0000
0001
0100
0000
0100
0010
0000
0010
,
1000
0000
0000
1000
0000
0000
0010
0000
0010
0000
0000
0000
,
0100
0000
0100
0000
0000
0001
0010
0000
0001
0000
0000
0000
,
0010
0000
0000
0010
0000
0000
0100
0000
0100
0000
0000
0000
,
1000
0000
0010
0000
0000
0100
0001
0000
0100
0000
0000
0000
,
0010
0000
0000
0010
0000
0000
1000
0000
1000
0000
0000
0001
,
0010
0000
0100
0000
0000
1000
0100
0000
1000
0000
0000
0000
,
0001
0000
0000
0001
0000
0000
0010
0000
0010
0000
0000
0100
,
1000
0000
0001
0000
0000
0000
0000
0000
0000
0000
0000
0000
,
1000
0000
0000
1000
0000
0000
0010
0000
0100
0000
0000
0001
,
1000
0000
0100
0000
0000
0010
0001
0000
1000
0000
0000
0000
,
0001
0000
0000
0010
0000
0000
0100
0000
1000
0000
0000
0001
,
0010
0000
0001
0000
1000
0010
1000
0000
0010
1000
0000
0010
,
1000
0000
0000
0001
0000
0000
0100
0000
0001
0000
0000
1000
,
0100
0000
1000
0000
0000
0001
0010
0000
0001
0000
0000
0000
,
1000
0000
0000
0010
0000
0000
0100
0000
0010
0000
0000
0100
,
0001
0000
1000
0000
0100
1000
0100
0000
1000
0100
0000
1000
,
0001
0010
0001
1000
,
0010
0000
0000
0100
0000
0000
0001
0000
0001
1000
0000
0000
,
0100
0010
0001
1000
,
0010
0000
0010
0100
0000
0100
0001
0000
0001
1000
0000
0000
,
0100
0010
0001
1000
,
0010
0000
0000
0100
0000
0100
0001
0000
0000
1000
0000
0000
,
0100
0100
0010
0010
,
0001
0000
1000
0001
0000
1000
0001
0000
1000
0001
0000
1000
,
0010
0000
0000
0000
,
0100
0000
0001
1000
,
0100
0000
0000
0100
0000
0000
1000
0100
0000
1000
0000
0001
,
0010
0000
0000
0001
0000
1000
0010
0000
0000
0100
0000
0001
,
1000
0000
0000
1000
0000
0000
0001
0100
0000
0010
0000
1000
,
0010
0000
0000
1000
0000
0100
1000
0000
0000
0001
0000
0010
,
0001
0000
0000
1000
0000
0000
0010
0100
0000
0001
0000
0100
,
0010
0000
0000
1000
0000
0010
1000
0000
0000
0100
0000
1000
,
0001
0000
0000
0010
0000
0000
0001
1000
0000
0001
0000
0100
,
0010
0000
0000
0100
0000
0010
1000
0000
0000
0010
0000
0000
,
0100
0000
0000
0001
0000
0000
1000
0100
0000
1000
0000
0001
,
0010
0000
0000
0001
0000
1000
0010
0000
0000
1000
0000
0000
,
0001
0000
0000
0001
0000
0000
0100
0010
0000
1000
0000
0010
,
1000
0000
0000
0001
0000
1000
0100
0000
0000
1000
0000
0001
,
0010
0000
0000
0001
0000
0000
1000
0010
0000
1000
0000
0001
,
0100
0000
0000
0001
0000
0010
0100
0000
0000
1000
0000
0001
,
0100
0100
0100
0100
,
0100
0000
0010
0100
0000
0010
0100
0000
0010
0100
0000
0000
,
0010
0010
0010
0010
,
1000
0000
0001
1000
0000
0001
1000
0000
0001
1000
0000
0000
,
0001
0001
0001
0001
,
0010
0000
0010
0100
0000
0100
1000
0000
1000
0001
0000
0001
,
0100
0000
0100
0010
0000
0010
1000
0000
1000
0001
0000
0001
,
0100
0000
0100
0010
0000
0010
0100
0000
0100
0010
0000
0000
,
1000
0000
0000
0010
0000
0000
0100
0001
0000
0100
0000
0010
,
1000
0000
0000
0100
0000
0010
0001
0000
0000
0010
0000
0100
,
1000
0000
0000
0001
0000
0000
0010
0001
0000
0010
0000
0100
,
1000
0000
0000
0001
0000
0100
0010
0000
0000
1000
0000
0010
,
0100
0000
0000
0001
0000
0000
0100
0010
0000
1000
0000
0010
,
1000
0000
0000
0100
0000
0010
0001
0000
0000
0010
0000
0100
,
1000
0000
0000
0001
0000
0000
0010
0100
0000
1000
0000
0010
,
0100
0000
0000
0001
0000
0100
0010
0000
0000
1000
0000
0000
,
0010
0000
0000
1000
0000
0000
0001
0010
0000
0100
0000
1000
,
0100
0000
0000
1000
0000
0001
0010
0000
0000
0001
0000
1000
,
0010
0000
0000
0100
0000
0000
0001
0100
0000
0010
0000
1000
,
0010
0000
0000
1000
0000
0100
1000
0000
0000
0001
0000
0010
,
0001
0000
0000
1000
0000
0000
0010
0100
0000
0001
0000
0100
,
0010
0000
0000
1000
0000
0100
1000
0000
0000
0001
0000
0010
,
0001
0000
0000
1000
0000
0000
0010
0100
0000
0001
0000
0010
,
0001
0000
0000
1000
0000
0100
1000
0000
0000
0001
0000
2000
,
0002
0000
0000
0000
,
3003
0000
0000
0000
;

//---------------dance-single - Renard----------------
#NOTES:
     dance-single:
     Renard:
     Medium:
     6:
     0.348,0.381,0.000,0.161,0.156:
0000
0000
0000
0000
,
0000
0000
0000
0000
,
0000
0000
0000
0000
,
0000
0000
0000
0000
,
1000
1000
0001
0001
,
0100
0000
0000
0100
0000
0000
0010
0000
0010
1000
0000
1000
,
0001
0001
0100
0100
,
0001
0000
0000
0001
0000
0000
1000
0000
1000
0100
0000
0000
,
1000
0000
0001
0000
,
0010
0000
0100
0000
,
1000
0000
0010
0000
,
0100
0000
0001
0000
,
1000
0000
0100
0000
,
0010
0000
0001
0000
,
1000
0001
1000
0000
,
0001
0000
0000
0000
,
0100
0000
0000
0100
0000
0000
0010
0000
0010
0000
0000
0000
,
1000
0000
1000
0000
0000
0000
0010
0000
0010
0000
0000
0000
,
0100
0000
0000
0100
0000
0000
0001
0000
0001
0000
0000
0000
,
0010
0000
0010
0000
0000
0000
0100
0000
0000
0100
0000
0000
,
1000
0000
0000
1000
0000
0000
0010
0000
0010
0000
0000
0000
,
0100
0000
0100
0000
0000
0000
0001
0000
0001
0000
0000
0000
,
1000
0000
0000
1000
0000
0000
0100
0000
0100
0000
0000
0000
,
0010
0000
0010
0000
0000
0000
0001
0000
0000
1000
0000
0000
,
0010
0000
0000
0010
0000
0000
0100
0000
0100
0000
0000
0000
,
0001
0000
0001
0000
0000
0000
1000
0000
1000
0000
0000
0000
,
0100
0000
0000
0100
0000
0000
0010
0000
0010
0000
0000
0000
,
0001
0000
0001
0000
0000
0000
1000
0000
0000
1000
0000
0000
,
0010
0000
0000
0010
0000
0000
1000
0000
1000
0000
0000
0000
,
0001
0000
0001
0000
0000
0000
1000
0000
1000
0000
0000
0000
,
0100
0000
0000
0010
0000
0000
0001
0000
0001
0000
0000
0000
,
1000
0000
1000
0000
0000
0000
0010
0000
0000
0100
0000
0000
,
0002
0000
0000
0000
0000
0003
2000
0000
0000
0000
0000
0000
,
3100
0100
0100
0100
,
0020
0000
0000
0000
0000
0030
0002
0000
0000
0000
0000
0000
,
1003
1000
0010
0010
,
0200
0000
0000
0000
0000
0300
0002
0000
0000
0000
0000
0000
,
1003
1000
0100
0100
,
0020
0000
0000
0000
0000
0030
0002
0000
0000
0000
0000
0000
,
1003
1000
0010
0010
,
0200
0000
0000
0000
0000
0300
0020
0000
0000
0000
0000
0000
,
1030
1000
0010
0010
,
0200
0000
0000
0000
0000
0300
0002
0000
0000
0000
0000
0000
,
0013
0010
0100
0100
,
2000
0000
0000
0000
0000
3000
0002
0000
0000
0000
0000
0000
,
0103
0100
0010
0010
,
2000
0000
0000
0000
0000
3000
0200
0000
0000
0000
0000
0000
,
0310
0000
0000
0010
0000
0001
1000
0000
0000
0001
0000
0000
,
0100
0100
0100
0100
,
0100
0100
0100
0100
,
0010
0010
0010
0010
,
0010
0010
0010
0010
,
1000
1000
1000
1000
,
0001
0001
0001
0001
,
1000
0100
0010
0001
,
1000
0000
0000
0001
0000
0000
1000
0000
1000
0001
0000
0000
,
0100
0000
0000
0010
0000
0000
1000
0010
0000
1000
0000
0000
,
0001
0100
0001
0000
,
0010
0000
0000
0100
0000
0000
1000
0001
0000
1000
0000
0000
,
0010
0100
0001
0000
,
1000
0000
0000
0100
0000
0000
0010
0001
0000
0010
0000
0000
,
0100
0000
1000
0000
,
0010
0000
0000
0100
0000
0000
0001
1000
0000
0001
0000
0000
,
1000
0000
0100
0000
,
0010
0000
0000
0010
0000
0000
0001
0010
0000
0000
0000
0000
,
0100
0000
1000
0000
,
0010
0000
0000
0010
0000
0000
0100
0001
0000
0000
0000
0000
,
0100
0000
0010
1000
,
0100
0000
0000
0100
0000
0000
0010
0001
0000
0000
0000
0000
,
0010
0000
0100
1000
,
0001
0000
0000
0001
0000
0000
0100
0010
0000
0000
0000
0000
,
1000
0010
1000
0001
,
0200
0000
0000
0000
,
0300
0000
0000
0000
;

//---------------dance-single - Renard----------------
#NOTES:
     dance-single:
     Renard:
     Easy:
     3:
     0.371,0.375,0.123,0.370,0.000: // measure 1
0000
0000
0000
0000
,  // measure 2
0000
0000
0000
0000
,  // measure 3
0000
0000
0000
0000
,  // measure 4
0000
0000
0000
0000
,  // measure 5
1000
1000
1000
1000
,  // measure 6
1000
1000
1000
1000
,  // measure 7
0001
0001
0001
0001
,  // measure 8
0001
0001
0100
0100
,  // measure 9
0020
0000
2030
0000
,  // measure 10
0100
3100
0200
0000
,  // measure 11
0320
0000
0032
0000
,  // measure 12
1000
1003
2000
0000
,  // measure 13
3020
0000
0230
0000
,  // measure 14
0001
0302
2003
0000
,  // measure 15
3200
0000
0320
0000
,  // measure 16
0032
0000
1003
0000
,  // measure 17
1000
0001
1001
0000
,  // measure 18
0110
0000
1001
0000
,  // measure 19
0001
1000
1001
0000
,  // measure 20
0110
0000
1001
0000
,  // measure 21
0001
0010
0011
0000
,  // measure 22
1100
0000
0011
0000
,  // measure 23
0001
0100
0101
0000
,  // measure 24
1010
0000
0101
0000
,  // measure 25
0001
0001
0001
0001
,  // measure 26
0001
0001
0001
0100
,  // measure 27
0010
0010
0010
0010
,  // measure 28
0010
0010
1000
0100
,  // measure 29
0010
0010
0010
0010
,  // measure 30
0010
0010
0001
0100
,  // measure 31
1000
1000
1000
1000
,  // measure 32
1000
0100
0010
1000
,  // measure 33
0002
0000
0000
0000
,  // measure 34
2003
0000
3200
0000
,  // measure 35
0320
0000
0000
0000
,  // measure 36
0032
0000
2003
0000
,  // measure 37
3020
0000
0000
0000
,  // measure 38
0230
0000
0302
0000
,  // measure 39
2003
0000
0000
0000
,  // measure 40
3200
0000
0320
0000
,  // measure 41
0031
0001
0001
0001
,  // measure 42
2000
3001
0002
1003
,  // measure 43
0010
0010
0010
0010
,  // measure 44
0200
0310
0020
0130
,  // measure 45
0001
0001
0001
0001
,  // measure 46
2000
3001
0200
0310
,  // measure 47
1000
1000
1000
1000
,  // measure 48
0200
0310
0002
1003
,  // measure 49
0020
0000
0100
0100
,  // measure 50
0100
0100
0100
0130
,  // measure 51
0200
0000
0010
0010
,  // measure 52
0010
0010
0010
0310
,  // measure 53
2000
0000
3002
0000
,  // measure 54
0103
0010
0100
0010
,  // measure 55
2000
0000
3002
0000
,  // measure 56
1003
0001
0100
0010
,  // measure 57
1000
1000
0010
1000
,  // measure 58
0010
0010
0100
0100
,  // measure 59
0001
0001
0100
0010
,  // measure 60
1000
1000
0100
0010
,  // measure 61
0001
0001
1000
0001
,  // measure 62
0100
0100
0010
0010
,  // measure 63
1000
1000
0010
1000
,  // measure 64
0001
1000
0001
0100
,  // measure 65
0010
0010
1000
0010
,  // measure 66
0100
0100
0001
0001
,  // measure 67
1000
1000
0100
0010
,  // measure 68
0001
0001
0010
0100
,  // measure 69
1000
1000
0010
0100
,  // measure 70
0001
0001
0100
0100
,  // measure 71
0010
0010
1000
0010
,  // measure 72
1000
1000
0001
0100
,  // measure 73
1001
0000
0000
0000
;
