#TITLE:Rock N Roll;
#SUBTITLE:;
#ARTIST:Marc Smith & Arkitech;
#TITLETRANSLIT:;
#SUBTITLETRANSLIT:;
#ARTISTTRANSLIT:;
#CREDIT:;
#BANNER:rock.png;
#BACKGROUND:rock-bg.png;
#LYRICSPATH:;
#CDTITLE:;
#MUSIC:rock.ogg;
#OFFSET:0.000;
#SAMPLESTART:10.939;
#SAMPLELENGTH:12.000;
#SELECTABLE:YES;
#BPMS:0.000=175.518;
#STOPS:;
#BGCHANGES:;

//---------------dance-single - Renard----------------
#NOTES:
     dance-single:
     Renard:
     Challenge:
     11:
     0.768,0.900,0.180,0.117,0.554:
0000
0000
0000
0000
,
0000
0000
0000
0000
,
0000
0000
0000
0000
,
0000
0000
0000
0000
,
1000
0000
0000
0000
0000
0000
0100
0000
0000
0000
0000
0000
0010
0000
0000
0000
0000
0000
0000
0000
0000
0001
0000
0000
0000
0000
0000
0010
0000
0000
0000
0000
0000
0000
0000
0000
0100
0000
0000
0000
0000
0000
1000
0000
0100
0000
1000
0000
,
0010
0010
0100
0100
0001
0001
1000
1000
,
0000
0000
0000
0000
,
0001
1000
0000
1001
0000
0000
0000
0000
,
0001
0000
0000
0000
0000
0000
0100
0000
0000
0000
0000
0000
0010
0000
0000
0000
0000
0000
0000
0000
0000
1000
0000
0000
0000
0000
0000
0010
0000
0000
0000
0000
0000
0000
0000
0000
0100
0000
0000
0000
0000
0000
0001
0000
0100
0000
0001
0000
,
1000
0000
0100
0000
0010
0000
0000
0001
0000
0010
0000
0000
0100
0000
0000
0000
,
1000
0000
0000
0000
0000
0000
0100
0000
0000
0000
0000
0000
0010
0000
0000
0000
0000
0000
0000
0000
0000
0001
0000
0000
0000
0000
0000
0010
0000
0000
0000
0000
0000
0000
0000
0000
0100
0000
0000
0000
0000
0000
1000
0000
0100
0000
1000
0000
,
0100
0000
1000
0000
0010
0000
0000
0100
0000
0001
0000
0000
0100
0000
0000
0000
,
0010
0000
0000
0000
0000
0000
1000
0000
0000
0000
0000
0000
0010
0000
0000
0000
0000
0000
0000
0000
0000
0100
0000
0000
0000
0000
0000
0001
0000
0000
0000
0000
0000
0000
0000
0000
1000
0000
0000
0000
0000
0000
0100
0000
1000
0000
0100
0000
,
1000
0000
0010
0000
0100
0000
0000
0001
0000
1000
0000
0000
0001
0000
0000
0000
,
1000
0000
0100
0000
0010
0000
0001
0010
0100
0000
1000
0000
0100
0000
0010
0001
,
0010
0000
0100
1000
0000
0001
0010
0000
0100
1000
0000
0001
0010
0000
0100
0000
,
1000
0000
0100
0000
1000
0000
0001
0010
0000
0001
1000
0000
0010
0000
0100
0000
,
0001
0000
0010
0000
0001
0000
1000
0010
0000
1000
0001
0000
1000
0000
0100
0000
,
1000
0000
0001
0000
0010
0000
0001
1000
0000
0010
0100
0000
0001
0000
0100
0000
,
0010
0000
1000
0000
0100
0000
0010
0100
0000
1000
0001
0000
0100
0000
0010
0000
,
1000
0000
0001
0000
1000
0000
0100
0010
0000
0001
0010
0000
0100
0000
1000
0000
,
0001
0000
0100
0000
0010
0000
1000
0010
0000
1000
0001
0000
1000
0000
0100
0000
,
0010
0000
0001
0000
0010
0000
0100
1000
0000
0001
0010
0000
0001
0000
1000
0000
,
0010
0000
0100
0000
0001
0000
0100
0010
0000
1000
0100
0000
0010
0000
0001
0000
,
2002
0000
0000
0000
,
0000
0000
0000
0000
0000
0000
0000
3003
,
0001
0000
0000
0001
0100
0000
0010
1000
,
0100
0000
0010
0000
0001
0010
0000
0100
,
1000
0000
0010
0000
0100
0000
0001
0100
,
0010
0000
1000
0000
0100
1000
0000
0001
,
0010
0000
0001
0000
1000
0000
0010
0100
,
0001
0000
0001
0000
1000
0100
0000
0010
,
0001
0000
0010
0000
0100
0000
1000
0010
,
0100
0000
0101
0000
0110
0000
0010
1000
,
0100
0000
0110
0000
0011
0000
0010
0100
,
1000
0001
0010
0000
0011
0000
0010
0100
,
1000
0000
0001
0000
0101
0000
0100
0010
,
1000
0000
0100
0010
0001
0010
0100
1000
,
0000
0000
0000
0000
,
0001
0100
1000
0100
0001
0010
0100
1000
,
0100
0000
0001
0000
0100
0000
0010
0000
0100
0000
1000
0100
1000
0000
0100
0000
,
1000
0001
0010
1000
0010
0100
0001
0100
,
1000
0000
0010
0000
0001
0000
0010
0000
1000
0000
0010
1000
0010
0000
1000
0000
,
0100
0010
0001
0010
1000
0010
0100
0001
,
0100
0000
1000
0000
0001
0000
0100
0000
1000
0000
0100
1000
0100
0000
0010
0000
,
0100
0001
1000
0100
0010
0100
0001
0100
,
0010
0000
0100
0000
1000
0000
0001
0000
0100
0000
0010
0100
0010
0000
0100
0000
,
0010
0000
1000
0000
0100
0000
0010
0001
0000
0010
0100
0000
1000
0000
0001
0000
,
0010
0100
1000
0010
0100
0001
0010
0100
,
1000
0000
0001
0000
0100
0000
0010
1000
0000
0010
1000
0000
0100
0000
1000
0000
,
0001
0000
0010
0000
0001
0000
0000
1000
0000
0010
0000
0000
0100
0000
0001
0000
,
0100
0000
0010
0000
1000
0000
0001
1000
0000
0100
1000
0000
0001
0000
0010
0000
,
0100
1000
0001
0100
0010
1000
0100
1000
,
0001
0000
0100
0000
0010
0000
1000
0010
1000
0000
0001
0000
0100
0000
0010
1000
,
0010
0000
0010
0100
0000
0100
0001
0000
,
0100
0000
0100
0000
0100
0000
0000
0010
0000
0010
0000
0000
0010
0000
0000
0000
,
1000
0000
0100
0000
0010
0000
0000
0001
0000
0010
0000
0000
0100
0000
0000
0000
,
1000
0000
1000
0000
1000
0000
0000
0100
0000
0100
0000
0000
0100
0000
0000
0000
,
0010
0000
0010
0000
0010
0000
0000
0001
0000
0001
0000
0000
0001
0000
0000
0000
,
0010
0000
0010
0000
0010
0000
0000
0100
0000
0100
0000
0000
0100
0000
0000
0000
,
1000
0000
1000
0000
1000
0000
0000
0010
0000
0010
0000
0000
0010
0000
0000
0000
,
0100
0100
0100
0000
0001
0001
0001
0000
,
1000
0000
0000
0100
0000
0000
0010
0000
0000
0001
0000
0000
0010
0000
0100
0000
,
1000
0000
0000
0000
0000
0000
0100
0000
0000
1000
0000
0000
0100
0000
0000
0000
0000
0000
0010
0000
0000
0001
0000
0000
0000
0000
0000
1000
0000
0000
0100
0000
0000
0000
0000
0000
0010
0000
0000
0000
0000
0000
0001
0000
1000
0000
0001
0000
,
1000
0000
0001
0000
0100
0000
0010
1000
0000
1000
0000
0000
1001
0000
0000
0000
,
0001
0000
0000
0000
0000
0000
0010
0000
0000
0001
0000
0000
0010
0000
0000
0000
0000
0000
0100
0000
0000
1000
0000
0000
0000
0000
0000
0001
0000
0000
0010
0000
0000
0000
0000
0000
0100
0000
0000
0000
0000
0000
1000
0000
0001
0000
1000
0000
,
0001
0000
1000
0000
0010
0000
0100
0001
0000
0001
0000
0000
1001
0000
0000
0000
,
1000
0000
0000
0000
0000
0000
0100
0000
0000
1000
0000
0000
0100
0000
0000
0000
0000
0000
0010
0000
0000
0001
0000
0000
0000
0000
0000
1000
0000
0000
0100
0000
0000
0000
0000
0000
0010
0000
0000
0000
0000
0000
0001
0000
1000
0000
0001
0000
,
1000
0000
0001
0000
0100
0000
0010
1000
0000
1000
0000
0000
1001
0000
0000
0000
,
0001
0000
0000
0000
0000
0000
0010
0000
0000
0001
0000
0000
0010
0000
0000
0000
0000
0000
0100
0000
0000
1000
0000
0000
0000
0000
0000
0001
0000
0000
0010
0000
0000
0000
0000
0000
0100
0000
0000
0000
0000
0000
1000
0000
0001
0000
1000
0000
,
0001
0000
1000
0001
0000
0100
0010
0000
1000
0001
0000
0000
0100
0000
0010
0000
,
1000
0010
1000
0000
0001
0100
0001
0000
1000
0100
1000
0000
0002
0000
0000
0000
,
0013
0100
0010
0000
0100
1000
0100
0000
0010
0001
0010
0000
0100
1000
0100
1000
,
0010
1000
0010
0000
0100
0001
0100
0000
0001
1000
0001
0000
0200
0000
0000
0000
,
0310
1000
0010
0000
0100
0001
0100
0000
0020
0000
0000
0000
2030
0000
0000
0000
,
3100
0010
0001
0000
1000
0100
0010
0000
0001
0010
0100
0000
2000
3000
2000
3000
,
0010
0100
0001
0000
0100
0010
1000
0000
0010
0100
0001
0000
1000
0000
1000
0000
,
0001
1000
0001
0000
0100
0010
0100
0000
0001
1000
0001
0000
0110
0000
0000
0000
,
0110
1001
0110
1001
0110
1001
0110
0000
,
2002
0000
0000
3000
2000
0000
0000
0003
0002
0000
0000
3000
2000
0000
0000
3003
;

//---------------dance-single - Renard----------------
#NOTES:
     dance-single:
     Renard:
     Hard:
     9:
     0.611,0.684,0.225,0.054,0.243:
0000
0000
0000
0000
,
0000
0000
0000
0000
,
0000
0000
0000
0000
,
0000
0000
0000
0000
,
0001
0000
0100
0000
0010
0000
0000
1000
0000
0100
0000
0000
0010
0000
0000
0000
,
0001
0010
0100
1000
0001
0010
0100
1000
,
0001
0001
0001
0001
,
1000
1000
0001
0001
,
0100
0000
0010
0000
1000
0000
0000
0010
0000
0100
0000
0000
0001
0000
0000
0000
,
0010
0000
0100
0000
1000
0000
0000
0001
0000
0010
0000
0000
0001
0000
0000
0000
,
1000
0000
0010
0000
0100
0000
0000
0001
0000
0100
0000
0000
0010
0000
0000
0000
,
1000
0000
0100
0000
1000
0000
0000
0001
0000
0010
0000
0000
0001
0000
0000
0000
,
1000
0000
0010
0000
0100
0000
0000
0001
0000
0100
0000
0000
0010
0000
0000
0000
,
1000
0000
0100
0000
1000
0000
0000
0001
0000
0010
0000
0000
0001
0000
0000
0000
,
1000
0000
0001
0000
0100
0000
0000
0010
0000
1000
0000
0000
0100
0000
1000
0000
,
0001
0000
0000
0010
0000
0000
0001
0000
0000
1000
0000
0000
0010
0000
1000
0000
,
0001
0000
0000
0000
0100
0000
0000
0010
0000
0000
1000
0000
0100
0000
0010
0000
,
0001
0000
0000
0000
0010
0000
0000
0100
0000
0000
1000
0000
0001
0000
0100
0000
,
0010
0000
0000
0000
1000
0000
0100
0000
0000
0010
0000
0000
0001
0000
0010
0000
,
0100
0000
0000
0000
1000
0000
0000
0001
0000
0000
0100
0000
0010
0000
1000
0000
,
0010
0000
0100
0000
0001
0000
0010
0100
0000
1000
0001
0000
0010
0000
0100
0000
,
1000
0001
0100
0010
1000
0100
0010
0001
,
0010
0000
0100
0000
1000
0000
0001
0010
0000
0001
1000
0000
0010
0000
0100
0000
,
0001
0000
0100
0000
0010
0000
1000
0100
0000
1000
0001
0000
1000
0000
0010
0000
,
1000
0000
0001
0000
,
0100
0000
0100
0000
0010
1000
0000
0000
,
0001
0000
0000
0001
0100
0000
0000
0100
,
0010
0000
1000
0000
0100
1000
0000
0001
,
0010
0000
0000
0010
0001
0000
0000
0010
,
0100
0000
1000
0000
0001
1000
0000
0010
,
0100
0000
0000
0000
0001
0000
0000
0010
,
0100
0000
1000
0000
0100
1000
0000
0001
,
0010
0000
0001
0000
0010
0000
0100
1000
,
0000
0001
1000
0000
1010
0000
1000
0001
,
0100
0000
0001
0000
1001
0000
1000
0010
,
0100
0001
1000
0000
1001
0000
1000
0100
,
0010
0000
0100
0000
0110
0000
0100
1000
,
0000
0010
0100
0000
0110
0000
0010
2000
,
0002
0000
0000
0000
0000
0000
0000
3003
,
0001
0000
0110
0000
1000
0100
1000
0000
,
0001
0000
0110
0000
1000
0010
0100
0000
,
0001
0000
0110
0000
1000
0100
1000
0000
,
0001
0011
0010
0110
,
0100
0000
1001
0000
0100
0010
1000
0000
,
0100
0000
1001
0000
1000
0100
0010
0000
,
0001
0000
0011
0000
0010
0100
0100
0000
,
1000
0010
0100
0001
1000
0001
1000
0000
,
0001
0000
0100
0000
0010
0000
0000
1000
0000
0100
0000
0000
0010
0000
0001
0000
,
0010
0100
1000
0001
0010
0100
1000
0000
,
0100
0000
1000
0000
0001
0000
0000
0010
0000
0001
0000
0000
1000
0000
0000
0000
,
0010
1000
0001
0100
0010
1000
0100
0000
,
1000
0000
0001
0000
0010
0000
0000
0100
0000
1000
0000
0000
0001
0000
0000
0000
,
0100
0010
1000
0100
0010
0001
0010
0000
,
0100
0000
1000
0000
0001
0000
0000
0100
0000
0010
0000
0000
1000
0000
0000
0000
,
0010
0000
0100
0001
0000
0100
0010
0000
,
1000
0000
0010
1000
0010
0000
0000
1000
0000
0010
0000
0000
0100
0000
0000
0000
,
0001
0100
0001
0000
0010
0000
0100
0000
,
1000
0000
0100
1000
0100
0000
0000
1000
0000
0001
0000
0000
1000
0000
0000
0000
,
0001
0100
0010
0000
1000
0000
0010
0000
,
1000
0000
0100
0000
1000
0000
0000
0001
0000
0010
0000
0000
0001
0000
0000
0000
,
1000
0010
0100
0000
0001
0100
0010
0000
,
1000
0010
1000
0010
0100
0001
0100
0001
,
1000
0000
0000
0001
0000
0000
0100
0000
0000
0010
0000
0000
1000
0000
0100
0000
,
1000
0001
0010
0001
1000
0010
0100
0001
,
0100
0000
0010
0000
1000
0000
0000
0100
0000
0010
0000
0000
0001
0000
0000
0000
,
0010
0100
1000
0001
0010
0100
1000
0001
,
0100
0000
0010
0000
1000
0000
0000
0010
0000
1000
0000
0000
0001
0000
0000
0000
,
0100
0001
1000
0100
0010
0001
0010
0100
,
1000
0000
0001
0000
0100
0000
0000
0010
0000
1000
0000
0000
0100
0000
0000
0000
,
1000
0001
0010
0100
1000
0010
0100
0001
,
1000
0000
0000
0001
0000
0000
0100
0000
0000
0010
0000
0000
0110
0000
0110
0000
,
1001
0000
0110
0000
0001
1000
0001
0000
,
0110
0000
1001
0000
1000
0001
1000
0000
,
1010
0000
0101
0000
1000
0100
0010
0000
,
0001
0010
0100
1000
0001
0000
1001
0000
,
0101
0000
0110
0000
1000
0100
0010
0000
,
0100
1000
0010
0100
0001
0100
0010
0000
,
1000
0100
0010
0001
0010
0100
1000
0000
,
0001
0100
0010
1000
0001
1000
0100
1000
,
1002
0000
0200
0003
2000
0300
0020
3000
,
0030
0000
0000
0000
;

//---------------dance-single - Renard----------------
#NOTES:
     dance-single:
     Renard:
     Medium:
     6:
     0.418,0.576,0.000,0.063,0.000:
0000
0000
0000
0000
,
0000
0000
0000
0000
,
0000
0000
0000
0000
,
0000
0000
0000
0000
,
1000
0001
1000
0000
0010
0000
0100
0000
,
0001
1000
0001
1000
,
0020
0000
0000
0000
,
0130
0100
0100
0001
,
1000
0100
1000
0000
0100
0000
1000
0000
,
0001
0010
0001
0000
0001
0000
0000
0000
,
1000
0010
1000
0000
0010
0000
0010
0000
,
0100
0001
0100
0000
0001
0000
0010
0000
,
0100
1000
0100
0000
1000
0000
0100
0000
,
0010
0001
0010
0000
0001
0000
1000
0000
,
0010
0100
0010
0000
0100
0000
0001
0000
,
1000
1000
0100
0100
,
1000
0000
0100
0000
1000
0100
1000
0100
,
0010
0000
0001
0000
0010
0001
0010
0001
,
0100
0100
0010
0010
,
1000
0010
0100
0001
,
1000
0000
1000
0000
0100
1000
0100
1000
,
0001
0000
0010
0000
0001
0010
0001
0010
,
0001
0100
0010
1000
,
0100
0010
0001
1000
,
0010
0010
0100
0000
,
0010
0000
1000
0000
,
0001
0001
0010
0000
,
0100
0000
1000
0000
,
0010
0010
0100
0000
,
0001
0000
1000
0000
,
0100
0100
0010
0000
,
0001
0000
1000
0000
,
0001
0001
0010
0100
,
1000
0000
0100
0000
,
1000
1000
0100
1000
,
0001
0000
0010
0000
,
0001
0001
0000
1000
,
0010
0000
0100
0000
,
0002
0000
0000
0000
,
1003
0000
0100
0000
0000
1000
0100
0000
,
0010
0001
1000
0010
,
0100
0000
0001
0000
0000
0100
0001
0000
,
0010
0100
1000
0100
,
1000
0000
0001
0000
0000
0010
0001
0000
,
1000
0010
0100
0001
,
0100
0000
0010
0000
0000
1000
0001
0000
,
1000
0100
1000
0100
,
0010
0000
0001
0000
0000
1000
0010
0000
,
0100
0001
1000
0100
,
1000
0000
0001
0000
0000
0010
0001
0000
,
0010
0100
1000
0000
,
0001
0000
0100
0000
0000
0010
1000
0000
,
0001
0100
0001
1000
,
0100
0000
0010
0000
0000
0001
1000
0000
,
0001
0010
0200
0000
,
1300
1000
1000
1000
,
0100
0010
0100
0000
0010
0000
0010
0000
,
0001
0001
0001
0001
,
0100
0010
0100
0000
0010
0000
0010
0000
,
1000
0100
1000
0000
0100
0000
1000
0000
,
0001
0010
0001
0000
0010
0000
0001
0000
,
1000
0010
1000
0000
0001
0100
0001
0000
,
2000
0000
0000
0000
,
3100
0000
0100
0000
0010
0001
0010
0001
,
0010
0100
1000
0001
,
0100
0000
0010
0000
1000
0010
1000
0010
,
1000
0000
0001
0000
0100
0001
0100
0000
,
0001
0000
0010
0000
0100
0010
0100
0010
,
0100
0000
1000
0000
0001
0100
0001
0000
,
0100
0000
0010
0000
1000
0010
1000
0010
,
1000
1000
1000
1000
,
0100
0000
0100
0000
1000
0100
1000
0000
,
0001
0000
0001
0000
0010
0001
0010
0000
,
0001
0000
0001
0000
1000
0010
1000
0000
,
0001
0100
0020
0000
1030
0100
0020
0000
,
0031
0010
0001
0010
0001
0010
0001
0000
,
0010
0100
0010
0100
0010
0100
0010
0000
,
0100
1000
0100
1000
0100
1000
0010
0000
,
0100
0001
0100
0000
0010
1000
0001
0000
,
0200
0000
0000
0000
,
0300
0000
0000
0000
;

//---------------dance-single - Renard----------------
#NOTES:
     dance-single:
     Renard:
     Easy:
     2:
     0.262,0.288,0.000,0.144,0.000: // measure 1
0000
0000
0000
0000
,  // measure 2
0000
0000
0000
0000
,  // measure 3
0000
0000
0000
0000
,  // measure 4
0000
0000
0000
0000
,  // measure 5
1000
0000
0000
0000
,  // measure 6
0001
1000
0001
1000
,  // measure 7
0001
0000
0000
0000
,  // measure 8
1000
0000
1000
0000
,  // measure 9
0100
1000
0100
1000
,  // measure 10
0001
0000
0010
0000
,  // measure 11
0001
0100
0001
0100
,  // measure 12
0010
0000
0010
0000
,  // measure 13
1000
0000
1000
0100
,  // measure 14
0010
0000
0010
0000
,  // measure 15
0001
0000
0100
0010
,  // measure 16
1000
0000
0020
0000
,  // measure 17
0130
0000
0100
0001
,  // measure 18
0100
0000
0010
1000
,  // measure 19
0010
0000
1000
0000
,  // measure 20
0100
0010
0001
1000
,  // measure 21
0001
0000
0010
0100
,  // measure 22
1000
0000
0001
0010
,  // measure 23
0001
0000
1000
0010
,  // measure 24
1000
0001
0100
0001
,  // measure 25
2000
0000
0000
0000
,  // measure 26
3200
0000
0000
0000
,  // measure 27
0320
0000
0000
0000
,  // measure 28
0032
0000
0000
0000
,  // measure 29
2003
0000
0000
0000
,  // measure 30
3002
0000
0000
0000
,  // measure 31
0203
0000
0000
0000
,  // measure 32
0320
0000
2030
0000
,  // measure 33
3100
0000
0100
0000
,  // measure 34
1000
0000
0001
1000
,  // measure 35
0001
0000
0010
0000
,  // measure 36
0100
0000
1000
0001
,  // measure 37
1000
0000
0001
0000
,  // measure 38
0010
0100
0010
0100
,  // measure 39
2000
0000
0000
0000
,  // measure 40
3001
1000
0000
0001
,  // measure 41
1000
0000
0001
0000
,  // measure 42
1000
0001
0000
1000
,  // measure 43
0001
0000
0010
0000
,  // measure 44
0100
1000
0000
0001
,  // measure 45
0010
0000
0001
0000
,  // measure 46
1000
0010
0000
1000
,  // measure 47
0001
0000
0100
0000
,  // measure 48
0001
1000
0001
0000
,  // measure 49
1000
0000
1000
0000
,  // measure 50
0001
1000
0001
0000
,  // measure 51
1000
1000
1000
0000
,  // measure 52
1000
0001
1000
0000
,  // measure 53
0001
0000
0001
0000
,  // measure 54
1000
0001
1000
0000
,  // measure 55
0001
0001
0001
0000
,  // measure 56
0100
0000
0100
0000
,  // measure 57
0010
0010
0010
0000
,  // measure 58
1000
0000
1000
0000
,  // measure 59
0001
0001
0001
0000
,  // measure 60
1000
0000
1000
0000
,  // measure 61
0100
0100
0100
0000
,  // measure 62
0010
0000
0010
0000
,  // measure 63
0001
1000
0001
1000
,  // measure 64
0002
0000
0003
0100
,  // measure 65
0010
0000
1000
0000
,  // measure 66
0200
0000
0300
0010
,  // measure 67
0001
0000
1000
0000
,  // measure 68
0020
0000
0030
0100
,  // measure 69
0001
0000
1000
0000
,  // measure 70
0100
0010
0100
0010
,  // measure 71
0001
1000
0001
0100
,  // measure 72
0010
0000
0010
0000
,  // measure 73
1000
0000
0001
1000
,  // measure 74
0001
0000
0010
0000
,  // measure 75
0100
0000
1000
1000
,  // measure 76
0001
0000
0001
0010
,  // measure 77
0100
0000
0100
1000
,  // measure 78
0010
0000
0010
0100
,  // measure 79
0001
0010
0100
2000
,  // measure 80
0002
0000
0000
0000
,  // measure 81
3003
0000
0000
0000
;
