#TITLE:Ride;
#SUBTITLE:;
#ARTIST:Sonitus Vir;
#TITLETRANSLIT:;
#SUBTITLETRANSLIT:;
#ARTISTTRANSLIT:;
#CREDIT:;
#BANNER:ride.png;
#BACKGROUND:ride-bg.png;
#LYRICSPATH:;
#CDTITLE:;
#MUSIC:ride.ogg;
#OFFSET:0.000;
#SAMPLESTART:27.389;
#SAMPLELENGTH:12.000;
#SELECTABLE:YES;
#DISPLAYBPM:70.000;
#BPMS:0.000=70.000,62.000=65.000,62.333=57.040,62.667=54.300,63.000=52.620,63.333=49.680,63.667=41.780,64.000=85.000,82.000=87.720,83.000=95.700,83.000=93.240,84.000=89.520,84.333=93.380,84.667=94.200,85.333=95.460,86.000=99.040,86.333=98.660,87.000=101.500,87.667=94.220,88.000=108.940,88.333=105.280,88.667=106.480,89.000=109.860,90.000=115.080,90.667=112.040,91.500=124.100,92.000=125.560,92.667=130.780,93.333=133.020,94.333=133.620,95.000=137.020,96.000=152.260,97.333=150.440,99.333=155.900,99.667=163.520,101.000=166.320;
#STOPS:;
#BGCHANGES:16.000=vid38.avi=1.000=0=0=1,
32.000=vid36.avi=1.200=0=0=1,
48.000=vid42.avi=1.000=0=0=1,
64.000=vid35.avi=1.000=0=0=1,
80.000=vid34.avi=0.700=0=0=1,
84.000=vid34.avi=0.900=0=0=1,
88.000=vid34.avi=1.200=0=0=1,
92.000=vid34.avi=1.400=0=0=1,
96.000=vid34.avi=1.800=0=0=1,
100.000=vid34.avi=2.000=0=0=1,
99999=-nosongbg-=1.000=0=0=0 // don't automatically add -songbackground-
;

//---------------dance-single - Renard----------------
#NOTES:
     dance-single:
     Renard:
     Challenge:
     10:
     0.552,0.510,0.312,0.072,1.000:
0000
0000
0000
0000
,
0000
0000
0000
0000
,
1000
0000
1000
0001
0000
0001
0100
0000
0100
0010
0000
0010
,
1000
0000
0000
0000
1000
0000
0100
0000
0000
0000
0010
0000
0001
0000
0010
0000
0100
0000
1000
0100
0010
0001
0010
0100
,
0010
0000
0000
0000
0100
0000
1000
0000
0000
0000
0010
0000
0100
0000
0001
0000
0100
0000
0010
0000
1000
0010
1000
0000
,
0100
0000
0000
0000
0100
0000
0010
0000
0000
0000
0010
0000
0001
0000
0001
0010
0100
0000
1000
0000
1000
0010
0100
0000
,
0001
0000
0001
0000
1000
0000
0100
0010
0001
0000
0010
0000
0100
0000
0100
0000
1000
0000
0010
0100
0001
0000
0100
0000
,
0010
0000
0010
0000
1000
0000
0001
0100
0010
0000
1000
0000
0010
0000
0100
0000
0001
0000
1000
0100
0010
0000
0001
0000
,
0010
0000
0010
0000
0100
0000
1000
0000
0000
0000
1000
0010
0100
0000
0001
0000
0100
0000
0101
0000
0000
0000
0100
0000
,
0010
0000
0000
0000
0010
1000
0100
0000
0000
0000
0100
0010
0001
0000
0010
0000
0100
0000
1000
0000
0001
1000
0001
0000
,
0100
0000
0010
0000
1000
0000
0100
0000
0000
0000
0010
0001
0010
0000
0100
0000
1000
0000
1100
0000
1000
0000
0010
0000
,
0100
0000
0001
0000
0100
0010
0100
0000
0010
0000
1000
0100
1000
0000
0100
0000
0010
0000
0011
0000
0010
0000
0100
0000
,
1000
0000
0001
0010
0001
0000
1000
0000
0100
0000
0010
0000
0001
0000
1000
0100
1000
0000
0010
0000
0100
0000
0001
0000
,
1000
0000
0010
1000
0010
0000
0100
0000
0001
0000
0010
0000
0100
0000
1000
0100
1000
0000
0001
0000
0010
0001
0010
0000
,
0001
0000
0010
0000
0100
0000
1000
0000
0001
0000
0100
0010
0100
0000
0010
0000
1000
0000
0100
0000
0010
0000
0001
0010
,
0001
0000
0010
0000
0100
0000
1000
0000
0001
0000
1000
0001
0200
0000
0020
0300
2000
0030
0200
3000
0020
0300
0002
0030
,
1000
0003
0001
0000
0100
0000
0010
0000
0000
0000
1000
0010
1000
0000
0010
0000
0100
0000
0110
0000
0000
0000
0000
0000
,
1010
0000
0100
0000
0001
0000
0010
0000
0100
0000
1000
0100
1000
0000
0001
0000
0100
0000
0101
0000
0000
0000
0000
0000
,
0110
0000
0010
0000
1000
0000
0100
0000
0000
0000
0010
0001
0010
0000
0100
0000
1000
0000
1100
0000
0000
0000
1000
0000
,
1010
0010
0010
0110
0000
0100
0101
0001
0001
0011
0000
0000
,
0110
0000
0100
0000
1000
0000
1010
0000
0000
0000
0010
0100
0001
0000
0100
0000
0010
0000
1010
0000
0000
0000
0000
0000
,
1010
0000
0010
0000
0010
0000
0110
0000
0000
0000
0100
0001
0100
0000
0001
0000
0100
0000
0110
0000
0000
0000
0000
0000
,
1010
0000
1000
0000
1000
0000
1100
0000
0000
0000
0100
0010
0001
0000
0010
0000
0001
0000
0011
0000
0000
0000
0000
0000
,
0011
0000
0100
0000
1000
0000
0001
0000
0010
0000
0100
0000
1000
0100
0010
0001
0010
0100
1000
0100
0010
0001
0010
0000
,
0100
0000
1000
0000
0010
0000
0100
0000
0001
0000
0100
0000
0010
1000
0010
0100
0001
0100
0010
0000
1000
0000
0001
0000
,
0100
0001
1000
0010
0000
0100
0101
0110
1010
1001
0000
0000
;

//---------------dance-single - Renard----------------
#NOTES:
     dance-single:
     Renard:
     Hard:
     8:
     0.365,0.402,0.000,0.000,0.750:
0000
0000
0000
0000
,
0000
0000
0000
0000
,
0000
0000
0000
0000
,
0000
0000
0000
0000
,
1000
0000
1000
0001
0000
0001
0100
0000
0100
0010
0000
0010
,
1000
0000
1000
0100
0000
0100
0010
0001
0010
0100
0000
0100
,
1000
0000
1000
0010
0000
0010
0100
0000
0100
0001
0000
0001
,
0010
0000
0010
0100
0000
0100
1000
0001
0100
0010
0000
0010
,
1000
0000
0100
0000
0010
0000
0001
0000
0000
0000
0010
0100
0010
0000
0000
0000
0100
0000
1000
0000
0000
0000
0000
0000
,
0010
0000
0000
0000
0100
0001
0100
0000
0000
0000
0010
1000
0010
0000
1000
0000
0100
0000
0010
0000
0000
0000
0000
0000
,
0001
0000
0010
0000
0100
0000
1000
0000
0000
0000
0001
0100
0001
0000
0000
0000
0100
0000
0010
0000
0000
0000
0000
0000
,
1000
0000
0000
0000
0100
1000
0100
0000
0000
0000
1000
0001
1000
0000
0001
0000
0100
0000
0010
0000
0000
0000
0000
0000
,
1000
0000
0010
0000
0100
0000
0001
0000
1000
0000
0100
0000
0010
0000
0001
1000
0001
0000
0010
0000
0100
0000
1000
0000
,
0001
0100
0010
1000
0001
1000
0100
0010
0001
0010
0100
1000
,
0001
0000
0100
0000
0010
0000
1000
0000
0000
0000
0010
1000
0010
0000
0100
0000
0001
0000
0010
0000
0000
0000
0000
0000
,
0010
0000
0100
0000
1000
0000
0010
0000
0000
0000
0100
0001
0100
0000
0010
0000
1000
0000
0100
0000
0010
0000
0001
0000
,
0010
0000
0100
0000
1000
0000
0001
0000
0000
0000
0100
0001
0100
0000
0000
0000
0010
0000
1000
0000
0000
0000
0010
0000
,
1000
0000
0000
0000
0100
0010
0001
0000
0000
0000
0010
0100
1000
0000
0000
0000
0001
0000
0100
0000
0000
0000
0000
0000
,
0010
0000
1000
0000
0001
0000
0100
0000
0000
0000
0010
1000
0001
0000
1000
0000
0100
0000
0010
0000
0000
0000
0001
0000
,
0010
0100
1000
0001
0000
0100
0010
1000
0100
0010
0000
0000
,
0001
0000
0010
0000
0100
0000
1000
0000
0000
0000
0001
0100
0001
0000
0000
0000
0100
0000
0010
0000
0000
0000
1000
0000
,
0100
0000
0010
0001
0000
0010
0100
0000
1000
0010
0000
0000
,
0100
0000
0001
0000
0100
0000
0010
0000
0000
0000
1000
0000
0010
0000
1000
0000
0100
0000
0010
0000
0000
0000
0001
0010
,
0000
0100
1000
0001
0000
0100
0010
1000
0100
0010
0000
0000
,
0001
0010
0100
1000
0000
0001
0100
0010
1000
0100
0000
0000
,
0010
0001
0010
0100
1000
0010
0100
0001
0010
0100
0000
0000
;

//---------------dance-single - Renard----------------
#NOTES:
     dance-single:
     Renard:
     Medium:
     5:
     0.202,0.247,0.012,0.036,0.180:
0000
0000
0000
0000
,
0000
0000
0000
0000
,
0000
0000
0000
0000
,
0000
0000
0000
0000
,
0000
0000
0000
0000
,
1000
0000
1000
0100
0000
0000
0010
0000
0000
0001
0000
0000
,
1000
0000
1000
0001
0000
0000
0010
0000
0010
0100
0000
0000
,
1000
0000
1000
0010
0000
0000
0100
0000
0000
0001
0000
0000
,
0010
0000
0100
1000
0000
0000
0001
0000
0010
0010
0000
0000
,
0001
0000
0000
0100
0000
0000
0010
0000
1000
0010
0000
0000
,
0100
0000
0001
1000
0000
0000
0001
0000
0010
0010
0000
0000
,
0100
0000
1000
0100
0000
0010
0001
0000
1000
0001
0000
0000
,
0100
0000
0000
0010
0000
0010
1000
0000
0000
0010
0000
0010
,
0100
0000
0000
0010
0000
0010
1000
0000
0000
0010
0000
0000
,
0200
0301
2000
3100
,
0020
0000
0000
0031
0000
0000
1000
0010
0100
0001
1000
0100
,
0010
0000
0010
0001
0000
0010
0100
0000
0000
1000
0000
0000
,
0001
0000
0100
0010
0000
0000
1000
0000
0000
0010
0000
0000
,
0100
0000
0000
0001
0000
1000
0100
0000
1000
0001
0000
0000
,
0010
0000
0000
0001
0000
0000
1000
0010
1000
0010
0000
0000
,
0100
0000
0000
0001
0000
0000
1000
0000
0000
0100
0000
0010
,
0001
0000
0000
0010
0000
0000
0100
0000
1000
0001
0000
0000
,
0100
0010
1000
0010
,
0100
0000
0001
0100
0000
0000
0001
0000
0000
1000
0000
0000
,
0100
0000
1000
0100
0000
0000
1000
0000
0000
0100
0000
0000
,
0010
0001
1000
0110
;

//---------------dance-single - Renard----------------
#NOTES:
     dance-single:
     Renard:
     Easy:
     2:
     0.170,0.201,0.072,0.108,0.000: // measure 1
0000
0000
0000
0000
,  // measure 2
0000
0000
0000
0000
,  // measure 3
0000
0000
0000
0000
,  // measure 4
0000
0000
0000
0000
,  // measure 5
0000
0000
0000
0000
,  // measure 6
1000
0001
0010
0001
,  // measure 7
2000
3100
0020
0031
,  // measure 8
2000
3010
0200
0301
,  // measure 9
1000
0100
1000
0200
,  // measure 10
0310
0001
0010
0002
,  // measure 11
1003
0010
1000
0020
,  // measure 12
0130
0001
0100
0002
,  // measure 13
0013
0100
0010
0100
,  // measure 14
1000
0001
1000
0001
,  // measure 15
0100
0010
0100
0010
,  // measure 16
1000
0001
1000
0002
,  // measure 17
1003
1000
0001
0001
,  // measure 18
0100
0010
0100
0010
,  // measure 19
1000
1000
0001
0001
,  // measure 20
0010
0100
0010
0100
,  // measure 21
1000
1000
0001
0001
,  // measure 22
1000
1000
0001
0001
,  // measure 23
0100
0100
0010
0010
,  // measure 24
1000
0100
1100
1100
,  // measure 25
0010
0001
0011
0011
,  // measure 26
0001
1000
0110
1001
;
