#TITLE:Rewind That;
#SUBTITLE:;
#ARTIST:Hecate;
#TITLETRANSLIT:;
#SUBTITLETRANSLIT:;
#ARTISTTRANSLIT:;
#CREDIT:;
#BANNER:rewind.png;
#BACKGROUND:rewind-bg.png;
#LYRICSPATH:;
#CDTITLE:;
#MUSIC:rewind.ogg;
#OFFSET:0.000;
#SAMPLESTART:56.058;
#SAMPLELENGTH:12.000;
#SELECTABLE:YES;
#BPMS:0.000=137.000,30.000=274.000,31.000=137.000,46.000=274.000,47.000=137.000,62.000=274.000,63.000=137.000,77.000=274.000,78.000=137.000,91.000=274.000,92.000=137.000,106.000=274.000,107.000=137.000,120.000=274.000,121.000=137.000,136.000=274.000,137.000=137.000,152.000=274.000,153.000=137.000,168.000=274.000,169.000=137.000;
#STOPS:14.500=0.438
,30.000=0.219
,46.000=0.219
,62.000=0.219
,77.000=0.657
,91.000=1.095
,106.000=0.657
,120.000=1.095
,136.000=0.219
,152.000=0.219
,168.000=0.219
;
#BGCHANGES:;

//---------------dance-single - Renard----------------
#NOTES:
     dance-single:
     Renard:
     Challenge:
     9:
     0.721,0.676,0.753,0.000,0.465:
0000
0000
0000
0000
,
0000
0000
0000
0000
,
0000
0000
0000
0000
,
0000
0000
0000
0000
0000
0000
0001
1000
,
0010
0000
0000
0010
0100
0000
0001
0000
0010
0000
0000
0010
0100
0000
1000
0000
,
0010
0000
0000
0010
0100
0000
0001
0000
1000
0000
0000
0001
0100
0000
0010
0000
,
1010
0000
0000
0010
0100
0000
0001
0000
0101
0000
0000
0001
0010
0000
0100
0000
,
0110
0000
0000
0100
1000
0000
0010
0000
0000
0000
0000
0000
0100
0000
0001
0000
,
0101
0000
0000
0001
0100
0000
0010
0000
1010
0000
0000
0010
1000
0000
0100
0000
,
1100
0000
0000
0100
0010
0000
0001
0000
0011
0000
0000
0001
0100
0000
0001
0000
,
1001
0000
0000
1000
0100
0000
1000
0000
1001
0000
0000
0001
0010
0000
0001
0000
,
1001
0000
0000
0001
0100
0000
0010
0000
0000
0000
0000
0000
1000
0000
0010
0000
,
1010
0000
0000
0010
0100
0000
0001
0000
0011
0000
0000
0001
0010
0000
0100
0000
,
0110
0000
0000
0100
1000
0000
0010
0000
1010
0000
0000
0010
0100
0000
0001
0000
,
0101
0000
0000
0001
1000
0000
0001
0000
1001
0000
0000
1000
0100
0000
0010
0000
,
0110
0000
0000
0100
1000
0000
0001
0000
0000
0000
0000
0000
0001
0000
0100
0000
,
1100
0100
0001
0010
0110
0100
1000
0010
,
0110
0100
0001
0010
0011
0010
1000
0010
,
1010
0010
0100
1000
1100
0100
0001
0100
,
1100
1000
1001
0000
0100
0001
0101
0100
,
1000
0100
1100
0100
0010
1000
1010
0010
,
0001
0010
0011
0010
0100
0001
0011
0010
,
0100
1000
1100
1000
0001
0010
1001
0000
,
0001
0000
0100
0010
1000
0000
0010
0100
0001
0000
0010
0100
1000
0000
0100
0010
,
0001
0000
0010
0100
1000
0000
0001
0100
0010
0000
1000
0010
0100
0000
0001
0100
,
0010
0000
1000
0100
0010
0000
0001
0010
0100
0000
1000
0001
0010
0000
0001
1000
,
0010
0000
0100
0001
1000
0000
0010
0100
0001
0000
0000
0000
1000
0000
0001
0010
,
0100
0000
1000
0100
0010
0000
0100
1000
0010
0000
0100
0001
0100
0000
0010
1000
,
0001
0000
0100
0001
1000
0000
0100
1000
0001
0000
0010
0100
0010
0000
0001
0010
,
0100
0000
0010
0100
1000
0000
0010
0100
0001
0000
0100
0010
0100
0000
0010
1000
,
0010
0000
0000
0000
1000
0000
0010
0000
1010
0000
0010
0100
0000
0100
0001
0000
,
0011
0000
0010
0000
0100
0000
0010
0000
0110
0000
0100
1000
0000
1000
0001
0000
,
1001
0000
0001
0000
0100
0000
0010
0000
0110
0000
0010
1000
0000
0001
1000
0000
,
1001
0000
0001
0000
1000
0000
0010
0100
0001
0000
0100
0000
0110
0000
0000
0000
,
1001
0000
0000
0000
1000
0000
0100
0000
0110
0000
0100
1000
0000
0001
0010
0000
,
0011
0000
0001
0010
0100
0000
1000
0000
1001
0000
0001
0100
0000
0010
1000
0000
,
1001
0000
0001
0100
0010
0000
1000
0000
1001
0000
1000
0100
0000
0100
0010
0000
,
1001
0100
0010
0100
1001
0010
1001
0100
,
1010
0000
0000
0000
1010
0000
0000
0000
0100
0000
0001
0010
0000
0010
0100
0000
,
0110
0000
0100
1000
0010
0000
1000
0000
1001
0000
0000
0001
0000
0100
0001
0000
,
1001
0000
1000
0100
0010
0000
0001
0000
1001
0000
0000
0001
0000
0100
0010
0000
,
1010
0000
0010
0100
0001
0000
0010
0000
1001
0000
0100
0000
1010
0000
0000
0000
,
1001
0000
0000
0000
0101
0000
0100
0000
0010
0000
1000
0010
0000
0010
1000
0000
,
0100
0000
0010
0000
0011
0000
0010
0000
0110
0000
0100
1000
0000
1000
0010
0000
,
0100
0000
0000
0000
0001
0000
0100
0000
0010
0000
1000
0100
0000
0100
0010
0000
,
0110
0000
0100
1000
0010
0000
0100
0000
0001
0000
1000
0000
1001
0000
0000
0000
,
0110
0000
0000
0000
;

//---------------dance-single - Renard----------------
#NOTES:
     dance-single:
     Renard:
     Hard:
     8:
     0.549,0.514,0.388,0.188,0.000:
0000
0000
0000
0000
,
0000
0000
0000
0000
,
0000
0000
0000
0000
,
0000
0000
0000
0000
0000
0000
1000
1000
,
0100
0000
0010
0010
0001
0000
1000
1000
,
0010
0000
0100
0100
0001
0000
0010
0010
,
0100
0000
1000
1000
0010
0000
0100
0100
,
0001
0000
0010
0000
1001
0000
1000
0010
,
1010
0000
0100
0001
0101
0000
0001
0010
,
0011
0000
0100
1000
1100
0000
1000
0010
,
1010
0000
0100
0001
0101
0000
1000
0100
,
1100
0000
0100
0010
1001
0000
0001
1000
,
1010
0000
0010
0100
0101
0000
0001
0010
,
0011
0000
0010
0100
0110
0000
0100
1000
,
1100
0000
1000
0010
1010
0000
0100
0002
,
2000
0010
3103
1000
,
0001
0100
0010
1000
0100
0010
0001
0010
,
0100
1000
0010
0100
0001
0010
0100
0000
,
0010
0001
1000
0010
0100
0010
1000
0100
,
0010
0002
2003
0000
1000
0001
0100
0010
,
0100
0010
1000
0100
0010
0100
0010
0001
,
0100
0010
1000
0100
1000
0001
0010
0001
,
1000
0010
0100
0001
0010
0200
2300
0000
,
1000
0100
0010
0001
0010
0100
1000
0100
,
1000
0001
0100
0010
1000
0010
0100
0001
,
0100
0001
0010
0100
1000
0100
0010
0001
,
0010
0001
0010
0200
2300
0000
1000
0010
,
0100
0001
0100
0010
1000
0100
0010
0100
,
1000
0001
0010
0100
1000
0001
0100
0010
,
1000
0001
0100
0000
2002
0000
0020
0000
,
3033
0000
1000
0001
1001
0001
0100
0101
,
0001
1000
1100
0000
0000
1100
0000
1000
,
0100
0010
0001
1000
1001
0001
0010
0011
,
0010
0100
0110
0000
0000
1100
0000
1000
,
0110
0000
0010
1000
0001
0100
0001
1000
,
0100
0010
0001
0100
0010
1000
0100
0010
,
0001
0010
0100
1000
1000
0010
0100
0100
,
0001
0010
0010
0001
0010
0100
2000
0000
,
3001
0000
1000
0001
1001
0000
0001
0100
,
0110
0000
0010
1000
0100
0010
0001
0100
,
0010
1000
0100
0010
0110
0000
0010
0001
,
1001
0000
0001
0010
0100
1000
0020
0000
,
0130
0000
0100
0001
1001
0000
1000
0000
,
1100
0000
1000
0100
0010
0001
1000
0010
,
0100
0100
0001
0010
0011
0000
0010
0100
,
0110
0000
0100
2000
0002
0000
0200
0000
,
3313
0000
0000
0000
;

//---------------dance-single - Renard----------------
#NOTES:
     dance-single:
     Renard:
     Medium:
     5:
     0.323,0.352,0.188,0.024,0.000:
0000
0000
0000
0000
,
0000
0000
0000
0000
,
0000
0000
0000
0000
,
0000
0000
0000
1000
,
1000
0001
1000
0001
,
1000
0001
0001
1000
,
1000
0001
1000
0001
,
1000
0000
0001
1000
0000
0000
1000
0000
,
1000
0000
0001
0100
0000
0001
0000
0000
,
1000
0100
0010
0001
,
1000
0000
0010
1000
0000
0001
0000
0000
,
0010
0001
1000
0001
,
1000
0000
0100
0010
0000
0001
0000
0000
,
1000
0010
0100
0001
,
0100
0000
0010
1000
0000
0001
0000
1000
,
0100
0010
0001
0000
0000
0000
1000
0000
,
1000
0000
0100
0010
0100
0000
0010
0000
,
0001
1000
0001
1000
,
0001
0000
0010
0100
0010
0000
0100
0000
,
1000
0001
1000
1000
,
0100
0010
0001
1000
,
0001
1000
0001
0000
0010
0000
0100
0000
,
1000
0000
0001
0000
1000
0001
0100
0000
,
0001
0001
1000
1000
,
0001
1000
0001
1000
,
0001
0001
0010
0100
,
1000
0001
0100
0010
,
0010
0000
1000
0000
0001
1000
0001
0000
,
1000
0000
0100
0000
0010
0001
0010
0000
,
0100
0000
1000
0000
0001
0100
0001
0000
,
1000
0000
0100
0000
1100
0000
0000
1100
,
0000
0000
1100
0000
0000
1100
0000
0000
,
1000
0100
0010
0000
0011
0000
0000
0011
,
0000
0000
0011
0000
0000
0011
0000
0001
,
0100
0000
0000
0000
1010
0000
0000
1010
,
0000
0000
0101
0000
0000
0101
0000
0000
,
0001
1000
0000
0000
1100
0000
0000
1100
,
0000
0000
0011
0000
0000
0011
0000
0000
,
1000
0001
0001
0100
,
0010
1000
0100
0010
,
0001
1000
0001
0000
0010
0000
0100
0000
,
1000
0000
0001
0000
0100
0010
1000
0000
,
0010
1000
0001
0100
,
0001
1000
0100
0010
,
0001
1000
0001
0000
0010
0000
0100
0000
,
1000
0001
2000
0200
,
3310
0000
0000
0000
;

//---------------dance-single - Renard----------------
#NOTES:
     dance-single:
     Renard:
     Easy:
     2:
     0.198,0.243,0.000,0.024,0.000: // measure 1
0000
0000
0000
0000
,  // measure 2
0000
0000
0000
0000
,  // measure 3
0000
0000
0000
0000
,  // measure 4
0000
0000
0000
1000
,  // measure 5
1000
0001
0100
0010
,  // measure 6
0000
1000
0000
0001
,  // measure 7
0001
0010
0010
0100
,  // measure 8
1000
0001
0000
1000
,  // measure 9
1000
0001
0100
0001
,  // measure 10
0001
1000
0100
0010
,  // measure 11
0010
0001
0000
1000
,  // measure 12
0000
0001
0000
1000
,  // measure 13
1000
0100
0000
0100
,  // measure 14
0010
0001
0000
0010
,  // measure 15
0000
0100
1000
0001
,  // measure 16
1000
0001
0000
1000
,  // measure 17
1000
1000
1000
0001
,  // measure 18
1000
0001
1000
0001
,  // measure 19
0001
0001
0001
1000
,  // measure 20
0001
0000
0001
0000
,  // measure 21
0001
1000
0100
0000
,  // measure 22
0100
0000
0010
0000
,  // measure 23
0001
1000
0001
0001
,  // measure 24
1000
0000
1000
0000
,  // measure 25
0100
0000
0100
0000
,  // measure 26
0010
0000
0010
0000
,  // measure 27
0010
0001
0000
1000
,  // measure 28
0000
1000
0000
0001
,  // measure 29
0000
0100
0001
1000
,  // measure 30
0000
0100
0000
0010
,  // measure 31
0000
0001
0000
1000
,  // measure 32
0000
0001
0100
0010
,  // measure 33
1000
0100
0000
0010
,  // measure 34
0000
0001
1000
0001
,  // measure 35
0000
0001
0000
1000
,  // measure 36
0000
0100
0000
0010
,  // measure 37
0001
0010
0000
0100
,  // measure 38
0000
1000
0000
0001
,  // measure 39
0000
0100
0000
0100
,  // measure 40
0000
0001
0000
0001
,  // measure 41
0010
0100
0000
0100
,  // measure 42
0000
1000
0000
1000
,  // measure 43
0000
1000
0000
1000
,  // measure 44
0000
0010
0000
0100
,  // measure 45
0001
1000
0000
0200
,  // measure 46
0000
2000
0000
0000
,  // measure 47
3310
0000
0000
0000
;
