#TITLE:Return to Elysium;
#SUBTITLE:;
#ARTIST:Scott Brown;
#TITLETRANSLIT:;
#SUBTITLETRANSLIT:;
#ARTISTTRANSLIT:;
#CREDIT:;
#BANNER:elysium.png;
#BACKGROUND:elysium-bg.png;
#LYRICSPATH:;
#CDTITLE:;
#MUSIC:elysium.ogg;
#OFFSET:0.000;
#SAMPLESTART:62.555;
#SAMPLELENGTH:12.000;
#SELECTABLE:YES;
#BPMS:0.000=185.000;
#STOPS:187.000=1.297
;
#BGCHANGES:;

//---------------dance-single - Renard----------------
#NOTES:
     dance-single:
     Renard:
     Hard:
     9:
     0.738,0.635,0.148,0.000,0.000:
0000
0000
0000
0000
,
0000
0000
0000
0000
,
0000
0000
0000
0000
,
0000
0000
0000
0000
,
1000
0100
0010
0001
0000
0001
0010
0100
,
1000
0010
0100
0001
0000
0001
0100
0010
,
1000
0100
0010
0001
0000
0001
0010
0100
,
1000
0010
0100
0000
0110
0000
0110
0000
,
1000
0010
1000
0010
1000
0100
1000
0100
,
0010
0100
0010
0100
0010
0001
0010
0001
,
0100
0001
0100
0001
0100
0010
0100
0010
,
1000
0010
1000
0001
1000
0001
1001
0000
,
1000
0100
1000
0100
0010
0100
0010
0100
,
0010
0001
0010
0001
0100
0001
0100
0001
,
0100
0010
0100
0010
1000
0010
1000
0010
,
1000
0100
0010
0001
1000
0000
1001
0000
,
1000
0010
1000
0100
0010
0001
0010
0100
,
1000
0001
0010
0001
0100
0001
0010
0100
,
1000
0010
0100
0001
0010
0001
1000
0100
,
0010
0001
0010
0100
1000
0010
1000
0100
,
1000
0100
0010
0001
0010
0100
1000
0001
,
0100
0001
0010
0001
0010
0100
1000
0010
,
1000
0100
1000
0001
0010
0100
1000
0010
,
0100
0001
1000
0001
1000
0000
1001
0000
,
1000
0001
0100
0010
0000
0010
1000
0100
,
0010
0001
0010
0100
1000
0010
0100
0001
,
0100
0010
1000
0100
0000
0100
1000
0010
,
0100
0001
0010
0100
1000
0001
0010
0001
,
1000
0010
0100
0001
0000
0001
1000
0100
,
1000
0001
0010
0001
0010
0100
1000
0010
,
0100
0001
0100
0010
0000
0010
1000
0100
,
0010
0001
1000
0001
1000
0000
1001
0000
,
0001
0100
0010
1000
0010
0000
0010
1000
,
0000
1000
0100
0010
0001
0010
0100
1000
,
0001
0000
0001
0100
0000
0100
0010
0000
,
1000
0100
0010
0100
1000
0010
0100
0001
,
0010
0100
0010
0001
0100
0000
0100
0010
,
0000
0010
1000
0100
0010
0100
1000
0010
,
0100
0000
0100
0001
0000
0001
1000
0000
,
1000
0100
0010
0001
0010
0100
1000
0010
,
0100
0001
0100
0010
0000
0010
1000
0000
,
1000
0100
0000
0100
0010
0000
0001
0010
,
0100
0000
0100
1000
0000
1000
0010
0000
,
0010
0100
0000
0100
0001
0100
0010
1000
,
0100
0000
0100
0010
0000
0010
0001
0000
,
0001
0010
0000
0100
1000
0010
0100
0001
,
0100
0000
0100
0010
0000
0010
1000
0000
,
0001
1000
0010
0100
0001
0010
0100
1000
,
0010
0100
0000
0100
0001
0100
0010
1000
,
0100
0010
0001
0010
0100
1000
0010
0100
,
0001
0100
0000
0100
0010
1000
0100
0010
,
0001
0010
0100
1000
0010
0100
0001
1000
,
0100
0010
0000
0010
0100
1000
0010
0100
,
0001
0100
0010
1000
0100
0010
0001
1000
,
0001
0100
0010
1000
0001
1000
0001
1000
,
0010
1000
0001
0100
0000
0100
0010
1000
,
0100
0010
0000
0010
0001
0010
0100
1000
,
0010
0100
0001
0100
0000
0100
0010
1000
,
0100
0010
0000
0010
0001
0010
0100
1000
,
0010
0100
0001
1000
0000
1000
0001
1000
,
0010
0100
0000
0100
0001
0010
0100
1000
,
0010
0100
0001
1000
0000
1000
0001
1000
,
0100
0010
0001
1000
0001
0000
1001
0000
,
1000
0010
1000
0010
1000
0100
1000
0100
,
0010
0100
0010
0001
1000
0001
1001
0000
,
0001
0010
0001
0010
0001
0100
0001
0100
,
0010
1000
1001
0000
0001
1000
1001
0000
,
1000
0010
1000
0010
1000
0100
1000
0100
,
0010
0001
0010
0100
1000
0001
1001
0000
,
0001
0100
0101
0000
0100
0010
0110
0000
,
0010
1000
0100
0010
0001
0010
0011
0000
;

//---------------dance-single - Renard----------------
#NOTES:
     dance-single:
     Renard:
     Challenge:
     11:
     0.872,0.822,0.095,0.000,0.449:
0000
0000
0000
0000
,
0000
0000
0000
0000
,
0000
0000
0000
0000
,
0000
0000
0000
0000
,
1000
1000
1000
1000
0001
0100
0010
0010
,
0100
0001
0001
0001
0010
0100
0100
1000
,
0010
0010
0010
0100
0001
0001
0001
1000
,
0100
0010
0001
0001
0010
0100
0100
0100
,
1000
0000
0100
1000
0100
0000
1000
0000
0010
0000
0100
0000
0001
0000
0010
0000
,
0001
0000
0100
0001
0100
0000
0001
0000
0010
0100
0010
0100
0010
0000
0100
0000
,
1000
0000
0010
1000
0010
0000
1000
0000
0001
0000
0100
0000
0001
0000
0010
0000
,
0100
0000
0010
0100
0010
0000
0100
0000
1000
0001
1000
0001
1000
0000
0001
0000
,
1000
0000
0010
0100
0010
0000
0100
0000
0001
0000
0010
0000
0100
0000
1000
0000
,
0001
0000
0100
0001
0100
0000
0001
0000
1000
0010
1000
0010
1000
0000
0010
0000
,
1000
0000
0001
0100
0001
0000
1000
0000
0010
0000
1000
0000
0100
0000
0010
0000
,
0001
0000
1000
0001
1000
0000
0001
0000
0100
0010
0100
0000
0110
0000
0000
0000
,
0010
1000
0100
0000
0010
0000
0001
0000
0010
0000
0100
0000
1000
0000
0001
0000
,
0010
0100
0010
0000
0001
0000
0010
0000
0001
0000
0100
0000
0010
0000
1000
0000
,
0001
0100
0001
0000
0100
0000
0010
0000
1000
0000
0100
0000
0010
0000
0001
0000
,
0010
0100
0010
0000
0100
0000
1000
0000
0100
0010
0100
0000
0010
0000
0001
0000
,
0010
0100
0010
0000
0100
0000
1000
0000
0010
0000
0100
0000
0001
0000
0100
0000
,
0010
0100
0010
0000
1000
0000
0100
0000
0010
0000
0001
0000
0010
0000
0100
0000
,
0010
0100
0010
0000
0100
0000
1000
0000
0010
0100
0010
0000
0100
0000
0001
0000
,
0010
0100
0010
0000
0100
0010
0100
0010
0100
0000
0000
0000
0110
0000
0000
0000
,
0100
0000
1000
0010
1000
0000
0010
0000
0100
0000
0001
0000
0010
0000
0000
0000
,
0010
0001
0100
0010
1000
0100
0010
0001
,
1000
0000
0001
0100
0001
0000
0100
0000
0010
0000
1000
0000
0100
0000
0000
0000
,
0100
0010
0001
0010
0100
1000
0001
0100
,
0010
0000
0100
0010
0100
0000
0010
0000
1000
0000
0100
0000
0010
0000
0000
0000
,
0010
0001
0010
0100
1000
0010
0100
0001
,
1000
0000
0100
1000
0100
0000
1000
0000
0100
0000
0010
0000
0001
0000
0000
0000
,
0001
0010
0100
1000
0010
0100
0001
0000
,
0100
0010
1000
0100
0001
0100
0010
0001
,
0010
0100
1000
0100
1000
0010
0001
0010
,
0100
0000
0000
0000
0100
0000
1000
0000
0000
0000
1000
0000
0100
0000
0001
0100
,
0001
0100
0010
1000
0100
0001
0100
0010
,
0001
0010
0100
1000
0010
0001
0010
0100
,
1000
0000
0100
0000
0001
0000
0010
0000
0100
0000
0010
0001
0010
0000
0001
0000
,
0010
0000
0000
0010
0100
0000
0100
0000
0000
0000
1000
0000
0010
0000
0000
0010
,
0100
0000
0001
0000
0000
0000
0001
0000
0010
0000
0001
1000
0001
0000
1000
0000
,
1000
0000
0000
1000
0010
0000
0100
0000
0000
0100
0001
0000
0010
0000
0000
0000
,
0100
0000
0010
0000
0100
0000
1000
0000
0010
0000
0100
0010
0100
0000
0010
0000
,
0100
0000
0000
0100
0001
0000
0010
0000
0000
0010
0100
0000
1000
0000
0000
1000
,
0010
0000
0100
0000
0001
0000
0010
0000
0001
0000
1000
0001
1000
0000
0001
0000
,
0100
0000
0000
0100
0010
0000
1000
0000
0000
1000
0100
0000
0010
0000
0000
0010
,
0001
0000
0010
0000
0100
0000
1000
0000
0001
0000
0100
0001
0100
0000
0010
0000
,
1000
0000
0000
1000
0010
0000
0100
0000
0001
0000
0010
0000
0110
0000
0000
0000
,
0100
0000
1000
0001
1000
0000
0001
0000
1000
0000
0010
0000
0100
0000
0001
0000
,
0010
0000
0001
0010
0001
0000
0010
0000
0100
0000
1000
0000
0010
0000
0100
0000
,
0001
0000
0000
0001
0100
0000
0010
0000
0000
0010
1000
0000
0100
0000
0010
0000
,
0001
0010
0100
1000
0010
0100
0001
1000
,
0001
0000
0100
0000
0010
0100
0010
0000
1000
0000
0100
0000
0010
0100
0010
0000
,
0001
0000
0010
0000
0100
0000
1000
0001
1000
0000
0001
0000
0100
0000
0010
0000
,
1000
0000
0000
1000
0010
0000
0100
0000
0000
0100
0001
0000
0010
0000
0100
0000
,
1000
0000
0001
1000
0001
0000
1000
0000
0010
0000
0100
0000
0010
0100
0010
0000
,
1000
0000
0000
1000
0010
0000
0100
0000
0000
0100
0001
0000
0010
0000
0000
0010
,
0100
0000
1000
0000
0001
0000
0100
0000
0001
0100
0001
0100
0001
0000
0100
0000
,
0010
0000
0000
0010
1000
0000
0100
0000
0000
0100
0010
0000
0001
0000
0000
0001
,
0010
0000
0100
0000
1000
0000
0001
0000
0100
0001
0100
0001
0100
0000
0010
0000
,
1000
0000
0000
1000
0100
0000
0010
0000
0000
0010
0001
0000
0010
0000
0000
0010
,
0100
0000
1000
0000
0010
0000
0100
0000
0001
0100
0001
0100
0001
0000
0100
0000
,
0010
0000
0000
0010
1000
0000
0100
0000
0000
0100
0010
0000
0001
0000
0010
0000
,
0100
1000
0100
0010
0001
1000
0100
1000
0001
0010
0001
0000
1001
0000
1001
0000
,
1000
0000
0000
1000
0010
0000
0100
0000
0001
0000
0000
0000
0010
0000
0000
0000
,
0001
1000
0010
0100
0000
0100
0001
0010
,
0100
0000
0000
0100
1000
0000
0010
0000
0100
0000
0001
0000
0100
0000
0010
0000
,
1000
0010
0010
0110
0000
0000
0001
0010
,
0001
0000
0000
0001
1000
0000
0010
0000
0100
0000
0001
0000
0100
0000
0010
0000
,
1000
0100
0010
0110
0000
0010
0001
0100
,
0010
0000
0000
0010
1000
0000
0100
0000
0010
0000
0001
0000
0010
0000
0100
0000
,
1000
0010
0100
0110
0000
0100
1001
0000
;

//---------------dance-single - Renard----------------
#NOTES:
     dance-single:
     Renard:
     Medium:
     5:
     0.400,0.411,0.000,0.042,0.000:
0000
0000
0000
0000
,
0000
0000
0000
0000
,
0000
0000
0000
0000
,
0000
0000
0000
0000
,
1000
0001
1000
0001
0000
0000
0000
0000
,
0100
0000
0000
0010
0000
0000
0000
0000
,
0100
0010
0100
0010
0000
0000
0000
0000
,
0100
0000
0000
0010
0000
0000
0000
0000
,
1000
0000
0010
0000
1000
0000
0010
1000
,
0010
1000
0010
1000
,
0001
0000
0100
0001
0100
0000
0001
0000
,
0100
0001
0200
0000
,
0301
0000
0010
0001
0010
0000
0001
0000
,
0010
0000
0100
0010
0100
0000
0010
0000
,
0100
0000
1000
0100
1000
0000
0100
0000
,
1000
0010
0100
0001
,
1000
1000
0100
0100
,
0010
0000
0010
0000
0001
1000
0001
0000
,
0010
0010
0100
0100
,
1000
0000
1000
0000
0001
1000
0001
0000
,
1000
1000
0010
0010
,
0100
0000
0100
0000
0001
1000
0001
0000
,
0010
0100
1000
0010
,
2000
0000
3002
0000
,
1003
0000
1000
0001
0000
0001
1000
0000
,
0001
0010
0100
1000
,
0001
0000
0001
1000
0000
1000
0001
0000
,
1000
0010
0100
0001
,
1000
0000
1000
0001
0000
0001
1000
0000
,
0001
0010
0100
1000
,
0001
0000
0001
1000
0000
1000
0001
0000
,
0100
0010
1000
0001
,
1000
0000
0000
0000
0100
0000
0000
0010
,
0000
0001
1000
0010
,
0100
0000
0000
0001
0000
0000
1000
0000
,
0100
0010
0001
0010
,
0100
0000
1000
0000
0001
0000
0000
0100
,
0000
0001
1000
0100
,
0010
0000
0000
0001
0000
0000
1000
0000
,
0010
0100
0001
1000
,
0100
0000
0000
0010
0000
0000
0001
0000
,
0000
1000
0000
0000
0010
0000
0100
0000
,
0001
0000
0000
1000
0000
0000
0100
0000
,
0000
0010
0000
0000
0001
0000
1000
0000
,
0010
0000
0000
0100
0000
0000
0001
0000
,
0000
0010
0000
0000
0001
0000
1000
0000
,
0100
0000
0000
0010
0000
0000
0001
0000
,
1000
0000
0000
0001
0000
0000
0100
0000
,
0010
1000
0100
0010
,
0001
0000
0000
0010
0000
0000
0100
0000
,
1000
0010
0100
0001
,
1000
0000
0000
0100
0000
0000
0010
0000
,
0001
1000
0001
1000
,
0010
0000
0000
0100
0000
0000
0001
0000
,
0010
0100
1000
0001
,
1000
0100
0010
0001
,
0010
0100
1000
0010
,
0100
0001
0100
0010
,
1000
0100
0010
0001
,
1000
0000
1000
0100
0000
0100
1000
0000
,
0001
0010
0100
1000
,
0001
0000
0001
0010
0000
0010
0001
0000
,
1000
0010
0200
0000
,
0301
0001
0001
0001
,
1000
1000
1000
1000
,
0001
0001
1000
1000
,
0001
0000
0001
0000
1000
0001
1000
0000
,
0010
0010
0100
0100
,
0010
0010
0100
0100
,
0010
0010
1000
1000
,
0001
0100
0001
0000
1000
0100
0010
0000
;

//---------------dance-single - Renard----------------
#NOTES:
     dance-single:
     Renard:
     Easy:
     3:
     0.315,0.411,0.000,0.391,0.000: // measure 1
0000
0000
0000
0000
,  // measure 2
0000
0000
0000
0000
,  // measure 3
0000
0000
0000
0000
,  // measure 4
0000
0000
0000
0000
,  // measure 5
1000
0000
0001
0000
,  // measure 6
1000
0000
0001
0000
,  // measure 7
0100
0000
0010
0000
,  // measure 8
0100
0000
0000
0000
,  // measure 9
0010
0010
1000
0000
,  // measure 10
0001
0000
0100
0000
,  // measure 11
0001
0001
0010
0000
,  // measure 12
0100
0000
1000
0000
,  // measure 13
0001
0001
1000
0000
,  // measure 14
0010
0000
0100
0000
,  // measure 15
0001
0001
1000
0000
,  // measure 16
0200
0000
0000
0000
,  // measure 17
0310
0001
1000
0000
,  // measure 18
0001
0000
1000
0000
,  // measure 19
0001
0010
0001
0000
,  // measure 20
1000
0000
0010
0000
,  // measure 21
1000
0001
0010
0000
,  // measure 22
0001
0000
1000
0000
,  // measure 23
0010
1000
0010
1000
,  // measure 24
0002
0000
0203
0000
,  // measure 25
0310
0010
1000
0001
,  // measure 26
0000
0000
0000
0000
,  // measure 27
1000
1000
0100
0010
,  // measure 28
0000
0000
0000
0000
,  // measure 29
0001
0001
1000
0010
,  // measure 30
0000
0000
0010
0000
,  // measure 31
0010
1000
0001
0010
,  // measure 32
0001
0000
1000
0000
,  // measure 33
0002
0000
0203
0000
,  // measure 34
0320
0000
2030
0000
,  // measure 35
3200
0000
0000
0320
0000
0000
0032
0000
,  // measure 36
2003
0000
3002
0000
,  // measure 37
0203
0000
0320
0000
,  // measure 38
2030
0000
3200
0000
,  // measure 39
2300
0000
0000
3002
0000
0000
0203
0000
,  // measure 40
0302
0000
0000
0000
,  // measure 41
2003
0000
0000
3200
0000
0000
0320
0000
,  // measure 42
0000
0032
0000
0000
2003
0000
0000
0000
,  // measure 43
3002
0000
0000
0203
0000
0000
0320
0000
,  // measure 44
0000
2030
0000
0000
3200
0000
0000
0000
,  // measure 45
0320
0000
0000
0032
0000
0000
2003
0000
,  // measure 46
0000
3020
0000
0000
0230
0000
0000
0000
,  // measure 47
0302
0000
0000
2003
0000
0000
3100
0000
,  // measure 48
1000
1000
0100
0100
,  // measure 49
0010
0000
0010
0000
,  // measure 50
0001
0001
0100
0100
,  // measure 51
0010
0000
0010
0000
,  // measure 52
1000
1000
0100
0100
,  // measure 53
0010
0000
0010
0000
,  // measure 54
0001
0001
1000
1000
,  // measure 55
0010
0000
0010
0000
,  // measure 56
0100
0000
0000
0100
0000
0000
0100
0000
,  // measure 57
0000
0000
0010
0000
,  // measure 58
1000
0000
0000
1000
0000
0000
1000
0000
,  // measure 59
0000
0000
0001
0000
,  // measure 60
0010
0000
0000
0010
0000
0000
0010
0000
,  // measure 61
0000
0000
0100
0000
,  // measure 62
1000
0000
0000
1000
0000
0000
1000
0000
,  // measure 63
0001
0000
1000
0001
,  // measure 64
1000
1000
1000
1000
,  // measure 65
1000
1000
1000
0000
,  // measure 66
0001
0001
0001
0001
,  // measure 67
0001
0001
0001
0000
,  // measure 68
0100
0100
0100
0100
,  // measure 69
0100
0100
0100
0000
,  // measure 70
0010
0010
0010
0010
,  // measure 71
0010
0010
1000
0001
;
