#TITLE:Resonance of Vacation;
#SUBTITLE:;
#ARTIST:Mr. Tommy;
#TITLETRANSLIT:;
#SUBTITLETRANSLIT:;
#ARTISTTRANSLIT:;
#CREDIT:;
#BANNER:vacation.png;
#BACKGROUND:vacation-bg.png;
#LYRICSPATH:;
#CDTITLE:;
#MUSIC:vacation.ogg;
#OFFSET:0.000;
#SAMPLESTART:35.337;
#SAMPLELENGTH:12.000;
#SELECTABLE:YES;
#BPMS:0.000=163.000;
#STOPS:;
#BGCHANGES:;

//---------------dance-single - Renard----------------
#NOTES:
     dance-single:
     Renard:
     Hard:
     9:
     0.635,0.639,0.300,0.110,0.110:
0000
0000
0000
0000
,
0000
0000
0000
0000
,
0000
0000
0000
0000
,
0000
0000
0000
0000
,
1000
1000
0001
0001
0100
0100
0010
0010
,
0110
0000
0110
0000
0000
0010
1000
0100
,
0010
0010
0001
0001
1000
1000
0100
0100
,
1000
0001
0100
0000
0010
0100
0110
0000
,
0010
1000
1010
0000
1000
0100
1100
0000
,
0010
0001
0100
0010
1000
0100
0010
0001
,
0010
0001
0011
0000
0010
0100
0110
0000
,
0100
1000
0010
0100
0001
1000
0100
0010
,
0001
0010
0011
0000
0010
0100
0110
0000
,
0100
1000
0010
0100
0001
0100
0010
1000
,
0100
1000
1100
0000
1000
0001
1001
0000
,
2002
0000
0010
3013
,
1000
1000
0001
0001
1000
1000
0001
0001
,
0100
0100
0010
0010
0100
0100
0010
0010
,
1000
1000
0010
0010
1000
1000
0010
0010
,
0100
0100
0001
0001
0100
0100
0001
0001
,
0010
0010
0001
0001
0010
0010
0100
0100
,
1000
1000
0100
0100
1000
1000
0010
0010
,
1000
1000
0001
0001
0100
0100
0001
0001
,
2002
0000
0010
3013
,
1000
1000
0001
0001
0100
0000
0100
0000
,
0010
0000
0010
1000
0100
0000
1100
0000
,
1000
1000
0100
0100
0010
0000
0001
0010
,
0100
0110
0110
0000
,
0010
0100
1000
1000
0010
0000
0100
0000
,
0001
0000
0001
0100
0010
0000
0010
0000
,
1000
1000
0100
0010
0001
0000
0001
0010
,
0100
0000
0010
0100
0010
0000
0110
0000
,
0100
1000
0010
0100
0001
0000
0101
0000
,
0100
0000
0010
1000
0100
0000
1100
0000
,
1000
0100
0010
0001
0010
0000
0001
0010
,
0100
0110
0110
0000
,
0100
1000
0010
0100
0010
0000
0110
0000
,
0100
0000
0001
0010
0100
0000
0110
0000
,
0100
1000
0010
0100
0001
0000
1000
0100
,
2000
0000
0200
3311
,
1000
0000
1000
0001
0000
0000
0100
0000
0010
0000
1000
0100
0000
0000
0000
0000
,
0000
0010
0000
0010
0000
0001
0000
0001
,
1000
0000
1000
0001
0000
0000
0100
0000
0010
0000
1000
0100
0000
0000
0000
0000
,
0000
0010
0000
0010
0000
0010
0000
0010
,
0001
0000
0001
1000
0000
0000
0001
0000
0100
0000
0010
1000
0000
0000
0000
0000
,
0000
0100
0000
0100
0000
0100
0000
0100
,
1000
0000
1000
0010
0000
0000
0100
0000
0001
0000
0010
0100
0000
0000
1000
0000
,
2002
0000
0010
3013
,
1000
0000
0001
0100
0001
0000
0100
0000
0010
0000
1000
0000
0100
0000
0010
0000
,
0001
0000
1000
0100
1000
0000
0001
0000
0010
0000
0100
0000
1000
0000
0010
0000
,
0100
0000
0001
0100
0001
0000
0100
0000
0010
0000
1000
0000
0100
0000
0010
0000
,
0001
0000
1000
0100
1000
0000
0001
0010
0001
0000
1000
0000
0001
0000
0100
0000
,
0010
0000
1000
0010
1000
0000
0100
0000
0010
0000
0001
0000
0010
0000
0100
0000
,
1000
0000
0001
0100
0001
0000
0100
0000
0010
0000
1000
0000
0100
0000
0010
0000
,
0001
0000
1000
0100
1000
0000
0001
0000
0010
0000
0100
0000
1000
0000
0001
0000
,
0100
0000
0010
1000
0010
0000
1000
0001
0100
0000
0001
0000
0100
0000
0001
0000
,
1000
0000
0100
0000
0010
0000
0001
0000
0010
0000
0100
0010
0100
0000
0010
0000
,
0100
1000
0010
0100
0001
0100
0000
0010
,
1000
0000
0100
0000
0010
0000
0001
0000
0010
0000
0100
0010
0100
0000
0010
0000
,
0100
1000
0010
0100
0001
0000
0201
0000
,
0301
0100
0010
0100
0010
1000
0100
0010
,
0001
0000
0010
0000
0100
0000
1000
0000
0001
1000
0001
1000
0001
0000
1000
0000
,
0001
0100
0010
1000
0100
0010
0001
0010
,
2200
0000
0011
3311
,
1111
0000
0000
0000
;

//---------------dance-single - Renard----------------
#NOTES:
     dance-single:
     Renard:
     Medium:
     6:
     0.395,0.479,0.110,0.090,0.000:
0000
0000
0000
0000
,
0000
0000
0000
0000
,
0000
0000
0000
0000
,
0000
0000
0000
0000
,
1000
1000
0001
0001
,
0100
0000
0110
0000
0000
0000
0010
1000
,
0010
0010
0100
0100
,
0001
1000
0100
0000
1000
0001
1000
0000
,
0001
0101
0001
1000
,
0100
1100
1000
0001
,
0100
0101
0001
1000
,
0100
1100
1000
0001
,
0010
0011
0001
2000
,
3010
1010
2000
3002
,
0013
0011
0010
0001
,
1000
0000
0110
0110
,
0010
0000
1000
0000
0010
1000
0010
0000
,
0100
0000
0100
0000
0001
0100
0001
0000
,
1000
0000
1000
0000
0100
1000
0100
0000
,
0010
0010
0001
0001
,
1000
0000
1000
0000
0010
1000
0010
0000
,
0100
0000
0100
0000
0001
0100
0001
0000
,
1000
0000
1000
0000
0100
1000
0100
0000
,
0020
0000
0000
0000
0001
0000
0001
0030
,
0001
0010
0001
0010
0001
0000
0001
0000
,
0010
0000
0010
0001
0010
0000
0000
0000
,
0100
1000
0100
1000
0100
0000
1000
0100
,
1000
1000
1000
0000
,
0001
0100
0001
0100
0001
0000
0001
0000
,
0100
0000
0100
0001
0100
0000
0100
0000
,
0010
1000
0010
1000
0010
0000
1000
0010
,
1000
0010
0010
0000
,
1000
0000
1000
0100
0100
0000
0100
0000
,
0010
0000
0010
0001
0001
0000
0001
0000
,
1000
0000
1000
0010
0010
0000
0010
0000
,
0100
0001
0010
0000
,
0100
0000
0100
1000
1000
0000
1000
0000
,
0001
0000
0001
0010
0010
0000
0010
0000
,
0100
0000
0100
1000
1000
0000
0010
0000
,
0200
0000
0000
0000
,
0301
0001
0100
0100
,
0000
0000
0000
0000
,
0010
0010
1000
1000
,
0000
0000
0000
0000
,
0100
0100
0010
0010
,
0000
0000
0000
0000
,
0001
0001
1000
1000
,
0010
0000
0100
0100
,
0010
0000
0100
0000
0010
0100
0010
0000
,
0100
0000
0010
0000
0100
0010
0100
0000
,
0001
0000
1000
0000
0001
1000
0001
0000
,
1000
0001
2000
0000
,
3010
0000
0100
0000
0010
0100
0010
0000
,
0100
0000
0010
0000
0100
0010
0100
0000
,
0001
0000
1000
0000
0001
1000
0001
0000
,
1000
0001
2000
0000
,
3001
0001
1000
1000
,
0001
0001
1000
1000
,
0001
0001
1000
1000
,
0001
0001
2000
0000
,
3010
0000
0100
0000
0010
0100
0010
0100
,
0010
0100
0010
0100
0010
0100
0010
0100
,
0010
0100
0010
0100
0010
0100
0010
0100
,
0020
0000
0130
0100
,
1001
0000
0000
0000
;

//---------------dance-single - Renard----------------
#NOTES:
     dance-single:
     Renard:
     Easy:
     3:
     0.330,0.320,0.030,0.160,0.000: // measure 1
0000
0000
0000
0000
,  // measure 2
0000
0000
0000
0000
,  // measure 3
0000
0000
0000
0000
,  // measure 4
0000
0000
0000
0000
,  // measure 5
1000
0001
1000
0001
,  // measure 6
1001
1001
0000
0000
,  // measure 7
0010
0100
0010
0100
,  // measure 8
0010
1000
0002
0000
,  // measure 9
1003
1000
0000
0001
,  // measure 10
1000
0001
1000
0000
,  // measure 11
0001
0001
0000
1000
,  // measure 12
0001
1000
0001
0000
,  // measure 13
0100
0100
0000
0010
,  // measure 14
0100
0010
0100
0000
,  // measure 15
0010
0010
0000
0100
,  // measure 16
0010
1000
0002
0000
,  // measure 17
1003
1000
0100
0100
,  // measure 18
0010
0010
0001
0001
,  // measure 19
1000
1000
0100
0100
,  // measure 20
0010
0010
0010
0010
,  // measure 21
0001
0001
0010
0010
,  // measure 22
0100
0100
1000
1000
,  // measure 23
0001
0001
0010
0010
,  // measure 24
0200
0000
1000
1300
,  // measure 25
1000
1000
0100
0100
,  // measure 26
1000
1000
0010
0010
,  // measure 27
1000
1000
0100
0100
,  // measure 28
0010
0001
0010
0000
,  // measure 29
0001
0001
0100
0100
,  // measure 30
0001
0001
0010
0010
,  // measure 31
0001
0001
0100
0100
,  // measure 32
0001
0010
0200
0000
,  // measure 33
1300
0100
1000
1000
,  // measure 34
0100
1000
0100
0100
,  // measure 35
1000
0100
1000
1000
,  // measure 36
0100
0010
0001
0000
,  // measure 37
1000
0001
1000
1000
,  // measure 38
0001
1000
0001
0001
,  // measure 39
1000
0001
0100
0010
,  // measure 40
2000
0000
0000
0000
,  // measure 41
3010
0010
0010
0010
,  // measure 42
0100
0100
0100
0100
,  // measure 43
0010
0010
0010
0010
,  // measure 44
0100
0100
0100
0100
,  // measure 45
0010
0010
0010
0010
,  // measure 46
0100
0100
0100
0100
,  // measure 47
0010
0010
0010
0010
,  // measure 48
2000
0000
0002
3003
,  // measure 49
1000
0001
2000
0000
,  // measure 50
3001
1000
0002
0000
,  // measure 51
1003
0001
2000
0000
,  // measure 52
3001
1000
0001
1000
,  // measure 53
0020
0000
0230
0000
,  // measure 54
0320
0000
0230
0000
,  // measure 55
0320
0000
0230
0000
,  // measure 56
0310
1000
0001
0100
,  // measure 57
0001
1000
0001
1000
,  // measure 58
0010
0100
0010
0100
,  // measure 59
0001
1000
0001
1000
,  // measure 60
0010
0100
0010
0100
,  // measure 61
0001
0001
1000
1000
,  // measure 62
0010
0010
0100
0100
,  // measure 63
0001
1000
0010
0100
,  // measure 64
0001
1000
0010
0100
,  // measure 65
1001
0000
0000
0000
;
