#TITLE:Really Love You (Dougal & Gammer Remix);
#SUBTITLE:;
#ARTIST:Dougal & Mickey Skeedale;
#TITLETRANSLIT:;
#SUBTITLETRANSLIT:;
#ARTISTTRANSLIT:;
#CREDIT:;
#BANNER:love.png;
#BACKGROUND:love-bg.png;
#LYRICSPATH:;
#CDTITLE:;
#MUSIC:love.ogg;
#OFFSET:0.000;
#SAMPLESTART:22.558;
#SAMPLELENGTH:12.000;
#SELECTABLE:YES;
#BPMS:0.000=170.000;
#STOPS:;
#BGCHANGES:;

//---------------dance-single - Renard----------------
#NOTES:
     dance-single:
     Renard:
     Hard:
     8:
     0.613,0.624,0.342,0.000,0.156:
0000
0000
0000
0000
,
0000
0000
0000
0000
,
0000
0000
0000
0000
,
0000
0000
0000
0000
,
0001
0001
0001
1000
1000
1000
0010
0010
,
0100
0100
0100
0001
0001
0001
1000
1000
,
0100
1000
0100
0000
0010
0001
0010
0000
,
0001
0100
0010
1000
0001
1000
1001
0000
,
1000
0010
1000
0010
1000
0001
1000
0001
,
1000
0100
1000
0100
1000
0001
1000
0000
,
0001
0010
0001
0010
0001
1000
0001
1000
,
0001
0100
0001
0010
0001
1000
0001
0000
,
0001
1000
0010
0000
0010
1000
0001
0000
,
0001
1000
0100
0000
0100
1000
0001
0000
,
1001
0000
1000
0010
1000
0000
0001
0100
,
0001
0000
0001
0010
0001
0000
0000
0000
,
1001
0000
1000
0010
0000
0010
0100
0001
,
0010
0000
0010
0100
1000
0000
1000
0010
,
0100
0000
0100
0001
0000
0001
1000
0100
,
0000
0100
0010
0001
0010
0000
0010
0100
,
1000
0000
1000
0010
0000
0010
0100
0001
,
0010
0000
0010
0100
1000
0000
1000
0010
,
0100
0000
0100
0001
0000
0001
1000
0100
,
0010
0100
0010
0100
1000
0000
1000
0001
,
1000
0000
1000
0010
0000
0010
0001
0100
,
1000
1000
0010
0010
,
1000
0000
1000
0010
0000
0010
0001
0100
,
1000
1000
0010
0010
,
1000
0000
1000
0100
0000
0100
0001
0010
,
1000
1000
0100
0100
,
1000
0000
1000
0100
0000
0100
0001
0010
,
1000
1000
1000
0001
0001
0000
0100
0010
,
1000
0000
1000
0010
0000
0010
0100
0001
,
0010
0011
0100
1100
,
1010
0000
0001
0100
0000
0100
0010
1000
,
0100
0110
0010
0011
,
0001
0000
1000
0010
0000
1000
0001
0100
,
0001
0110
1000
0110
,
0001
0000
1000
0100
0000
1000
0001
0010
,
0001
0110
1000
0110
,
0001
0000
0001
0100
0000
1010
0000
0101
,
0000
1001
0000
1000
0100
0010
0001
0010
,
0100
0000
0100
1000
0000
0110
0000
0001
,
0000
1100
0000
0001
0010
0100
1000
0010
,
0100
0000
0001
0100
0000
0110
0000
1000
,
0000
0101
0000
0010
0100
0001
1000
0100
,
0010
0010
0001
0100
,
0010
0000
1000
0010
,
1000
0010
1000
0010
1000
0100
1000
0100
,
1000
0001
1000
0001
1000
0100
0010
0001
,
0010
0001
0010
0001
0010
0100
0010
0100
,
0010
1000
0010
1000
0010
0001
0010
0001
,
0100
0001
0100
0001
0100
1000
0100
1000
,
0100
0010
0100
0010
0100
0000
0100
0100
,
0001
0001
0001
0001
0010
0010
0010
0010
,
0100
0100
1000
1000
0010
0000
0010
0100
,
0001
0000
0000
0001
1000
0000
0000
1000
0010
0000
0000
0010
0100
0000
0000
0100
,
0001
0010
0110
0000
,
0100
0000
0000
0100
1000
0000
0000
1000
0010
0000
0000
0010
0100
0000
0000
0100
,
0001
0000
0000
0001
0100
0000
0000
0000
0110
0000
0000
0000
0000
0000
0000
0000
,
1000
0000
0000
1000
0010
0000
0000
0010
0100
0000
0000
0100
0001
0000
0000
0001
,
0010
0110
0100
0000
,
1000
0000
0000
1000
0010
0000
0000
0010
0100
0000
0000
0100
0001
0000
0000
0001
,
0100
0000
0000
0000
0110
0000
0000
1000
0001
0000
0000
0000
0000
0000
0000
0000
,
1000
0000
0000
1000
0010
0000
0000
0010
0100
0000
0000
0100
0001
0000
0000
0001
,
0010
0110
1100
1001
,
1010
0000
0000
0100
0010
0000
0000
0100
0010
0000
0000
0100
0001
0000
0000
0000
,
0011
0110
1100
1001
,
1010
0000
0000
0100
0010
0000
0000
0100
0001
0000
0000
1000
0001
0000
0000
1000
,
0100
0110
0011
1001
,
0001
0000
0000
0100
0010
0000
0000
1000
0010
0000
0000
0100
0010
0000
0100
0000
;

//---------------dance-single - Renard----------------
#NOTES:
     dance-single:
     Renard:
     Challenge:
     10:
     0.866,0.901,0.597,0.010,0.489:
0000
0000
0000
0000
,
0000
0000
0000
0000
,
0000
0000
0001
0000
0100
0010
0000
0010
0000
0000
1000
0000
0100
0010
0000
0010
,
0000
0000
0001
0000
0100
0010
0000
0010
0000
0000
1000
0000
0100
0010
0000
0010
,
0000
0000
0001
0000
0010
0100
0000
0100
0000
0000
1000
0000
0010
0100
0000
0100
,
0000
0000
0001
0000
0010
0100
0000
0100
0000
0000
1000
0000
0010
0100
0000
0100
,
0001
0100
0001
0100
0010
0100
0010
0100
,
0010
0000
1000
0000
0010
0000
1000
0000
0001
0000
1000
0000
0001
1000
0001
1000
,
0001
0000
1000
0000
0010
0000
0100
0000
0001
0000
0010
0000
0100
1000
0000
1000
,
0100
0000
0010
0000
0001
0000
0010
0000
0100
0000
1000
0000
0001
0100
0000
0100
,
0001
0000
0010
0000
0100
0000
1000
0000
0010
0000
0100
0000
0001
1000
0000
1000
,
0001
0000
0010
0000
0100
0000
1000
0000
0010
0000
0100
0000
0001
1000
0000
1000
,
0001
0000
0010
0000
0100
0010
0000
0010
0100
0000
1000
0000
0010
0100
0000
0100
,
0010
0000
0100
0000
0001
0010
0000
0010
0100
0000
0010
0000
0100
1000
0000
1000
,
0010
0000
0100
0000
0001
0010
0000
0010
0001
0000
0010
0000
0100
0000
1000
0000
,
0001
1000
0001
1000
0001
1000
0001
1000
0001
1000
0001
1000
0001
1000
0001
1000
,
0001
0000
1000
0000
0010
0000
0100
0001
0010
0000
0001
0000
0010
0000
0100
0000
,
1000
0000
0010
0000
0100
0000
0001
1000
0001
1000
0001
1000
0001
1000
0001
0000
,
1010
0000
0100
0000
0001
0000
0010
0000
0100
0000
1000
0001
1000
0000
0001
0000
,
0100
0000
0010
1000
0001
0000
0100
0010
1000
0000
0001
0100
0010
0000
1000
0001
,
0100
0000
0010
0000
1000
0000
0100
0000
0010
0001
0010
0001
0010
0000
0001
0000
,
0010
0000
0100
0010
0100
0000
1000
0100
1000
0000
0001
1000
0001
0000
1000
0010
,
1000
0001
0100
0100
0010
0001
1000
0010
,
0100
0100
0010
0010
1000
0000
0100
0010
,
0011
0000
0100
0010
0000
0100
1000
0010
,
1010
1001
1100
0011
,
0101
0000
0100
0110
0000
0010
1010
1000
,
1100
0110
0011
1001
,
0101
0000
0100
0110
0000
0010
1010
1000
,
1100
0110
0011
1001
,
0101
0000
0100
1100
0000
0100
0101
0001
,
0011
0000
0000
0110
,
0100
1000
0010
0100
0001
0010
0100
0010
,
0001
0010
0001
0000
1000
0001
1000
0000
0001
0100
0001
0000
1000
0001
1000
0000
,
0001
1000
0010
0100
0001
0010
0100
1000
,
0001
1000
0001
1000
0001
0000
0000
0000
0100
0010
0100
0010
0100
0000
0000
0000
,
0010
1000
0100
0010
0001
1000
0001
0100
,
0010
0100
0010
0100
0010
1000
0010
1000
,
0001
0000
0100
0001
0100
0000
0001
0000
0010
0000
0100
0000
0010
0000
0100
0000
,
1000
0000
0100
1000
0100
0000
1000
0001
1000
0000
0001
1000
0001
0000
1000
0000
,
0010
0010
0100
0100
0001
0010
0100
0010
,
0100
1000
0010
0100
0001
0001
0100
0100
,
0010
0010
1000
1000
0100
0010
0001
0010
,
0100
1000
0010
0100
0001
0010
0100
0010
,
0001
0001
1000
1000
0010
0100
0001
0100
,
0010
0100
0001
0100
1000
0100
0001
0010
,
0100
0100
1000
1000
,
0020
0000
0000
0000
0000
0030
0000
0000
0100
0001
0100
0001
0100
0001
0100
0001
,
0100
0010
1000
0100
0010
0001
0010
0100
,
1000
0010
0100
0001
1000
1000
1000
1000
,
0001
0010
0100
1000
0010
0100
0001
0100
,
0010
1000
0100
0010
0001
0001
0001
0001
,
0010
0100
1000
0010
0100
0001
0010
0001
,
0010
0100
1000
0010
0100
0100
0100
0100
,
0001
0010
0100
1000
0010
0100
0001
0100
,
0010
1000
0010
1000
0001
0000
0100
0001
,
1000
0000
1000
0100
1000
0000
0001
0010
0001
0000
1000
0010
1000
0000
0001
0100
,
0001
0000
1000
0100
1000
0000
0001
0010
0001
0000
0000
0000
0000
0000
0000
0000
,
1000
0000
0010
1000
0010
0000
0100
0001
0100
0000
0001
0010
0001
0000
0010
0100
,
1000
0000
0100
1000
0001
0000
1000
0001
1000
0000
0000
0000
0000
0000
0000
0000
,
0001
0000
1000
0010
1000
0000
0001
0100
0001
0000
1000
0100
1000
0000
0100
0010
,
0100
0000
0010
0001
0010
0000
0001
1000
0001
0000
0000
0000
0000
0000
0000
0000
,
1000
0000
0010
1000
0010
0000
0100
0001
0100
0000
0001
0010
0001
0000
0010
0100
,
0010
0000
0100
1000
0100
0000
1000
0010
1000
0000
0000
0000
0000
0000
0000
0000
,
1010
0000
1100
1100
0000
0110
0110
0110
,
0011
0101
0110
1100
,
0110
0000
0011
0011
0000
0110
0110
0110
,
1100
1010
0110
0101
,
0011
0000
0011
0110
0000
0110
0110
0110
,
1100
1001
1010
0101
,
0011
0000
0011
0110
0000
0110
1100
1100
;

//---------------dance-single - Renard----------------
#NOTES:
     dance-single:
     Renard:
     Medium:
     6:
     0.393,0.520,0.000,0.010,0.000:
0000
0000
0000
0000
,
0000
0000
0000
0000
,
0000
0000
0000
0000
,
0000
0000
0000
0000
,
0000
0000
0000
0000
,
0000
0000
0000
0000
,
0000
0000
0000
0000
,
0000
0000
0000
0000
,
1000
0000
0100
0000
1000
0100
1000
0000
,
0001
0000
0010
0000
0001
0010
0001
0000
,
1000
0000
0010
0000
1000
0010
1000
0000
,
0001
0000
0100
0000
0001
0100
0001
0000
,
1000
0000
0100
1000
0100
0000
0010
0001
,
0010
0000
0001
0100
0001
0000
1000
0010
,
1000
0000
0100
0010
0001
0010
0100
1000
,
0001
1000
0001
1000
0001
0000
1000
0001
,
1000
0000
0001
0000
,
0100
0010
0100
0010
1000
0000
0010
0100
,
0001
0000
1000
0100
,
0010
0001
0010
0001
0010
0000
0100
1000
,
0001
0000
0100
0000
,
0010
1000
0010
1000
0010
0000
0100
0001
,
0000
0000
0100
0000
0010
0000
1000
0100
,
0010
0001
0010
0100
1000
0000
0001
1000
,
0001
0000
0000
1000
0000
0000
0010
0100
,
0010
0010
0100
0100
,
0001
0000
0000
1000
0000
0000
0001
0010
,
0001
0001
0010
0010
,
0100
0000
0100
1000
0000
1000
0100
0000
,
0010
0000
0010
0001
0000
0001
0010
0000
,
0100
0000
0100
1000
0000
1000
0001
0100
,
0010
0010
1000
1000
,
0010
0000
0100
0001
0000
0100
0010
0100
,
0010
0010
1000
1000
,
0100
0000
0100
0010
0000
0001
0010
0001
,
0010
0010
0100
0000
,
1000
0000
1000
0100
0000
1000
0010
1000
,
0010
0100
0001
1000
,
0001
0000
0000
0010
0000
0000
0100
0000
,
1000
1000
0010
0100
,
0001
0000
0000
0100
0000
0010
0000
1000
,
0000
0100
0000
0010
0001
0000
0010
0000
,
0100
0000
0000
1000
0000
0010
0000
0100
,
0000
0001
0000
0100
0001
0000
1000
0000
,
0100
0000
0000
0010
0000
0001
0000
0010
,
0000
0100
0000
1000
0010
0000
0100
0000
,
0001
1000
0100
0010
,
0002
0000
0013
0100
,
1000
0000
0100
1000
0000
0010
0000
0100
,
0000
0001
0000
0010
0001
0000
1000
0000
,
0010
0000
0100
0001
0000
1000
0000
0100
,
0000
1000
0000
0001
0010
0000
0100
0000
,
1000
0000
0010
0100
0000
0010
0000
0100
,
0000
0001
0000
0010
0100
0000
0010
0000
,
0100
0000
1000
0010
0000
1000
0000
0001
,
0100
0000
0001
0000
1000
0000
0100
0010
,
0001
0001
0001
0001
,
0001
0001
0001
0000
,
1000
1000
1000
1000
,
1000
1000
1000
0000
,
0010
0010
0010
0010
,
0010
0010
0010
0000
,
0100
0100
0100
0100
,
0100
0100
0100
0000
,
0010
0000
0000
1000
0000
0000
0010
1000
,
0010
0010
1000
0000
,
0001
0000
0000
0100
0000
0000
0001
0100
,
0001
0001
0100
0001
,
1000
0000
0000
0100
0000
0000
1000
0100
,
1000
1000
0100
0000
,
0010
0000
0000
0001
0000
0010
0001
1000
;

//---------------dance-single - Renard----------------
#NOTES:
     dance-single:
     Renard:
     Easy:
     2:
     0.345,0.382,0.020,0.332,0.000: // measure 1
0000
0000
0000
0000
,  // measure 2
0000
0000
0000
0000
,  // measure 3
0000
0000
0000
0000
,  // measure 4
0000
0000
0000
0000
,  // measure 5
1000
0000
1000
0000
,  // measure 6
0001
0000
0001
0000
,  // measure 7
0100
0100
0010
0010
,  // measure 8
2000
0000
0002
3003
,  // measure 9
1000
0001
1000
0010
,  // measure 10
1000
0001
1000
0100
,  // measure 11
1000
0001
1000
0010
,  // measure 12
1000
0001
1001
0000
,  // measure 13
0001
1000
0001
0100
,  // measure 14
0001
1000
0001
0010
,  // measure 15
0001
1000
0001
0100
,  // measure 16
1001
0000
0000
0000
,  // measure 17
2000
3001
0200
0310
,  // measure 18
2000
0000
3020
0000
,  // measure 19
0230
0301
0020
0130
,  // measure 20
2000
0000
3020
0000
,  // measure 21
0230
0301
2000
3100
,  // measure 22
0020
0000
0032
0000
,  // measure 23
2003
3001
0200
0310
,  // measure 24
2000
0000
0000
0000
,  // measure 25
3010
0000
0010
0000
,  // measure 26
0100
0100
0100
0100
,  // measure 27
0010
0000
0010
0000
,  // measure 28
0100
0100
0100
0000
,  // measure 29
0001
0000
0001
0000
,  // measure 30
1000
1000
1000
1000
,  // measure 31
0001
0000
0001
0000
,  // measure 32
2000
0000
0000
0000
,  // measure 33
3001
0100
0001
0100
,  // measure 34
0002
0000
2003
0000
,  // measure 35
3001
0001
0010
0100
,  // measure 36
2000
0000
3002
0000
,  // measure 37
1003
1000
0010
0100
,  // measure 38
0002
0000
2003
0000
,  // measure 39
3001
0000
0010
0100
,  // measure 40
0100
0100
0100
0000
,  // measure 41
1000
0000
0100
0000
,  // measure 42
0010
0001
0010
0001
,  // measure 43
1000
0000
0100
0000
,  // measure 44
0010
0001
0010
0001
,  // measure 45
1000
0000
0100
0000
,  // measure 46
0010
0001
0010
0001
,  // measure 47
2000
0000
3200
0000
,  // measure 48
0320
0000
0000
0000
,  // measure 49
0031
0001
0010
0010
,  // measure 50
0100
1000
0010
0100
,  // measure 51
0001
0001
0100
0100
,  // measure 52
0010
1000
0010
1000
,  // measure 53
0100
0100
0010
0010
,  // measure 54
0001
0001
1000
0010
,  // measure 55
0100
0100
0001
0001
,  // measure 56
0020
0000
0000
0000
,  // measure 57
0130
0100
0100
0100
,  // measure 58
0100
0100
0100
0000
,  // measure 59
0010
0010
0010
0010
,  // measure 60
0010
0010
0010
0000
,  // measure 61
0001
0001
0001
0001
,  // measure 62
0001
0001
0001
0000
,  // measure 63
1000
1000
1000
1000
,  // measure 64
1000
1000
1000
0000
,  // measure 65
0010
0100
0010
0100
,  // measure 66
0020
0130
0200
0310
,  // measure 67
0001
0001
1000
1000
,  // measure 68
0001
1000
2000
3001
,  // measure 69
0100
0100
0010
0010
,  // measure 70
1000
0001
2000
3001
,  // measure 71
0010
0010
0200
2300
,  // measure 72
3000
0000
0000
0000
;
