#TITLE:React;
#SUBTITLE:;
#ARTIST:Kettu;
#TITLETRANSLIT:;
#SUBTITLETRANSLIT:;
#ARTISTTRANSLIT:;
#CREDIT:;
#BANNER:react.png;
#BACKGROUND:react-bg.png;
#LYRICSPATH:;
#CDTITLE:;
#MUSIC:react.ogg;
#OFFSET:0.000;
#SAMPLESTART:13.201;
#SAMPLELENGTH:12.000;
#SELECTABLE:YES;
#BPMS:0.000=145.000,80.000=290.000,81.000=145.000;
#STOPS:80.000=0.207
;
#BGCHANGES:;

//---------------dance-single - Renard----------------
#NOTES:
     dance-single:
     Renard:
     Challenge:
     10:
     0.927,0.861,0.390,0.353,0.925:
0000
0000
0000
0000
,
0000
0000
0000
0000
,
0000
0000
0000
0000
,
0000
0000
0000
0000
,
1000
0100
0000
0010
0000
0001
0100
0001
0000
1000
0001
0000
0001
0000
1000
0001
,
1000
0001
0000
0100
0001
0000
1000
0000
0100
0010
0001
0000
1000
0000
0001
1000
,
0001
0100
0000
0001
0100
0000
0010
1000
0000
0001
0100
0000
0001
1000
0000
0001
,
1000
0000
0000
0000
0001
0000
0000
0000
1001
0000
0000
0000
0001
0000
0100
0001
0100
0000
0010
0000
0000
0000
1010
0000
0000
0000
1001
0000
0000
0000
1000
0000
,
0001
1000
0100
0010
0000
0001
0010
0001
1000
0100
1000
0001
2000
0000
0000
0000
,
3001
0100
0001
1000
0000
0001
0000
1000
0100
1000
0001
0010
0002
0000
0000
0000
,
1003
0100
1000
0001
0000
0010
0001
0000
1000
0010
0100
0001
2000
0000
0000
0000
,
3001
0100
0001
1000
0000
0100
1000
0000
0001
0010
0100
1000
0002
0000
0000
0000
,
1003
0001
0010
0100
0000
1000
0100
1000
0001
0010
0001
1000
0002
0000
0000
0000
,
1003
0010
1000
0001
0000
1000
0000
0001
0010
0001
1000
0100
2000
0000
0000
0000
,
3001
0010
0001
1000
0000
0100
1000
0000
0001
0100
0010
1000
0002
0000
0000
0000
,
1003
0000
0000
0010
0000
0000
1000
0000
0000
0001
0000
0000
0000
0000
0000
0010
0000
0000
0001
0000
0000
0000
0000
0000
1000
0000
0100
0000
1000
0000
0100
0000
0000
0000
0000
0000
1100
0000
0000
0000
0000
0000
0000
0000
0000
0000
0000
0000
,
0001
0010
0100
0000
1000
0010
0100
0000
0001
0100
0010
0000
1000
0100
0010
0000
,
0001
0010
0100
0000
1000
0001
0100
0000
0010
1000
0010
0000
1000
0001
1000
0000
,
0001
0100
0001
0000
0010
0100
0010
0000
0100
0010
0100
0000
1000
0100
1000
0000
,
0001
1000
0001
0000
0010
0001
0010
0000
0011
0000
0000
0110
0000
0000
2200
0000
,
3311
0000
0000
0000
1001
0000
0000
0000
0001
0100
0001
0000
1000
0100
1000
0000
,
0001
0010
0100
0000
0100
0010
0001
0000
1000
0100
0010
0000
0010
0100
1000
0000
,
0010
0100
0001
0000
0100
0010
1000
0000
0100
0010
0001
0000
0010
0100
1000
0000
,
0001
0010
0100
1000
0010
0100
0001
0100
0010
1000
0001
0100
0001
1000
0100
1000
,
0001
0000
0100
0000
1010
0000
0001
0100
0000
0100
0001
0000
1010
0000
0001
0000
,
1000
0000
0100
0000
0011
0000
0100
1000
0100
1000
0100
1000
0100
0000
0011
0000
,
0100
0000
1000
0000
1001
0000
0001
0100
0000
0010
0100
0000
0101
0000
0001
0000
,
0100
0000
0010
0000
1010
0000
1000
0010
0000
0010
1000
0000
1010
0000
1010
0000
,
1001
0000
0010
0000
0101
0000
1000
0010
0000
0010
1000
0000
0101
0000
1000
0000
,
0001
0000
0010
0000
1100
0000
0010
0001
0010
0001
0010
0001
0010
0000
1100
0000
,
0010
0000
0001
0000
1001
0000
1000
0010
0000
0100
0010
0000
1010
0000
1000
0000
,
0010
0000
0100
0000
0101
0000
0001
0100
0000
0100
0001
0000
0101
0000
0000
0000
,
0002
0000
0013
0000
0020
0000
0001
0000
0032
0000
0013
0001
0002
0000
0013
0000
,
0020
0000
0001
0000
0001
0000
0032
0000
0010
0000
0013
0001
0020
0000
0001
0000
,
0032
0000
0013
0000
0020
0000
0032
0000
0010
0000
0010
0010
0023
0000
0032
0000
,
0010
0000
0023
0000
0001
0000
0001
0000
0032
0000
0010
0013
0001
0000
0001
0000
,
2000
0000
3100
0000
0200
0000
1000
0000
2300
0000
3100
1000
2000
0000
3100
0000
,
0200
0000
1000
0000
1000
0000
2300
0000
0100
0000
3100
1000
0200
0000
1000
0000
,
2300
0000
3100
0000
0200
0000
2300
0000
0100
0000
0100
0100
3200
0000
2300
0000
,
0100
0000
3200
0000
1000
0000
1000
0000
2300
0000
0100
3000
1100
0000
0000
0000
,
0001
0000
0100
0000
0010
0000
1000
0000
0100
0000
0010
0001
0010
0000
0100
1000
,
0001
0000
0100
0000
0010
0000
1000
0000
0001
0000
0100
0010
1000
0000
0001
0010
,
0100
0000
1000
0000
0100
0000
0010
0000
0001
0000
1000
0010
0100
0000
0001
0100
,
0010
0000
1000
0100
0010
0000
0001
0000
0010
0000
0100
0000
1000
0000
0001
0000
,
1000
0000
0000
0000
1001
0000
0000
0000
0001
0100
0010
0000
1000
0000
0010
0000
,
0100
0000
0001
0000
0010
0000
0100
0000
1000
0000
0100
0010
0001
0000
0010
0100
,
1000
0000
0001
0000
0100
0000
0010
0000
1000
0000
0010
0100
0001
0000
0100
0010
,
1000
0000
0100
0000
0010
0000
0001
0010
0100
1000
0001
0000
1001
0000
0110
0000
,
1001
0000
0000
0000
0001
0000
0100
0000
0010
1000
0010
0100
0001
0000
0100
0010
,
1000
0001
0100
0010
0000
1000
0000
0010
0100
0001
0100
0010
1000
0000
0010
0000
,
0100
0001
0010
0100
0000
1000
0000
0100
0010
0001
0010
0100
1000
0000
0001
0000
,
0100
0010
1000
0001
0000
0100
0000
0010
1000
0001
1000
0010
1000
0000
0001
0000
,
1000
0100
0010
0001
0000
0010
0000
0100
1000
0100
1000
0001
1000
0000
0001
0000
,
1000
0001
0100
0010
0000
1000
0000
0001
0100
0010
1000
0001
0100
0000
0010
0000
,
1000
0100
0010
0001
0000
0010
0000
0100
1000
0001
1000
0010
0100
0000
0001
0000
,
1000
0002
0100
0000
0010
0003
0000
0011
0000
0000
0101
0000
1001
0000
0000
0000
,
1000
0100
0010
0000
0010
0000
0001
0010
0100
0000
0100
0000
1000
0000
0010
0000
,
0100
0001
0010
0000
0010
0000
0100
1000
0010
0000
0010
0000
0100
0000
0001
0000
,
1000
0100
0010
0000
0010
0000
0100
1000
0001
0000
0001
0000
0010
0100
1000
0000
,
0001
0100
0010
0000
0010
0000
1000
0010
0100
0001
1000
0000
1001
0000
0110
0000
,
1001
0000
0000
0000
0001
0000
0100
0010
1000
0010
0100
0000
0001
0000
0100
0010
,
1000
0100
0010
0000
0001
0000
0010
0100
1000
0000
0001
0000
1001
0000
0000
0000
,
0001
0100
0010
0000
1000
0000
0010
0100
0001
0100
0010
0000
1000
0000
0100
1000
,
0001
0000
0010
0000
0100
0000
1000
0001
0000
0000
1001
0000
1001
0000
0110
0000
;

//---------------dance-single - Renard----------------
#NOTES:
     dance-single:
     Renard:
     Hard:
     8:
     0.510,0.563,0.232,0.000,0.102:
0000
0000
0000
0000
,
0000
0000
0000
0000
,
0000
0000
0000
0000
,
0000
0000
0000
0000
,
1000
0100
1000
0100
,
0010
0001
0010
0001
,
1000
0010
1000
0010
,
0100
0000
0000
0000
0001
0000
0000
0000
0100
0001
0000
0100
0000
0001
0000
0100
,
0001
0000
0000
0000
1000
0000
0000
0000
0100
0010
0100
0000
0010
0000
0000
0000
,
0001
0000
0000
0000
1000
0000
0000
0000
0010
0100
0010
0000
0100
0000
0000
0000
,
0001
0000
0000
0000
1000
0000
0000
0000
0100
0010
0100
0000
0010
0000
0000
0000
,
0001
0000
0000
0000
1000
0000
0000
0000
0010
0100
0010
0000
0100
0000
0000
0000
,
0001
0000
0000
0000
1000
0000
0000
0000
0100
0010
0100
0000
0010
0000
0000
0000
,
0001
0000
0000
0000
1000
0000
0000
0000
0010
0100
0010
0000
0100
0000
0000
0000
,
0001
0000
0000
0000
1000
0000
0000
0000
0100
0010
0100
0000
0010
0000
0000
0000
,
0001
0000
1000
0000
0010
0100
0010
0000
,
0100
0001
1000
0000
0100
0010
0001
0000
,
1000
0010
0100
0000
0001
1000
0100
0000
,
1000
0001
0010
0000
0001
1000
0010
0000
,
0100
0001
1000
0000
0100
1000
0001
0000
,
0010
1001
0001
0100
,
0001
0000
1000
0000
0100
1000
0001
0000
,
0010
0000
0001
0000
1000
0010
0100
0000
,
0001
0000
1000
0000
0100
1000
0001
0000
,
0010
0000
0011
0000
0010
0100
1000
0000
,
0100
0000
1100
0000
1000
0010
0100
0000
,
0010
0000
0110
0000
0100
0001
0010
0000
,
0001
0011
0100
1100
,
1000
0000
1010
0000
0100
0001
1000
0000
,
0100
0000
1100
0000
0010
0001
1000
0000
,
0001
0000
0101
0000
0100
0010
1000
0000
,
0100
0000
1100
0000
0100
0010
0001
0000
,
1000
0000
1001
0000
0001
0100
0010
1000
,
0100
0000
0010
0000
0001
1000
0010
0100
,
0001
0000
1000
0000
0100
0000
0010
0001
,
1000
0001
0100
0010
,
1000
0000
0100
0000
0010
0000
0001
0000
0010
0000
0100
1000
0100
0000
1000
0000
,
0100
0000
0010
0000
0001
0000
1000
0000
0010
0000
0100
0001
0100
0000
0010
0000
,
1000
0000
0100
0000
0010
0000
0001
0000
1000
0000
0010
1000
0010
0000
1000
0000
,
0010
0000
0100
0000
0001
0000
0010
0000
0001
0000
0010
0100
0010
0000
0100
0000
,
1000
0000
0010
0000
0100
0000
0001
0000
0100
0000
0010
1000
0010
0000
1000
0000
,
0100
0000
0010
0000
0001
0000
1000
0000
0100
0000
0010
0001
0010
0000
0001
0000
,
0010
0000
0100
0000
1000
0000
0001
0000
0100
0000
0010
1000
0010
0000
1000
0000
,
0100
0000
0010
0000
0001
0000
1000
0000
0001
0000
0100
0001
0100
0000
0001
0000
,
0100
0000
0010
0000
1000
0000
0100
0000
0010
0000
0001
0010
0001
0000
0010
0000
,
0100
0000
1000
0000
0001
0000
0100
0000
0010
0000
1000
0100
1000
0000
0100
0000
,
1000
0000
0100
0000
0010
0000
0001
0000
1000
0000
0001
0100
0001
0000
0100
0000
,
0010
1000
0100
0010
0001
1000
0010
0000
,
0100
0000
0101
0000
0001
0100
0010
0000
,
1000
0000
1100
0000
1000
0100
0010
0000
,
0001
0000
1001
0000
1000
0010
0100
0000
,
0001
0000
1001
0000
1000
0100
0010
0000
,
0010
0000
0110
0000
0100
1000
0010
0000
,
0100
0000
0101
0000
0100
0010
1000
0000
,
0010
0000
1010
0000
1000
0100
0010
0001
,
1000
0000
1001
0000
0001
0100
0010
0000
,
0010
0000
1010
0000
1000
0100
0010
0000
,
0001
0000
1001
0000
0001
0100
0010
1000
,
0100
0000
0110
0000
0010
0001
1000
0010
,
0100
0000
0101
0000
0100
0010
1000
0000
,
0100
0000
0110
0000
0010
0001
1000
0000
,
0001
0000
0100
0000
0010
1000
0010
0000
,
1000
0000
1100
0000
1000
0100
0010
0000
,
0001
1000
0010
0000
0100
0001
0100
0000
;

//---------------dance-single - Renard----------------
#NOTES:
     dance-single:
     Renard:
     Medium:
     5:
     0.385,0.385,0.121,0.000,0.000:
0000
0000
0000
0000
,
0000
0000
0000
0000
,
0000
0000
0000
0000
,
0000
0000
0000
0000
,
1000
1000
1000
1000
,
0001
0001
0001
0001
,
1000
0001
1000
0001
,
0100
0000
0100
0000
0010
0000
1000
0010
,
1000
0000
0010
0000
0001
0100
0001
0000
,
0010
0000
1000
0000
0100
1000
0100
0000
,
1000
0000
0010
0000
0001
0100
0001
0000
,
0010
0000
1000
0000
0100
1000
0100
0000
,
1000
0000
0010
0000
0001
0100
0001
0000
,
0010
0000
1000
0000
0100
1000
0100
0000
,
1000
0000
0010
0000
0001
0100
0001
0000
,
0010
1000
0100
0100
,
1000
0100
1000
0100
,
1000
0100
1000
0100
,
0010
0001
0010
0001
,
0010
0000
0001
0000
1000
0001
1000
0001
,
1000
1001
1000
0001
,
0100
0000
0001
0000
1000
0100
1000
0000
,
0001
1001
1000
0001
,
0010
0000
0100
0000
1000
0100
1000
0000
,
0001
0100
0010
1000
,
0100
0000
1000
0000
0001
0010
0001
0000
,
0010
0100
1000
0001
,
0100
0000
0010
0000
1000
0001
1000
0000
,
0100
0010
0001
0010
,
0100
0000
1000
0000
0001
0100
0001
0000
,
1000
0100
0010
0001
,
1000
0000
0010
0000
1000
0010
1000
0000
,
0001
0101
0000
0101
,
0001
1000
0100
1000
,
0001
1001
0000
1001
,
0001
0010
0001
1000
,
0100
1100
0000
1100
,
1000
0000
0001
0000
0010
0000
0001
1000
,
0001
0000
0100
0000
0010
0000
1000
0001
,
1000
0100
0010
0001
,
0010
0000
0100
0000
1000
0000
0001
1000
,
0100
0000
0010
0000
0001
0000
1000
0001
,
0010
0000
0100
0000
1000
0000
0001
1000
,
0001
0000
0100
0000
0010
0000
1000
0001
,
1000
0000
0100
0000
0010
0000
0001
1000
,
0001
0000
0010
0000
0100
0000
1000
0001
,
1000
0000
0010
0000
0100
0000
0001
1000
,
0001
0010
0100
1000
,
0001
0000
1001
0000
0001
0100
0001
0000
,
1000
0000
1001
0000
1000
0100
1000
0000
,
0001
0000
1001
0000
0001
0100
0001
0000
,
1000
0000
1001
0000
1000
0100
1000
0000
,
0001
0000
1001
0000
1000
0001
0100
0000
,
0001
1000
0100
0100
,
1000
0000
0001
0000
0010
0001
0010
0000
,
0001
0000
1000
0000
0010
1000
0010
0000
,
0100
0000
0001
0000
1000
0100
1000
0000
,
0001
0000
0010
0000
0100
1000
0100
0000
,
1000
0000
0001
0000
0100
0001
0100
0000
,
0001
0000
0010
0000
0100
1000
0100
0000
,
1000
0000
0010
0000
0100
0001
0100
0000
,
0001
0000
0010
0000
0100
1000
0100
0000
,
1000
0000
0010
0000
1000
0001
1000
0000
,
0001
0000
0100
0000
0001
1000
0001
0000
;

//---------------dance-single - Renard----------------
#NOTES:
     dance-single:
     Renard:
     Easy:
     2:
     0.220,0.237,0.009,0.019,0.000: // measure 1
0000
0000
0000
0000
,  // measure 2
0000
0000
0000
0000
,  // measure 3
0000
0000
0000
0000
,  // measure 4
0000
0000
0000
0000
,  // measure 5
1000
0000
0000
0000
,  // measure 6
0001
0000
0000
0000
,  // measure 7
0100
0000
0000
0000
,  // measure 8
0010
0000
1000
0000
,  // measure 9
0001
0001
0001
0001
,  // measure 10
0100
0001
0100
0000
,  // measure 11
0001
0000
0001
0000
,  // measure 12
1000
0000
0100
0000
,  // measure 13
1000
1000
1000
1000
,  // measure 14
0001
0010
0001
0000
,  // measure 15
1000
0000
0100
0000
,  // measure 16
1000
0000
0001
0000
,  // measure 17
1000
0001
0000
0001
,  // measure 18
0100
0010
0000
0100
,  // measure 19
0010
1000
0000
0010
,  // measure 20
0100
0001
0100
0000
,  // measure 21
0001
1000
0000
0100
,  // measure 22
1000
0001
0000
1000
,  // measure 23
0001
0010
0000
0001
,  // measure 24
1000
0010
0000
0100
,  // measure 25
0001
0000
1000
0000
,  // measure 26
0100
1000
0100
0000
,  // measure 27
1000
0000
0001
0000
,  // measure 28
0010
0001
0010
0001
,  // measure 29
1000
0000
0010
0000
,  // measure 30
0100
0001
0100
0000
,  // measure 31
0001
0000
1000
0000
,  // measure 32
0100
1000
0100
1000
,  // measure 33
0100
0000
0100
0000
,  // measure 34
0010
0000
0010
0000
,  // measure 35
0001
0000
0001
0000
,  // measure 36
1000
1000
0001
0001
,  // measure 37
0100
0000
0001
0000
,  // measure 38
1000
0100
1000
0100
,  // measure 39
1000
0000
1000
0000
,  // measure 40
0001
0010
0001
1000
,  // measure 41
0001
0000
0001
0000
,  // measure 42
0100
0100
0100
0100
,  // measure 43
0010
0000
0010
0000
,  // measure 44
1000
1000
1000
1000
,  // measure 45
0001
0000
0010
0000
,  // measure 46
0001
0001
0001
0001
,  // measure 47
0010
0000
0010
0000
,  // measure 48
0100
0100
1000
0001
,  // measure 49
0100
0000
0100
0000
,  // measure 50
0001
0000
0001
0000
,  // measure 51
1000
0000
1000
0000
,  // measure 52
0100
0010
0001
1000
,  // measure 53
0001
0000
0100
0000
,  // measure 54
0010
0000
1000
0000
,  // measure 55
0010
0000
0100
0000
,  // measure 56
0001
1000
0100
1000
,  // measure 57
0001
0000
0001
0100
,  // measure 58
0001
0000
0001
0100
,  // measure 59
0001
0000
0001
0100
,  // measure 60
0002
0000
2003
0000
,  // measure 61
3001
0000
0001
1000
,  // measure 62
0100
0000
0100
1000
,  // measure 63
0001
0000
0010
0001
,  // measure 64
1000
0001
0010
1001
;
