#TITLE:Rainbow in the Sky;
#SUBTITLE:;
#ARTIST:DJ Paul Elstak;
#TITLETRANSLIT:;
#SUBTITLETRANSLIT:;
#ARTISTTRANSLIT:;
#CREDIT:;
#BANNER:rainbow.png;
#BACKGROUND:rainbow-bg.png;
#LYRICSPATH:;
#CDTITLE:;
#MUSIC:rainbow.ogg;
#OFFSET:0.000;
#SAMPLESTART:49.194;
#SAMPLELENGTH:12.000;
#SELECTABLE:YES;
#BPMS:0.000=178.000;
#STOPS:;
#BGCHANGES:;

//---------------dance-single - Renard----------------
#NOTES:
     dance-single:
     Renard:
     Hard:
     8:
     0.626,0.698,0.568,0.000,0.083:
0000
0000
0000
0000
,
0000
0000
0000
0000
,
0000
0000
0000
0000
,
0000
0000
0000
0000
,
0000
0000
0000
0000
,
0000
0000
0000
0000
,
0000
0000
0000
0000
,
0000
0000
0000
0000
,
0000
0000
0000
0000
,
1001
0000
0110
0000
,
1001
0110
1001
0110
,
1001
0000
0001
0000
0100
0010
1000
0001
,
0000
1000
0000
0100
0010
0001
0010
0000
,
0011
0000
0110
0000
0100
1000
0010
0100
,
0000
0110
0000
0001
0100
0010
1000
0000
,
1010
1001
1100
1001
,
1000
0100
0010
0001
0010
0100
0010
0000
,
0110
0000
1100
0000
0001
0010
0100
1000
,
0000
0001
0000
0100
0010
1000
0010
0000
,
1010
0000
1001
0000
1000
0100
0010
0001
,
0000
0011
0000
0010
0100
1000
0001
0000
,
0011
0000
0110
0000
0100
1000
0010
0100
,
0000
0110
0000
0001
0100
0010
1000
0000
,
1010
0000
1001
0000
1000
0100
0010
0001
,
0000
0011
0000
0010
0100
1000
0010
0000
,
1010
0000
1001
0000
1000
0100
0010
0001
,
0000
0001
0010
0100
1000
0001
1000
0001
,
1000
0000
1001
0000
0001
0100
0010
1000
,
0000
0000
0000
0010
1000
0001
0100
0010
,
0000
1000
0000
0100
0000
0010
0001
0010
,
0000
0100
0000
1000
0000
0010
0100
0001
,
0100
0010
1000
0100
,
0010
0000
0001
0000
0010
0100
1000
0010
,
0000
0100
0000
0010
0000
0100
0000
0001
,
0000
0100
0000
0010
0000
1000
0000
0100
,
0010
0000
0000
0000
,
0110
1100
0011
0110
,
0100
1000
0010
0100
0001
0010
0100
1000
,
0000
0001
0010
0100
1000
0001
0100
0010
,
1000
0000
1000
0010
0100
0000
0100
0001
,
0010
0000
0010
0001
1000
0000
1000
0010
,
0100
0001
0100
0010
0100
1000
0100
0010
,
0100
0001
0010
0100
0010
1000
0010
0100
,
1000
0000
1000
0010
0100
0000
0100
0001
,
0010
0000
0010
0100
1000
0010
0100
0001
,
0100
0010
0100
0001
0100
0010
1000
0100
,
0010
0001
0010
0100
1000
0001
1001
0000
,
0101
0000
0100
0000
0010
1000
0100
0010
,
0000
0001
0010
0000
0110
0000
1100
0000
,
1000
0000
0110
0000
0100
0001
0100
0010
,
0000
1010
0000
1001
0000
1000
0100
0010
,
0001
0000
0011
0000
0010
0100
1000
0001
,
0000
0011
0000
0010
0100
1000
0010
0000
,
1010
0000
0101
0000
0001
0100
0010
1000
,
0000
1001
0000
1000
0100
0010
0001
0000
,
0011
0110
1100
1001
,
1000
0010
0100
0001
0010
0100
0010
0000
,
0100
0000
1000
0000
0010
0000
1000
0000
0001
0000
1000
0100
0000
1000
0001
0000
,
1000
0000
0001
0000
0100
0000
0001
0000
0010
0000
0001
1000
0000
0001
0100
0000
,
0010
0000
1000
0000
0001
0000
1000
0000
0100
0000
1000
0001
0000
1000
0010
0000
,
1000
0000
0100
0000
0010
0000
0001
0000
1000
0000
0001
0100
0000
0001
0100
0000
,
0010
0000
1000
0000
0100
0000
0010
0000
0001
0000
0010
0001
0000
0010
0100
0000
,
1000
0000
0001
0000
1000
0000
0010
0000
1000
0000
0001
1000
0000
0010
1000
0000
,
0100
0000
1000
0000
0001
0000
0010
0000
0001
0000
1000
0010
0000
1000
0001
0000
,
1000
0000
0100
0000
0010
0000
0001
0000
0010
0000
0100
1000
0000
0001
0100
0000
,
0001
0000
0100
0000
0010
1000
0100
1000
,
0000
0001
0010
0000
0100
1000
0010
0100
,
0000
0001
0000
0100
0000
0010
1000
0100
,
0000
1000
0000
0001
0000
0010
0001
1000
,
0010
1010
1000
0101
,
1000
0000
1001
0000
1000
0001
0000
0101
,
0000
0110
0000
1010
0000
1000
0100
0010
,
0000
0001
0000
0010
0000
0100
1000
0010
,
0000
0101
0000
1001
0000
1000
0100
0010
,
0001
0000
0000
0000
0011
0000
0000
0000
0010
0000
0000
0100
0000
0000
0010
0000
,
1001
0000
0000
0000
;

//---------------dance-single - Renard----------------
#NOTES:
     dance-single:
     Renard:
     Medium:
     6:
     0.378,0.404,0.000,0.127,0.000:
0000
0000
0000
0000
,
0000
0000
0000
0000
,
0000
0000
0000
0000
,
0000
0000
0000
0000
,
0000
0000
0000
0000
,
0000
0000
0000
0000
,
0000
0000
0000
0000
1000
0100
0000
0010
,
0000
0010
0000
0010
0000
0001
0000
0100
,
0000
0010
0000
1000
0000
0100
0000
0010
,
0000
0010
0000
0010
0000
0000
0000
0000
,
0001
1000
0001
1000
,
0001
0000
0001
0000
0100
0001
0100
0001
,
0000
0001
0000
0000
1000
0000
1000
0000
,
0100
0000
0100
0000
1000
0100
1000
0100
,
0000
0100
0000
0000
0010
0000
0010
0000
,
0001
0000
1000
0000
0001
0000
1000
0001
,
0000
1000
0000
0000
0001
1000
0001
0000
,
0100
0100
0010
1000
,
0001
0000
1000
0000
,
0001
0001
0001
0001
,
1000
0100
1000
0100
,
1000
1000
1000
1000
,
0001
0000
0100
0001
0000
0000
0100
0000
,
0001
0001
1000
0100
,
1000
1000
0001
0100
,
0001
0010
0001
1000
,
0010
1000
0001
1000
,
0001
0000
0001
0000
2000
0000
0000
3200
,
0000
0000
0000
0000
,
0310
0001
1000
0010
,
0200
0000
0302
0000
,
0023
0000
0000
0000
,
0000
0000
0000
0000
0130
1000
0000
0010
,
0000
0100
0000
0001
0000
1000
0000
0100
,
0000
0010
0000
0001
0000
1000
0000
0001
,
0100
0000
0000
0000
,
0001
0001
0001
0001
,
1000
0000
1000
0000
0100
0000
0010
0001
,
0000
0000
0000
0000
0010
0000
0100
1000
,
0000
1000
0000
1000
0000
0001
0000
0100
,
0000
0000
0000
0001
0000
1000
0100
0010
,
0000
0010
0010
0010
,
0001
0000
0001
0000
1000
0001
0000
0100
,
0000
0100
0000
0100
0000
0001
0000
0010
,
0000
0100
0000
1000
0000
0001
0000
0100
,
0000
0010
0000
1000
0000
0100
0000
0010
,
0001
0001
0010
0100
,
1000
0000
1000
0000
1000
0000
0001
1000
,
0000
0000
0000
0000
0000
0000
0000
0001
,
0000
0100
0000
0010
0000
0000
0000
1000
,
0000
0000
0000
0010
0000
0100
0001
0100
,
0001
0000
0100
0100
,
0010
0000
0000
0000
1000
0000
1000
0100
,
0000
0010
0000
0001
0000
0001
0000
0010
,
0000
0000
0000
0100
0000
1000
0000
0001
,
0000
0001
0000
0100
0000
0000
0000
0000
,
0001
0001
1000
0100
,
0010
0001
0010
0000
0001
0000
0001
0000
,
0010
1000
0010
0000
0010
0000
0010
0000
,
0001
0010
0001
0000
0001
0000
0001
0000
,
0010
1000
0010
0000
0010
0000
0010
0000
,
0001
0010
0001
0000
0001
0000
0001
0000
,
0010
1000
0010
0000
0010
0000
0010
0000
,
0001
0010
0001
0000
0001
0000
0001
0000
,
0010
0100
1000
0010
,
0100
0000
0100
0000
0001
0000
1000
0100
,
0000
0000
0000
0000
0010
0000
0001
1000
,
0000
0010
0000
0100
0000
0001
1000
0200
,
0000
0000
0000
0320
0000
0000
0000
0032
,
0000
0000
1003
0001
,
0100
0000
0010
0000
1000
0100
0000
0010
,
0000
0010
0000
0010
0000
0001
0000
0002
,
0000
0000
0000
1003
0000
0001
0000
0100
,
0000
0010
0000
2000
0000
0000
0000
0000
,
3200
0320
0032
1000
,
1003
0000
0000
0000
;

//---------------dance-single - Renard----------------
#NOTES:
     dance-single:
     Renard:
     Easy:
     2:
     0.272,0.331,0.000,0.196,0.000: // measure 1
0000
0000
0000
0000
,  // measure 2
0000
0000
0000
0000
,  // measure 3
0000
0000
0000
0000
,  // measure 4
0000
0000
0000
0000
,  // measure 5
0000
0000
0000
0000
,  // measure 6
0000
0000
0000
0000
,  // measure 7
0000
0000
0000
0000
,  // measure 8
1000
1000
0000
1000
,  // measure 9
0001
0001
0000
0001
,  // measure 10
0100
0000
0100
0000
,  // measure 11
0010
0010
0010
0010
,  // measure 12
1000
1000
1000
0000
,  // measure 13
0001
0000
0001
0000
,  // measure 14
1000
1000
1000
0000
,  // measure 15
0001
0000
0001
0000
,  // measure 16
0100
0010
0100
0010
,  // measure 17
0100
0100
0010
0010
,  // measure 18
0100
0010
0100
0010
,  // measure 19
0100
0010
0100
0010
,  // measure 20
1000
0001
1000
0001
,  // measure 21
1000
0100
0010
0001
,  // measure 22
1000
0001
1000
0001
,  // measure 23
0010
0100
1000
0001
,  // measure 24
1000
0100
0010
0001
,  // measure 25
1000
0001
0010
0100
,  // measure 26
1000
0001
1000
0001
,  // measure 27
1000
1000
0001
1000
,  // measure 28
0001
0000
0000
0000
,  // measure 29
0000
0000
0000
0000
,  // measure 30
0100
0000
0000
0000
,  // measure 31
0010
0000
0000
0000
,  // measure 32
1000
0000
0000
0000
,  // measure 33
0000
0000
0000
0000
,  // measure 34
0100
0000
0000
0000
,  // measure 35
0010
0000
0000
0000
,  // measure 36
0001
0000
0000
0000
,  // measure 37
1000
1000
1000
1000
,  // measure 38
0001
0001
0100
0010
,  // measure 39
0000
0000
1000
1000
,  // measure 40
0100
0100
0010
0000
,  // measure 41
0001
0001
1000
0000
,  // measure 42
0010
0000
0100
0000
,  // measure 43
0001
0000
1000
1000
,  // measure 44
0100
0000
0010
0001
,  // measure 45
0010
0000
0001
0000
,  // measure 46
1000
0000
0001
0000
,  // measure 47
0100
0001
1000
0000
,  // measure 48
0100
0100
0100
0000
,  // measure 49
0010
0000
0001
0000
,  // measure 50
0010
0010
0100
0000
,  // measure 51
1000
0000
0001
0000
,  // measure 52
0100
0100
0001
0000
,  // measure 53
1000
0000
0100
0000
,  // measure 54
0010
0010
0001
0000
,  // measure 55
1000
0000
0010
0000
,  // measure 56
0100
0100
0001
0000
,  // measure 57
1000
0100
0010
0001
,  // measure 58
2000
0000
0000
0000
,  // measure 59
3002
0000
0000
0000
,  // measure 60
2003
0000
0000
0000
,  // measure 61
3002
0000
0000
0000
,  // measure 62
2003
0000
3200
0000
,  // measure 63
0320
0000
0032
0000
,  // measure 64
2003
0000
3200
0000
,  // measure 65
0320
0000
0032
0000
,  // measure 66
1003
1000
1000
0000
,  // measure 67
1000
0000
1000
0000
,  // measure 68
0001
0001
0001
0000
,  // measure 69
0001
0000
0001
0000
,  // measure 70
0100
0100
0100
0000
,  // measure 71
0100
0000
0100
0000
,  // measure 72
0010
0010
0010
0000
,  // measure 73
2000
0000
3002
0000
,  // measure 74
0203
0000
0302
0000
,  // measure 75
2003
3200
0320
0032
,  // measure 76
1003
0000
0000
0000
;
