#TITLE:Radius;
#SUBTITLE:;
#ARTIST:KURi-ZiLL;
#TITLETRANSLIT:;
#SUBTITLETRANSLIT:;
#ARTISTTRANSLIT:;
#CREDIT:;
#BANNER:radius.png;
#BACKGROUND:radius-bg.png;
#LYRICSPATH:;
#CDTITLE:;
#MUSIC:radius.ogg;
#OFFSET:0.000;
#SAMPLESTART:25.183;
#SAMPLELENGTH:12.000;
#SELECTABLE:YES;
#BPMS:0.000=152.000;
#STOPS:;
#BGCHANGES:;

//---------------dance-single - BlueChaos----------------
#NOTES:
     dance-single:
     BlueChaos:
     Challenge:
     11:
     0.843,0.811,0.348,0.268,0.928:
0000
0000
0000
0000
,
0000
0000
0000
0000
,
0000
0000
0000
0000
,
0000
0000
0000
0000
,
1001
0000
2000
0000
0000
3002
0000
0203
,
0000
0000
0000
0000
0000
0000
0302
0000
0020
0003
0000
0000
0130
0000
0000
0000
,
2100
0000
0000
0002
0000
0000
3003
0000
,
1000
0000
0001
0000
0010
0000
0001
0010
0000
0100
0000
1000
0010
0000
0100
0000
,
0001
0100
0010
0100
0001
0010
0100
0010
,
0001
0010
0100
1000
0010
0100
0010
1000
,
0100
0010
0001
0100
0010
0200
0302
2003
,
3010
0000
0100
0000
0001
0000
1000
0100
0000
0010
0000
0001
0100
0000
0010
0000
,
0100
0010
1000
0100
0010
0100
1000
0001
,
0100
0010
0100
0001
0020
0032
0203
0320
,
1030
0010
0100
0001
1000
0001
0100
0001
,
0011
0000
0010
0000
0100
0000
1100
0000
0100
0010
0100
0000
0010
0000
1001
0000
,
0001
0000
0100
0010
0100
0000
0001
0100
0001
0000
1000
0100
1000
0000
0001
0010
,
0100
0000
0010
0001
0100
0000
0001
1000
0010
0000
1000
0010
0100
0000
0010
0100
,
1000
0000
0100
0001
0010
0000
0001
0010
0100
0000
0001
0100
0010
0000
0100
0010
,
0002
0100
0100
0103
0000
0110
0010
1000
,
1001
0000
0001
0010
0100
0000
1000
0010
0100
0000
0010
0100
1000
0000
0100
0001
,
1000
0000
0100
0010
1000
0000
0010
0001
0100
0000
0001
0100
1000
0000
0100
0001
,
0010
0000
0001
0010
1000
0000
0010
0100
1000
0000
0001
0010
0100
0000
0010
0000
,
1001
0000
0100
0000
0010
0000
0100
0010
0000
1000
0000
0001
0010
0000
1100
0000
,
1000
0000
0000
0000
0000
0000
0001
0000
0000
0000
0000
0000
0100
0000
0000
0000
0000
0000
0010
0000
1000
0000
0010
0000
1000
0000
0000
0001
0000
0000
1000
0000
0000
0000
0000
0000
0001
0000
0000
0100
0000
0000
0001
0000
0000
0000
0000
0000
,
1000
0000
0000
0000
0000
0000
0001
0000
0000
0000
0000
0000
0100
0000
0000
0000
0000
0000
0001
0000
0000
0000
0000
0000
0002
0000
0000
0000
0000
0000
0000
0000
0000
0200
0003
0000
0000
0000
0000
0000
0000
0000
0320
0000
0000
0000
0000
0000
,
2030
0000
0000
0000
0000
0000
0000
0000
0000
0000
0000
0000
3100
0000
0000
0000
0000
0000
0010
0000
0001
0000
0010
0000
0001
0000
0000
1000
0000
0000
0001
0000
0000
0000
0000
0000
1000
0000
0000
0100
0000
0000
1000
0000
0000
0000
0000
0000
,
0001
0000
0100
0000
0001
0000
0010
0000
1100
0000
0000
1010
0000
0000
1001
0000
,
0100
0000
0000
0000
0000
0000
0001
0000
0000
0000
0000
0000
0100
0000
0000
0000
0000
0000
0010
0000
1000
0000
0010
0000
1000
0000
0000
0001
0000
0000
1000
0000
0000
0000
0000
0000
0001
0000
0000
0100
0000
0000
0001
0000
0000
0000
0000
0000
,
1000
0000
0010
0000
0100
0000
0010
0000
1000
0000
0000
1000
0000
0000
1000
0000
,
0001
0011
00MM
0011
00MM
0010
0100
0010
,
0M00
0011
0110
1100
MM00
1000
0010
0010
,
0100
0000
0001
0100
0010
0000
0100
0001
0010
0000
0001
0010
0100
0000
0010
0001
,
0100
0000
0001
0100
1000
0000
0100
0010
1000
0000
0010
0100
0001
0000
1000
0100
,
0010
0000
0100
0010
1000
0000
0010
0001
0100
0000
0001
0100
1000
0000
0100
0001
,
0010
0001
1000
1001
0000
0101
0100
0010
,
1000
0000
0010
0100
1000
0000
0100
0010
1000
0000
0001
0010
0100
0000
0010
0001
,
0100
0000
0001
0100
1000
0000
0100
0010
1000
0000
0100
0010
0001
0000
0010
0100
,
1000
0000
0001
0100
0010
0000
0100
0010
0001
0000
0010
1000
0100
0000
1000
0100
,
0010
0001
0100
0101
0000
1001
1000
0100
,
0010
0000
0000
0000
0000
0000
0000
0000
0000
0001
0000
0000
0000
0000
0000
0000
0000
0000
0100
0000
0010
0000
0100
0000
0010
0000
0000
1000
0000
0000
0010
0000
0000
0000
0000
0000
0100
0000
0000
0001
0000
0000
0100
0000
0000
0000
0000
0000
,
0001
0000
0010
0000
0001
0000
0100
0000
0002
0000
0000
0203
0000
0000
0320
0000
,
1030
0000
0000
0000
0000
0000
0010
0000
0000
0000
0000
0000
0100
0000
0000
0000
0000
0000
0001
0000
1000
0000
0001
0000
1000
0000
0000
0010
0000
0000
1000
0000
0000
0000
0000
0000
0001
0000
0000
0100
0000
0000
0001
0000
0000
0000
0000
0000
,
1000
0000
0001
0000
0010
0000
0001
0000
0011
0000
0000
0110
0000
0000
1100
0000
,
1000
0000
0000
0000
0000
0000
0100
0000
0000
0000
0000
0000
0010
0000
0000
0000
0000
0000
0001
0000
0010
0000
0001
0000
0010
0000
0000
0001
0000
0000
1000
0000
0000
0000
0000
0000
0001
0000
0000
0100
0000
0000
0010
0000
0000
1000
0000
0000
,
0100
0000
1000
0000
0100
0000
0010
0000
0001
0000
0000
0001
0000
0000
0001
0000
,
0000
0101
0M0M
0101
0M0M
0100
0010
0100
,
00M0
0101
0110
1010
00M0
1000
1000
1000
,
0100
0000
1000
0000
0010
1000
0000
0001
0100
0000
0001
0010
0000
0001
1000
0000
,
1001
0000
0000
0000
0000
0000
0000
0000
0000
0000
0000
0000
1000
0000
0000
0000
0100
0000
0000
0000
0010
0000
0000
0000
0001
0000
0000
0000
1000
0000
0000
0000
0100
0000
0000
0000
0010
0000
0000
0001
0000
0000
0010
0000
0000
0001
0000
0000
,
0010
0000
0001
0000
0100
0000
0010
0000
1000
0000
0001
0000
,
0020
0000
0000
0031
0100
0010
1000
0000
0000
0001
0010
0100
,
1000
0000
0100
0000
0010
0000
0001
0000
0100
0000
0010
0000
,
2000
0000
0000
3001
0100
0010
1000
0000
0000
0010
1000
0100
,
0020
0000
0031
00M0
0200
0000
0310
0M00
,
2000
0000
0000
0000
0000
0000
3001
0000
0000
M000
0000
0000
0000
0000
0000
0000
1001
0000
0000
0000
1001
0000
0000
0000
,
2000
0000
3010
M000
0200
0000
0301
0M00
,
2000
0000
0000
0000
0000
0000
3100
0000
0000
M000
0000
0000
0000
0000
0000
0000
1001
0000
0000
0000
1001
0000
0000
0000
,
1000
0100
0010
0001
1000
0100
0010
0001
1000
0100
0010
0001
,
0100
0010
1000
0001
0100
0010
1000
0001
0100
0010
1000
0001
,
0100
0010
0100
0001
0100
0010
1000
0100
0010
0100
1000
0001
,
0010
0100
0010
0001
1000
0001
0100
0010
0100
0001
1000
0100
,
0010
0001
0100
0010
1000
0001
0010
0100
0010
0001
1000
0010
,
0100
0010
1000
0100
0010
0001
0010
0100
0010
0001
0100
0010
,
1000
0010
0100
0001
1000
0001
0100
0010
0100
0001
0100
0010
,
1010
0000
1000
1100
0000
0100
0110
0000
0010
0011
0000
0001
,
1001
0000
0000
0001
0100
0010
0000
0100
0010
1000
0001
0010
,
0000
0100
0010
0001
1000
0010
0000
0100
0010
1000
0100
0000
,
1000
0100
1000
0001
1000
0010
1000
0100
0010
0001
0100
1000
,
0100
0001
0100
0010
1000
0010
0001
0010
1000
0100
0010
0001
;

//---------------dance-single - Renard----------------
#NOTES:
     dance-single:
     Renard:
     Hard:
     8:
     0.582,0.593,0.223,0.000,0.478:
0000
0000
0000
0000
,
0000
0000
0000
0000
,
0000
0000
0000
0000
,
0000
0000
0000
0000
,
0000
0000
0000
0000
,
0000
0000
0000
0000
,
0000
0000
0000
0000
,
0000
0000
0000
0000
,
1000
0000
0001
0000
0100
0000
0010
0000
1000
0000
0100
1000
0100
0000
1000
0000
,
0001
0010
0100
1000
0001
0000
0101
0000
,
1000
0000
0100
0000
0010
0000
0001
0000
1000
0000
0001
0100
0001
0000
0100
0000
,
0010
0000
1000
0000
0100
0000
0010
0000
0001
0000
1000
0010
1000
0000
0001
0000
,
0100
0000
0010
0000
1000
0000
0100
0000
0010
0000
0001
0010
0001
0000
0010
0000
,
0100
0000
1000
0000
0001
0000
0100
0000
0010
0000
1000
0010
1000
0000
0001
0000
,
0100
0001
1000
0100
0010
0001
0010
0100
,
1000
0010
0100
0001
0000
1100
0011
1100
,
0000
0010
0001
0100
0000
0100
0010
1000
,
0000
1000
0100
0010
0000
0010
0001
1000
,
0000
1000
0010
0100
0001
0010
0100
1000
,
0100
0010
0001
0010
0000
0110
0110
0110
,
0000
0100
1000
0010
0000
0100
0001
0010
,
0000
0010
0001
1000
0000
1000
0010
0100
,
0000
0001
0010
0100
1000
0010
0100
0001
,
1000
0001
1001
1001
0000
0100
0001
0100
,
0100
0000
0000
0100
0000
0000
0100
0000
0010
1000
0010
0000
0000
0000
0000
0000
,
1000
0000
0000
1000
0000
0000
1000
0000
0100
0000
0010
0000
0001
0000
1000
0000
,
0010
0000
0000
0010
0000
0000
0010
0000
0100
0001
0100
0000
0000
0000
0000
0000
,
0010
0000
0000
0010
0000
0000
0010
0000
1000
0000
0000
0100
0000
0000
0010
0000
,
0001
0000
0000
0001
0000
0000
0001
0000
0010
0100
0010
0000
0000
0000
0000
0000
,
0100
0000
0000
0100
0000
0000
1000
0000
0010
0000
0000
0000
0100
0000
0000
0000
,
0001
0100
0010
1000
0000
0110
0110
0000
,
0100
0001
0010
0100
0000
0110
0110
0110
,
0000
0100
0001
1000
0000
1000
0100
0010
,
0000
0010
0001
1000
0000
1000
0010
0100
,
0000
0100
0001
0010
0100
1000
0100
0010
,
0001
1000
0010
0100
0000
1001
1001
1001
,
0000
1000
0100
0010
0000
0010
0100
1000
,
0000
0001
0010
0100
0000
0100
0010
0001
,
0000
1000
0010
0100
0001
0010
0100
1000
,
0010
0100
0001
1000
0000
0100
0010
0001
,
1000
0000
0000
1000
0000
0000
1000
0000
0001
0010
0001
0000
0000
0000
0000
0000
,
1000
0000
0000
1000
0000
0000
1000
0000
0001
0000
0100
0000
0010
0000
1000
0000
,
0001
0000
0000
0001
0000
0000
0001
0000
1000
0100
1000
0000
0000
0000
0000
0000
,
0001
0000
0000
0001
0000
0000
0001
0000
1000
0000
0000
1000
0000
0000
1000
0000
,
0010
0000
0000
0100
0000
0000
0001
0000
1000
0100
1000
0000
0000
0000
0000
0000
,
0001
0000
0000
0010
0000
0000
0100
0000
1000
0000
0010
0000
0100
0000
0001
0000
,
0010
0001
1000
0010
0000
0110
0110
0000
,
0010
1000
0100
0010
0000
1001
1001
0000
,
0001
0000
0000
0000
0000
0000
0100
0000
0000
0000
0000
0000
0010
0000
0000
1000
0000
0000
0000
0000
0000
0010
0000
0000
0100
0000
0000
0000
0000
0000
0100
0000
0000
0001
0000
0000
0000
0000
0000
1000
0000
0000
0010
0000
0010
0000
0000
0000
,
0100
0000
0000
0000
,
0100
0000
0001
0000
0100
0000
0010
0000
1000
0000
0100
0000
,
0010
0000
0000
0010
0001
0010
0001
0000
0000
1000
0100
1000
,
0100
0000
1000
0000
0100
0000
0010
0000
0001
0000
1000
0000
,
0010
0000
0000
0100
0001
0100
0001
0000
0000
1000
0010
1000
,
0010
0000
0000
1000
0000
0100
0010
0000
0000
0001
0000
0010
,
0100
0000
0000
1000
0000
0000
0001
0000
0110
0000
0110
0000
,
1000
0000
0000
0010
0000
0100
0001
0000
0000
1000
0000
0100
,
0010
0000
0000
0001
0000
0000
1000
0000
0110
0000
0110
0000
,
0010
0000
0010
1000
0000
1000
0010
0000
0010
1000
0000
1000
,
0001
0000
0001
0100
0000
0100
0001
0000
0001
0100
0000
0100
,
0001
0000
0001
0010
0000
0010
0001
0000
0001
0010
0000
0010
,
0100
0000
0100
1000
0000
1000
0100
0000
0100
1000
0000
1000
,
0001
0000
0001
0100
0000
0100
0001
0000
0001
0100
0000
0100
,
0010
0000
0010
1000
0000
1000
0010
0000
0010
1000
0000
1000
,
0100
0000
0100
1000
0000
1000
0100
0000
0100
1000
1000
0000
,
0001
0000
0001
0010
0000
0010
0001
0000
0001
0010
0000
0010
,
0100
0000
1000
0100
0000
0010
0001
0000
0010
0100
0000
1000
,
0010
0000
0100
0001
0100
0010
0000
0000
1000
0010
1000
0100
,
0010
0000
0001
0010
0000
0100
1000
0000
0100
0010
0000
0001
,
0010
0000
0100
1000
0100
0010
0001
0010
0100
1000
0001
0100
;

//---------------dance-single - Renard----------------
#NOTES:
     dance-single:
     Renard:
     Medium:
     6:
     0.332,0.406,0.062,0.018,0.049:
0000
0000
0000
0000
,
0000
0000
0000
0000
,
0000
0000
0000
0000
,
0000
0000
0000
0000
,
0000
0000
0000
0000
,
0000
0000
0000
0000
,
0000
0000
0000
0000
,
0000
0000
0000
0000
,
1000
0000
0001
0100
0001
0000
1000
0000
,
0100
0000
0010
0001
0010
0000
0100
0000
,
1000
0000
0001
0100
0001
0000
1000
0000
,
0100
0000
0010
0001
0010
0000
0011
0000
,
0001
0000
1000
0100
1000
0000
0001
0000
,
0100
0000
0010
1000
0010
0000
1000
0000
,
0001
0000
1000
0100
1000
0000
0001
0000
,
0010
0100
1000
0100
0000
1000
0001
1000
,
0000
0000
0000
0010
0000
0000
0000
0100
,
0000
0000
0000
0001
0000
0000
0000
1000
,
0000
0000
0100
0000
0010
0001
0010
0100
,
1000
0100
0010
0001
0010
0100
1000
0001
,
0000
0000
0000
1000
0000
0000
0000
0001
,
0000
0000
0000
0100
0000
0010
1000
0010
,
0000
1000
0010
0100
,
0001
1000
0001
1000
0000
0000
0010
0000
,
0100
0000
0100
0000
0001
1000
0000
0000
,
0001
0000
0001
0000
0010
0100
1000
0000
,
0100
0000
0100
0000
1000
0001
0000
0000
,
0100
0100
0010
0010
,
1000
0000
1000
0000
0001
0010
0000
0000
,
0100
0100
1000
0001
,
0000
0100
0000
0100
0000
0010
1000
0000
,
0000
0010
0000
0010
0000
0100
0001
0000
,
0100
0100
0010
0010
,
1000
1000
0100
0100
,
0010
0010
0010
0010
,
0001
0000
1000
0001
0000
0100
0010
0100
,
0000
0010
1000
0001
,
0100
0001
1000
0100
,
0010
0010
0001
0001
,
1000
0001
0100
0001
0000
1000
0100
0000
,
1000
0000
1000
0000
0001
0010
0000
0000
,
0001
0001
1000
1000
,
0100
0000
0100
0000
1000
0010
0000
0000
,
0100
0100
0002
0023
,
0130
0000
0100
0000
1000
0001
0000
0000
,
0100
0100
0010
1000
,
0000
0101
0000
1001
0000
0000
0000
0000
,
0000
1010
0000
1001
0000
0000
0000
0000
,
1000
0001
0100
0100
,
0010
0000
0000
0000
,
0100
0001
1000
0100
,
0010
0000
0001
0000
,
0010
0100
1000
0010
,
0100
0000
0001
0000
,
0100
0000
0110
0000
,
1001
0000
0000
0000
0000
0000
0000
0000
0010
0000
0010
0000
,
1000
1000
0010
0010
,
0100
0000
0000
0100
0000
0000
0000
0000
0001
0000
0001
0000
,
1000
1000
0100
0100
,
0010
0000
0000
0010
0000
0000
0001
0000
0000
0001
0000
1000
,
0001
0001
0100
0100
,
0010
0000
0000
0010
0000
0000
1000
0000
0000
1000
0000
0001
,
1000
1000
0100
0100
,
0010
0000
0000
0010
0000
0000
0001
0000
0000
0001
0000
1000
,
0001
0001
0100
0100
,
0010
0000
0000
0010
0000
0000
1000
0000
1000
0001
0000
0001
,
1000
0001
0000
0100
,
0000
0010
0000
1000
,
0100
0010
0001
0010
,
0100
0000
0000
1000
0000
0000
0100
0000
0000
0010
0001
0010
;

//---------------dance-single - Renard----------------
#NOTES:
     dance-single:
     Renard:
     Easy:
     2:
     0.209,0.280,0.036,0.062,0.000: // measure 1
0000
0000
0000
0000
,  // measure 2
0000
0000
0000
0000
,  // measure 3
0000
0000
0000
0000
,  // measure 4
0000
0000
0000
0000
,  // measure 5
0000
0000
0000
0000
,  // measure 6
0000
0000
0000
0000
,  // measure 7
0000
0000
0000
0000
,  // measure 8
0000
0000
0000
0000
,  // measure 9
1000
0000
0001
1000
,  // measure 10
0001
0000
0100
0000
,  // measure 11
0010
0000
0100
1000
,  // measure 12
0100
0000
0010
0001
,  // measure 13
1000
0000
0001
0000
,  // measure 14
0100
0000
0001
1000
,  // measure 15
0100
0000
0010
0000
,  // measure 16
0001
0000
0000
0000
0000
0000
0000
1000
,  // measure 17
0000
0000
0000
0001
0000
0000
0000
1000
,  // measure 18
0000
0000
0000
0100
0000
0000
0000
0010
,  // measure 19
0000
0000
0000
0000
,  // measure 20
0001
0000
0000
0010
0000
0000
0000
0100
,  // measure 21
0000
0000
0000
1000
0000
0000
0000
0001
,  // measure 22
0000
0000
0000
0100
0000
0000
0000
0001
,  // measure 23
0000
0000
1000
0100
,  // measure 24
0010
0000
0000
0001
0000
0000
0010
0000
,  // measure 25
0100
0000
1000
0000
,  // measure 26
0001
0000
0100
0100
,  // measure 27
0001
0000
1000
0000
,  // measure 28
0100
0000
0010
0010
,  // measure 29
0001
0000
0001
0000
,  // measure 30
1000
0000
0010
0010
,  // measure 31
0000
0100
0000
0100
0000
0000
0000
0000
,  // measure 32
0000
0001
0000
0001
0000
0000
0000
0000
,  // measure 33
1000
0000
0100
0000
,  // measure 34
0010
0000
0001
0000
,  // measure 35
1000
0001
0100
0001
,  // measure 36
1000
0000
0000
0000
0100
0000
0000
0010
,  // measure 37
0000
0000
0000
0001
0000
0000
0000
1000
,  // measure 38
0000
0000
0000
0001
0000
0000
0000
0100
,  // measure 39
0000
0000
0001
1000
,  // measure 40
0100
0000
0000
0010
0000
0000
0000
0000
,  // measure 41
0001
0001
0001
0000
,  // measure 42
0010
0000
0100
0000
,  // measure 43
1000
1000
0010
0000
,  // measure 44
0100
0000
0001
0000
,  // measure 45
0010
0010
0100
0000
,  // measure 46
1000
0000
0001
0000
,  // measure 47
0000
0010
0000
0001
0000
0000
0000
0000
,  // measure 48
0000
1000
0000
0010
0000
0000
0000
0000
,  // measure 49
0100
0100
0100
0100
,  // measure 50
0020
0000
0000
0000
,  // measure 51
1030
1000
1000
1000
,  // measure 52
0001
0101
0001
0000
,  // measure 53
0001
0001
0001
0001
,  // measure 54
1000
1100
1000
0000
,  // measure 55
0002
0000
0023
0000
,  // measure 56
0230
0000
1000
1300
,  // measure 57
2000
0000
3020
0000
,  // measure 58
0230
0000
0000
0301
,  // measure 59
0001
0000
0000
0000
,  // measure 60
0101
0000
0000
0000
,  // measure 61
0010
0000
0000
0000
,  // measure 62
1010
0000
0000
0000
,  // measure 63
1000
1000
0001
0001
,  // measure 64
1000
1000
0001
0001
,  // measure 65
0010
0010
0100
0100
,  // measure 66
0010
0010
0100
0100
,  // measure 67
0000
0010
0000
0001
,  // measure 68
0000
1000
0000
0001
,  // measure 69
0001
0100
0010
1000
,  // measure 70
0100
0010
0001
1000
;
