#TITLE:R176;
#SUBTITLE:;
#ARTIST:Cranky;
#TITLETRANSLIT:;
#SUBTITLETRANSLIT:;
#ARTISTTRANSLIT:;
#CREDIT:;
#BANNER:r176.png;
#BACKGROUND:r176-bg.png;
#LYRICSPATH:;
#CDTITLE:;
#MUSIC:r176.ogg;
#OFFSET:0.000;
#SAMPLESTART:31.579;
#SAMPLELENGTH:12.000;
#SELECTABLE:YES;
#BPMS:0.000=190.000;
#STOPS:;
#BGCHANGES:;

//---------------dance-single - Renard----------------
#NOTES:
     dance-single:
     Renard:
     Hard:
     9:
     0.690,0.697,0.396,0.053,0.026:
0000
0000
0000
0000
,
0000
0000
0000
0000
,
0000
0000
0000
0000
,
0000
0000
0000
0000
,
0000
0000
0000
0000
,
1001
0000
0100
0010
1000
0010
0100
0000
,
0001
0010
0100
1000
,
0101
0000
0010
1000
0000
0101
0000
0010
,
1000
0000
0100
0010
0001
0000
0010
0100
,
1000
0000
0001
0000
0100
0010
1000
0010
,
0100
0001
0100
0010
,
1000
0000
1100
0000
0000
0000
0010
0001
,
0100
0000
0101
0000
0100
0010
1000
0100
,
0010
0000
0001
0010
0100
1000
0001
0000
,
1001
0000
0100
0010
1000
0100
0010
0001
,
1000
0000
0001
0100
0010
1000
0001
1000
,
0100
1000
0001
0010
,
0100
0000
1000
0001
0100
0010
0000
0010
,
1000
0000
0001
0100
0010
1000
0000
1000
,
1001
0000
0000
0000
,
0001
010M
1M00
M100
,
M001
0000
0M01
00M1
0000
0000
0000
0M01
,
M001
M001
00M1
0M01
00M1
0000
MM01
0000
,
1001
0000
0110
0000
1001
0000
1000
0100
,
0010
0011
0110
1000
,
0001
0000
0110
0000
1000
0100
0010
0000
,
0011
0000
0010
0100
1000
0001
0100
0010
,
0100
0110
1000
1001
,
1000
0100
0010
0001
0010
0000
0100
0000
,
1000
0000
1000
0001
0100
0010
1000
0010
,
0100
0000
0100
0001
0100
0010
1000
0100
,
0010
0000
0001
0010
0100
0000
0010
0100
,
1000
0000
0010
0100
0001
0000
0100
0010
,
1000
0000
0100
0010
0001
0000
0010
0100
,
1000
0001
0100
0010
1000
0100
0010
0001
,
0010
0000
0100
1000
0001
0000
0100
0010
,
1000
0000
0010
0100
0001
0000
0010
0100
,
1000
0000
0001
0100
0001
0000
1000
0100
,
0010
0001
1000
0001
1000
0001
1000
0001
,
0100
0010
1000
0010
0000
1010
0000
0100
,
0001
0010
0100
0010
0000
0110
0000
0100
,
1000
0001
0100
0010
0000
0110
0000
0010
,
1000
0000
0100
0000
0010
0000
0001
0000
0011
0000
0000
0011
0000
0000
0011
0000
,
0100
1000
0010
0100
0000
0101
0000
0100
,
0010
1000
0100
0010
0000
0110
0000
0010
,
0100
1000
0001
0100
0000
0001
0100
0010
,
0100
0010
1000
0100
0010
0000
0110
0000
,
0100
0000
1000
0000
0100
1000
0100
1000
,
0100
0000
0100
0010
0000
0010
0001
0100
,
0010
0000
0010
0000
1000
0010
1000
0010
,
02M0
0000
00M0
0300
02M0
0000
00M0
0300
02M0
0000
00M0
0300
02M0
0000
00M0
0300
,
0110
0000
0101
0000
0100
0010
1000
0100
,
1000
0000
0100
0010
0000
0001
0010
0100
,
1000
0000
1001
0000
1000
0010
0100
0001
,
0100
0100
0010
1000
0100
0010
0001
0010
,
0100
0000
0000
0000
1000
0000
0000
0000
0001
0000
0100
0001
0100
0000
0001
0000
,
0100
0010
1000
0100
0010
0010
0010
0000
,
0001
0000
0000
0000
0001
0000
0010
0000
0100
0000
1000
0100
1000
0000
0100
0000
,
1000
0001
0100
0010
1000
0000
0010
0000
,
0100
0000
0001
0100
0010
0000
1000
0000
,
0100
0000
0000
0000
0010
0000
0001
0000
0010
0000
0100
0010
0100
0000
0010
0000
,
0100
0000
1000
0010
0100
0001
0100
0010
,
1000
0001
0100
0010
1000
0001
0100
0010
,
1000
0000
0001
1000
0001
0000
1000
0000
0001
0000
0100
0000
0010
0000
1000
0000
,
0100
0010
0001
0010
0100
1000
0001
0100
,
0010
0000
1000
0010
1000
0000
0010
0000
1000
0000
0001
0000
0100
0000
0100
0000
,
0010
0100
0010
0001
1000
0010
0100
0001
,
1000
0001
0100
0010
0000
0110
0000
1010
,
0000
1000
0010
0000
0100
0001
0000
0010
,
0100
1000
0001
0010
0000
0110
0000
0100
,
1000
0001
0010
0100
1000
0000
1MM1
0000
,
0001
0000
0100
0000
0010
1000
0010
0100
,
0001
1100
0011
1100
,
1001
0000
0101
0000
0100
0010
1000
0000
,
1100
0000
1000
0100
0010
0001
0010
0100
,
1000
0000
0001
0010
0000
0001
1000
0010
,
0100
0000
0001
0100
0010
1000
0001
0100
,
0001
0000
0001
1000
0000
1000
0100
0010
,
0001
0000
0001
0010
0100
1000
0001
0100
,
0010
0000
1010
0000
0100
0001
0010
0100
,
0010
0000
0110
0000
0100
1000
0001
0100
,
0010
0000
0110
0000
0010
1000
0100
0000
,
1100
0000
0100
0010
0001
0010
0100
1000
,
0001
0000
0001
1000
0010
0100
0010
0000
,
0010
0000
1000
0100
0010
0000
0110
0000
,
0010
0000
0001
0010
0100
1000
0001
1000
,
0010
0000
0010
1000
0001
0100
0010
M22M
,
M00M
M00M
M00M
M00M
M00M
M00M
M00M
M33M
,
1001
0000
0000
0000
;

//---------------dance-single - Renard----------------
#NOTES:
     dance-single:
     Renard:
     Medium:
     6:
     0.413,0.465,0.141,0.062,0.000:
0000
0000
0000
0000
,
0000
0000
0000
0000
,
0000
0000
0000
0000
,
0000
0000
0000
0000
,
0000
0000
0000
0000
,
0000
0000
0000
0000
,
0000
0000
0000
0000
,
0000
0000
0000
0000
,
0000
0000
0000
0000
,
1000
0000
1000
0000
0001
0100
0001
0100
,
0001
0001
1000
1000
,
0100
0010
0000
0001
,
1000
0000
0000
0001
0100
0001
0100
0001
,
0100
0000
0001
1000
0000
0100
0000
1000
,
0001
0000
0000
0000
1000
0000
0000
0001
,
0100
0000
0001
1000
0100
1000
0100
0000
,
1000
0000
0000
0000
0001
0000
0000
0100
,
0001
0000
0000
0000
1000
0000
0000
0100
,
1000
0000
0001
0010
,
1001
0000
0000
0000
,
0001
0000
0001
0000
1000
0001
1000
0000
,
0001
0000
0001
0100
0000
0000
0000
0000
,
0001
1000
0001
1000
0001
0000
1000
0000
,
0100
0000
0100
0000
0010
0001
0010
0000
,
0100
1000
0010
0100
,
0001
0110
0000
1010
,
1001
0000
0000
0000
1000
0100
1000
0000
,
0001
0000
0001
0010
0000
0010
0000
0001
,
1000
0000
0001
0000
,
0100
0100
0010
0010
,
1000
0100
0010
0001
,
1000
0010
0000
0100
0000
0001
0000
0010
,
0000
0100
0000
1000
0000
0100
0000
0010
,
0000
0001
0000
1000
0000
0010
0000
0100
,
0000
0001
0000
0010
0000
0001
0000
1000
,
0000
0100
0000
0010
0000
0001
0000
1000
,
0000
0010
0000
0100
0000
0001
0000
0100
,
0000
0010
0000
1000
0000
0100
0000
0010
,
0002
0000
0000
0000
,
0013
0000
0100
1000
0000
1001
0000
0000
,
1000
0000
0100
0010
0000
0110
0000
0000
,
0010
0000
0100
1000
0000
1001
0000
0000
,
1000
0100
2000
0000
,
3001
0000
0100
0010
0000
0110
0000
0000
,
0010
0000
1000
0100
0000
1100
0000
0000
,
1000
0000
0001
0010
0000
0001
0000
1000
,
0001
0100
0100
0000
,
0001
0001
0100
0100
,
0010
0000
1000
0000
0100
0000
0010
0100
,
0010
0010
0001
0001
,
1000
0001
1000
0001
,
0100
0100
0010
0010
,
1000
0000
0010
1000
0000
0010
1000
0000
,
0001
0100
0001
1000
,
0200
0000
0000
0000
,
0310
0010
0010
0010
,
0001
0000
1000
0000
0010
0010
0010
0000
,
0100
0001
1000
0100
,
0010
0000
0001
0001
0001
0000
0000
0000
,
0010
0010
0100
0100
,
1000
0000
1000
0000
0010
0010
0010
0000
,
0100
0100
0001
0001
,
0020
0000
0000
0000
,
0031
0000
0001
0000
0001
0000
0001
0010
,
0100
0000
0000
0000
,
1100
0000
1000
0000
0010
0000
0100
0001
,
0010
0000
0000
0000
,
0001
0001
0010
0010
,
0100
0000
0100
0000
1000
0010
0000
1000
,
0010
0100
0001
0010
,
0002
1003
1001
0000
,
1000
0000
0100
0000
0010
0000
0001
0010
,
0100
1000
0100
0010
,
0001
1001
0000
1001
,
1001
0000
0000
0000
1000
0000
0001
0100
,
0001
0000
1000
0100
0000
1000
0000
0001
,
0010
0000
0001
1000
,
0010
0000
0000
0100
0000
0001
0000
1000
,
0100
1000
0001
0010
,
0001
0001
1000
1000
,
0010
0100
0001
1000
,
0100
0110
0000
0010
,
0001
0000
0000
1000
0001
0000
1000
0000
,
0010
0000
1000
0010
0000
1000
0000
0001
,
0100
0001
0010
0100
,
1000
0000
0100
1000
0000
0001
0000
0010
,
0001
0000
1000
0000
0010
0000
0000
2002
,
0000
0000
0000
0000
,
3013
0000
0000
0000
;

//---------------dance-single - Renard----------------
#NOTES:
     dance-single:
     Renard:
     Easy:
     3:
     0.333,0.349,0.053,0.097,0.000: // measure 1
0000
0000
0000
0000
,  // measure 2
0000
0000
0000
0000
,  // measure 3
0000
0000
0000
0000
,  // measure 4
0000
0000
0000
0000
,  // measure 5
0000
0000
0000
0000
,  // measure 6
0000
0000
0000
0000
,  // measure 7
0000
0000
0000
0000
,  // measure 8
0000
0000
0000
0000
,  // measure 9
0000
0000
0000
0000
,  // measure 10
1000
1000
1000
1000
,  // measure 11
0001
0001
0001
0001
,  // measure 12
0100
0010
0000
0100
,  // measure 13
0010
0000
0000
0000
,  // measure 14
0100
0100
0100
0100
,  // measure 15
0001
0000
1000
0000
,  // measure 16
0200
0000
0000
0000
,  // measure 17
0320
0000
0000
0000
,  // measure 18
0032
0000
0000
0000
,  // measure 19
2003
0000
0000
0000
,  // measure 20
3020
0000
0000
0000
,  // measure 21
0100
0100
0100
0130
,  // measure 22
0010
0000
0000
0000
,  // measure 23
0100
0000
0000
0000
,  // measure 24
0010
0100
0010
0100
,  // measure 25
0010
0100
0010
0100
,  // measure 26
0001
1000
0000
0100
,  // measure 27
0010
0000
0001
1000
,  // measure 28
0001
1000
0001
0000
,  // measure 29
1000
0010
1000
0000
,  // measure 30
0001
0001
0100
0100
,  // measure 31
0001
0100
0001
0100
,  // measure 32
0001
1000
0001
1000
,  // measure 33
0100
1000
0100
1000
,  // measure 34
0001
0010
0001
0010
,  // measure 35
0001
0100
0001
0100
,  // measure 36
0010
1000
0010
1000
,  // measure 37
0100
1000
0100
1000
,  // measure 38
0001
0010
0001
0100
,  // measure 39
0020
0000
0000
0000
,  // measure 40
1030
0000
0000
1010
,  // measure 41
0001
0000
0000
0101
,  // measure 42
0001
0000
0000
0011
,  // measure 43
1000
0000
0200
0000
,  // measure 44
0310
0000
0000
1001
,  // measure 45
0010
0000
0000
1001
,  // measure 46
0100
0000
0000
1000
,  // measure 47
0001
0100
0100
0000
,  // measure 48
0010
0010
0010
0010
,  // measure 49
0010
0010
0010
0010
,  // measure 50
0010
0010
0010
0010
,  // measure 51
1000
0001
1000
0001
,  // measure 52
0100
0100
0100
0100
,  // measure 53
0100
0100
0100
0100
,  // measure 54
0100
0100
0100
0200
,  // measure 55
0002
0000
0000
0303
,  // measure 56
0001
0100
0001
0100
,  // measure 57
0001
0100
0010
0010
,  // measure 58
1000
0100
1000
0100
,  // measure 59
1000
0100
0010
0010
,  // measure 60
0001
0100
0001
0100
,  // measure 61
0001
0100
0010
0010
,  // measure 62
1000
0100
1000
0100
,  // measure 63
0020
0000
0000
0000
,  // measure 64
0031
0001
0001
0001
,  // measure 65
0010
0000
0000
0000
,  // measure 66
0100
0100
0100
0100
,  // measure 67
1000
0000
0000
0000
,  // measure 68
0010
0010
0100
0100
,  // measure 69
0001
0001
1000
1000
,  // measure 70
0001
0001
1000
1000
,  // measure 71
0100
0010
1001
0000
,  // measure 72
0001
0100
0001
0100
,  // measure 73
0010
1000
0010
1000
,  // measure 74
0100
1000
0000
0001
,  // measure 75
0010
0000
0100
1000
,  // measure 76
0001
1000
0001
1000
,  // measure 77
0001
0010
0001
0010
,  // measure 78
0100
1000
0100
1000
,  // measure 79
0010
1000
0001
0100
,  // measure 80
0001
0001
1000
1000
,  // measure 81
0001
0100
0010
1000
,  // measure 82
0001
1000
0000
0001
,  // measure 83
1000
0000
0001
0100
,  // measure 84
0010
0010
1000
1000
,  // measure 85
0100
0100
0010
0010
,  // measure 86
0001
0001
1000
1000
,  // measure 87
0010
0100
0001
1000
,  // measure 88
0002
0000
0000
0000
,  // measure 89
1003
0000
0000
0000
;
