#TITLE:Push It (Music Please);
#SUBTITLE:;
#ARTIST:Scott Brown;
#TITLETRANSLIT:;
#SUBTITLETRANSLIT:;
#ARTISTTRANSLIT:;
#CREDIT:;
#BANNER:push.png;
#BACKGROUND:push-bg.png;
#LYRICSPATH:;
#CDTITLE:;
#MUSIC:push.ogg;
#OFFSET:0.000;
#SAMPLESTART:45.150;
#SAMPLELENGTH:12.000;
#SELECTABLE:YES;
#BPMS:0.000=170.100;
#STOPS:;
#BGCHANGES:;

//---------------dance-single - Renard----------------
#NOTES:
     dance-single:
     Renard:
     Hard:
     9:
     0.656,0.652,0.306,0.124,0.139:
0000
0000
0000
0000
,
0000
0000
0000
0000
,
0000
0000
0000
0000
,
0000
0000
0000
0000
,
2000
0200
0000
0000
0010
0000
0001
0000
,
0010
0001
0010
3301
,
0002
0200
0000
0000
0010
0000
1000
0000
,
1010
0000
0000
0000
1010
0303
0000
0000
,
0001
0100
0010
0100
0001
0100
0010
0100
,
0001
0100
0010
0110
0000
1010
0000
1000
,
0100
0010
0100
1000
0100
0010
0100
1000
,
0100
0010
0100
1100
0000
0110
0000
0000
,
0010
0001
0100
0010
0000
0010
1010
0000
,
0010
0100
0001
0010
0000
0010
0000
0011
,
0001
0010
0100
1000
0000
1000
1010
0000
,
2002
0003
0002
3013
,
0001
0100
0010
0100
0001
0100
0010
0100
,
0001
0100
0010
0100
0000
0100
0001
0000
,
1000
0100
0010
0100
1000
0100
0010
0100
,
1000
0000
1000
0100
0000
0100
0010
0000
,
1000
0010
0100
0010
1000
0010
0100
0010
,
1000
0010
0100
0010
0000
0010
1000
0000
,
0001
0010
0100
0010
0001
0010
0100
0010
,
0001
0010
0100
0010
0000
0010
0001
0000
,
1000
0010
0001
1000
0000
1001
0000
0001
,
0100
1000
0000
1001
0000
0000
0000
0000
,
0101
0010
1100
0010
,
1001
0000
0100
0010
0000
0010
1001
0000
,
0001
0100
1000
0001
0000
1001
0000
1000
,
0010
0001
0000
1001
0000
0000
0000
0000
,
1010
0100
0011
0100
,
1002
1000
0020
1033
,
0001
0100
0001
0100
0010
0100
0010
0100
,
0010
1000
0100
0010
0001
1000
0000
0001
,
0100
0010
1000
0010
0100
0010
0100
0001
,
0100
0001
0010
0001
0000
0001
0010
0100
,
1000
0100
1000
0100
0010
0100
0010
0001
,
0010
0001
0100
0010
0000
0010
1000
0001
,
0100
0001
0100
0001
0100
1000
0100
1000
,
0001
0010
0001
0010
1000
0001
1000
0000
,
1001
0000
0000
0001
1000
0000
0010
0000
0100
0000
0001
0000
0010
0000
0000
0000
,
0110
0000
0000
0100
1000
0000
0010
0000
0100
0000
0000
0000
0101
0000
0000
0000
,
0101
0000
0000
0100
0010
0000
0010
0000
1000
0000
0100
0000
0010
0000
0001
0000
,
1001
0000
0000
0001
1000
0000
0010
0000
0100
0000
0000
0000
0101
0000
0000
0000
,
1010
0000
0000
1000
0100
0000
0010
0000
0001
0000
1000
0000
0100
0000
1000
0000
,
1010
0000
0000
0010
0100
0000
0001
0000
0010
0000
0000
0000
1001
0000
0000
0000
,
0101
0000
0000
0001
0010
0000
0001
0000
0010
0000
0100
0000
1000
0000
0010
0000
,
2200
0300
0020
3031
,
1000
0000
1000
0010
0000
0010
0100
0001
,
0010
0100
1000
0010
0000
0010
0100
0001
,
1000
0100
0010
0001
0000
0001
0010
0100
,
1000
0010
0200
0001
0000
0001
0000
0301
,
0100
0010
1000
0100
0000
0100
0010
0001
,
0010
0100
1000
0010
0000
0010
0100
0001
,
1000
0100
0010
0001
0000
0001
0100
0001
,
1000
0100
0010
0001
1000
1000
0001
0000
,
1000
0000
0000
1000
0010
0000
0100
0000
0001
0000
0000
0001
0010
0000
0100
0000
,
1000
0000
0000
1000
0010
0000
0100
0000
0001
0000
0000
0001
1000
0000
0100
0000
,
0010
0000
0000
0010
0001
0000
0010
0000
0100
0000
0000
0100
1000
0000
0010
0000
,
0100
0000
0000
0100
0001
0000
0100
0000
0010
0000
0000
0010
1000
0000
0100
0000
,
0010
0000
0000
0010
0001
0000
1000
0000
0010
0000
0000
0010
0100
0000
0001
0000
,
1000
0000
0000
1000
0100
0000
0010
0000
0001
0000
0000
0001
0010
0000
0100
0000
,
1000
0000
0000
1000
0010
0000
0100
0000
0001
0000
0000
0001
0100
0000
0000
0010
,
1000
0001
0100
0001
0100
0001
0100
0000
,
1000
0000
0000
0100
0010
0000
0001
0000
0010
0000
0100
0000
1000
0000
0000
0000
,
0001
0000
0000
0010
0100
0000
1000
0000
0100
0000
0000
0000
0010
0000
0000
0000
,
0001
0000
0000
0001
0100
0000
0010
0000
1000
0000
0001
0000
0100
0000
0010
0000
,
1000
0000
0000
1000
0010
0000
0100
0000
0001
0000
1000
0000
0100
0000
0000
0000
,
0010
0000
0000
0010
0001
0000
0010
0000
0100
0000
1000
0000
0010
0000
0000
0000
,
0100
0000
0000
0001
0100
0000
0010
0000
1000
0000
0100
0000
0010
0000
0000
0000
,
0001
0000
0000
0001
0010
0000
0100
0000
1000
0000
0010
0000
0100
0000
0001
0000
,
0100
0000
0000
0000
1000
0001
0100
0000
;

//---------------dance-single - Renard----------------
#NOTES:
     dance-single:
     Renard:
     Challenge:
     10:
     0.760,0.721,0.239,0.048,0.292:
0000
0000
0000
0000
,
0000
0000
0000
0000
,
0001
0000
0000
0100
0010
0000
0100
0000
0001
0000
0000
0100
0010
0000
0100
0000
,
0001
0000
0000
0100
0010
0000
0100
0000
0001
0000
0000
0100
0010
0000
0100
0000
,
0001
0000
0000
1000
0100
0000
0010
0000
0100
0000
0000
1000
0100
0000
0010
0000
,
0100
0000
0000
1000
0100
0000
0010
0000
0100
0000
0000
1000
0100
0000
0010
0000
,
0100
0000
0000
1000
0100
0000
0010
0000
0100
0000
0000
1000
0100
0000
0000
0000
,
2002
0000
3113
0000
,
1000
0010
1000
0010
1000
0001
1000
0001
,
1000
0100
0010
0001
0000
0011
0000
0001
,
0010
0100
1000
0010
0000
0010
0100
0001
,
0100
0010
1000
1001
0000
1100
0000
0011
,
0001
0100
0010
1000
0000
0101
0000
0010
,
1000
0100
0010
0001
0000
0001
0110
0000
,
0100
1000
0110
0001
0000
0001
0110
0000
,
2000
0000
0101
3110
,
0001
0000
0001
0100
0000
0100
0010
1000
,
0100
0000
0010
0000
0001
0000
1000
0001
1000
0000
0001
0000
0010
0000
0100
0000
,
1000
0001
0000
0001
1000
0000
0010
0000
0100
0001
0000
0001
0010
0000
0100
0000
,
1000
0000
0001
1000
0001
0000
1000
0001
1000
0000
0001
0000
1000
0000
0010
0000
,
0100
0000
0001
0000
1000
0000
1000
0010
0000
0010
0100
0000
0010
0000
0010
0000
,
1000
0000
0001
0000
0100
0000
0010
1000
0000
1000
0010
0000
0100
0000
0001
0000
,
0010
0000
0001
1000
0001
0000
1000
0001
1000
0000
0010
0000
0100
0000
0001
0000
,
0010
0000
0100
0010
0100
0000
0010
0100
0010
0000
0100
0000
1000
0000
0010
0000
,
0100
0000
0100
0001
0000
0100
1000
0100
,
0001
0010
0100
0000
0100
0000
0100
0000
,
0010
0001
0101
0000
0010
1000
1010
0000
,
1000
0100
1100
0000
0100
0010
0110
0000
,
0010
0001
0100
0010
0000
1001
0000
1000
,
0100
0010
0001
1000
0000
0001
0000
0100
,
0010
0000
0000
0010
1000
0000
0010
0000
0100
0000
0001
0000
0010
0000
0100
0000
,
0010
0000
0110
1100
,
1000
0001
1000
0000
0001
0000
1000
0000
0010
0000
0100
0000
0001
0000
0010
0000
,
0100
0010
0100
0000
0010
0000
0100
0000
1000
0000
0010
0000
0100
0000
0001
0000
,
1000
0001
1000
0000
0001
0000
0100
0000
0010
0100
0010
0000
0100
0000
0010
0000
,
1000
0010
1000
0000
0001
0100
0001
0000
1000
0000
0100
0000
0010
0000
0001
0000
,
1000
0001
1000
0000
0001
0000
0100
0000
0010
0000
1000
0000
0001
0000
0010
0000
,
0100
0010
0100
0000
0010
0000
0100
0000
1000
0000
0010
0000
0100
0000
0001
0000
,
1000
0001
1000
0000
0001
0100
0001
0000
0100
0010
0100
0000
0010
1000
0010
0000
,
1000
0001
1000
0100
0010
0010
0010
0000
,
0001
0010
0001
0000
0010
0000
0100
0000
1000
0000
0001
0000
1000
0000
0000
0000
,
1000
0100
1000
0000
0100
0000
1000
0000
0100
0000
0010
0000
0001
0000
0010
0000
,
0001
1000
0001
0000
1000
0000
0010
0000
0100
0000
0001
0000
0010
0000
0100
0000
,
1000
0100
1000
0000
0100
0000
0010
0000
0001
0000
1000
0000
0001
0000
0100
0000
,
0001
0100
0001
0000
0100
0000
0010
0000
1000
0010
1000
0000
0010
0000
1000
0000
,
0100
1000
0100
0000
1000
0000
0100
0000
0010
0000
0001
0000
0010
0000
0100
0000
,
1000
0000
0001
0000
0100
0000
0001
0100
0001
0000
0100
0000
0010
0000
1000
0000
,
0202
0000
0010
1313
,
0001
0100
0001
0100
0010
0100
0010
0100
,
1000
0100
1000
0100
0010
0100
0010
0100
,
0010
1000
0010
1000
0010
0001
0010
0001
,
0010
0100
0010
0100
0010
1000
0010
0001
,
0010
1000
0100
1000
0100
0010
0100
0010
,
0100
0001
0100
0001
0100
0010
0100
0010
,
0100
1000
0100
1000
0001
0100
0010
1000
,
1001
0000
0000
0000
1000
0010
0100
0000
,
0010
0000
0000
0010
1000
0000
0001
0000
0010
0000
0100
0000
1000
0000
0001
0000
,
0010
0000
0000
0010
0001
0000
0100
0000
0010
0000
0000
1000
0010
0000
0100
0000
,
0001
0000
0010
0000
0100
0000
1000
0000
0001
0000
0000
0001
1000
0000
0010
0000
,
0100
0001
0010
0100
1000
0000
0001
0000
,
0100
0000
0000
0100
0010
0000
1000
0000
0100
0000
0000
0000
0100
0010
0001
0000
,
0010
0100
1000
0010
0100
0001
0100
0010
,
1000
0000
0000
1000
0010
0000
0100
0000
0001
0000
0010
0000
0100
0000
0010
0000
,
0001
0000
0000
0000
1000
1000
1000
0000
,
0110
0000
0000
0000
0010
1000
0100
0010
,
0001
0000
0000
0001
0010
0000
0100
0000
1000
0000
0010
0100
0010
0000
0100
0000
,
0001
0000
0000
0000
0010
0000
0100
0000
1000
0000
0000
1000
0001
0000
0100
0000
,
0010
0000
1000
0001
1000
0000
0001
1000
0001
0000
1000
0000
0010
0000
0100
0000
,
0001
0000
0000
0001
0010
0000
0100
0000
1000
0000
0001
0000
0010
0000
0100
0000
,
1000
0000
0000
1000
0100
0000
0010
0000
0001
0000
1000
0010
1000
0000
0010
0000
,
0100
0001
0100
0010
1000
0001
0010
0100
,
0010
0000
1001
0110
;

//---------------dance-single - Renard----------------
#NOTES:
     dance-single:
     Renard:
     Medium:
     6:
     0.351,0.412,0.086,0.010,0.000:
0000
0000
0000
0000
,
0000
0000
0000
0000
,
0000
0000
0000
0000
,
0000
0000
0000
0000
,
0000
0000
0000
0000
,
0000
0000
0000
0000
,
0000
0000
0000
0000
,
0000
0000
0000
0000
,
1000
0001
0000
0000
0100
0000
0100
0000
,
0100
0001
1000
0100
,
1000
0001
0000
0000
0100
0000
0100
0000
,
0001
1000
0100
1000
,
0001
0010
0000
0000
0001
0000
0001
0000
,
1000
1000
0010
1000
,
0001
1000
0000
0000
0010
0000
1000
0000
,
0001
0000
0000
0000
0100
0010
0100
0000
,
0010
1000
0010
1000
,
0010
0000
1000
0010
0000
1000
0000
0010
,
0100
0001
0100
0001
,
0100
0000
0001
0100
0000
0001
0000
0001
,
0010
0100
1000
0100
,
1000
0000
0100
1000
0000
0100
0000
1000
,
0001
0010
0001
0010
,
0001
0000
1000
0001
0000
1000
0000
0001
,
0100
0100
0010
0010
,
1000
0000
0001
1000
0000
0001
0000
0100
,
0010
1000
0100
0010
,
0001
0010
0100
1000
,
0001
0100
0010
1000
,
0010
0000
0100
0001
0000
0100
0000
0010
,
1000
0010
0100
0001
,
1001
0000
0000
0000
0001
1000
0001
0000
,
1000
1001
0001
1001
,
1000
0000
0001
1000
0000
0001
0000
1000
,
0001
1001
1000
1001
,
0001
0000
0001
1000
0000
0001
0000
1000
,
0001
1001
1000
1001
,
0001
0000
0001
1000
0000
0001
0000
1000
,
0001
1000
0001
1000
,
0001
0000
0000
0000
,
0100
0100
0010
0010
,
1000
0000
0001
1000
0000
0100
0000
0010
,
0001
0010
0100
1000
,
0001
0000
1000
0001
0000
1000
0000
0001
,
0100
0001
1000
0100
,
0010
0000
0001
1000
0000
0001
0000
0010
,
0100
1000
0010
0100
,
0001
0000
0000
0000
,
1000
1000
0001
0001
,
0100
0000
0100
0000
0001
0000
1000
0100
,
1000
1000
0001
0001
,
0010
0000
0010
0000
0100
0000
1000
0001
,
1000
0001
1000
0001
,
0100
0001
0010
0001
,
1000
0100
0010
0001
,
1000
0000
0000
0000
0001
0010
0100
0000
,
1000
1000
1000
1000
,
1000
0000
1000
0100
0000
1000
0000
0100
,
1000
1000
1000
1000
,
1000
0000
0100
1000
0000
0100
0000
1000
,
0100
0100
1000
1000
,
0100
0000
0100
1000
0000
0100
0000
1000
,
0100
0100
1000
1000
,
0100
0000
0000
0000
0010
0001
0010
0000
,
1001
0000
0000
0001
0000
0000
0000
0000
,
0000
0000
0000
0100
0000
0000
0000
0000
,
0000
0000
0000
0010
0000
0000
0000
0000
,
0000
0000
0000
2000
0000
0000
0000
0000
,
0000
0000
0000
3100
0000
0000
0000
0000
,
0000
0000
0000
0010
0000
0000
0000
0000
,
0000
0000
0000
0001
0000
0000
0000
0000
,
1001
0000
0000
0000
0100
0010
0100
0000
;

//---------------dance-single - Renard----------------
#NOTES:
     dance-single:
     Renard:
     Easy:
     2:
     0.266,0.309,0.000,0.029,0.000: // measure 1
0000
0000
0000
0000
,  // measure 2
0000
0000
0000
0000
,  // measure 3
0000
0000
0000
0000
,  // measure 4
0000
0000
0000
0000
,  // measure 5
0000
0000
0000
0000
,  // measure 6
0000
0000
0000
0000
,  // measure 7
0000
0000
0000
0000
,  // measure 8
0000
0000
0000
0000
,  // measure 9
1000
1000
0001
0001
,  // measure 10
1000
0100
0010
0001
,  // measure 11
1000
1000
0001
0001
,  // measure 12
1000
0100
0010
0001
,  // measure 13
1000
1000
0001
0001
,  // measure 14
1000
0100
0010
0001
,  // measure 15
1000
1000
0001
0001
,  // measure 16
1000
0000
0001
0000
,  // measure 17
0100
0001
0100
0001
,  // measure 18
0100
0001
0100
0000
,  // measure 19
0001
1000
0001
1000
,  // measure 20
0100
1000
0100
1000
,  // measure 21
0001
0010
0001
0010
,  // measure 22
0001
1000
0001
0000
,  // measure 23
1000
0010
1000
0010
,  // measure 24
1000
0001
0100
0001
,  // measure 25
1000
1000
0100
0100
,  // measure 26
0010
0010
0001
0000
,  // measure 27
1000
0000
0001
0000
,  // measure 28
0010
0000
0100
0000
,  // measure 29
1000
1000
0001
0001
,  // measure 30
0100
0010
1000
0010
,  // measure 31
0100
0000
0001
1000
,  // measure 32
0100
0000
1000
1000
,  // measure 33
0001
0001
1000
1000
,  // measure 34
0001
0001
1000
0000
,  // measure 35
0001
0001
1000
1000
,  // measure 36
0001
0100
0010
1000
,  // measure 37
0001
0001
1000
1000
,  // measure 38
0001
0001
1000
0000
,  // measure 39
0001
0001
1000
1000
,  // measure 40
0100
0010
0001
0000
,  // measure 41
1000
0100
1000
0000
,  // measure 42
0001
0010
0001
0000
,  // measure 43
1000
0010
1000
0000
,  // measure 44
0001
0100
0000
0001
,  // measure 45
1000
0100
0000
1000
,  // measure 46
0001
0010
0001
0000
,  // measure 47
1000
0010
0100
0002
,  // measure 48
1000
0000
1000
1003
,  // measure 49
1000
1000
0001
0000
,  // measure 50
1000
1000
0001
0000
,  // measure 51
1000
1000
0001
0000
,  // measure 52
1000
1000
0001
0100
,  // measure 53
0010
0010
1000
0000
,  // measure 54
0010
0010
1000
0000
,  // measure 55
0001
0001
0100
0000
,  // measure 56
0001
0000
0000
0000
,  // measure 57
1000
0000
0100
0000
,  // measure 58
1000
0000
0000
0000
,  // measure 59
0010
0000
0001
0000
,  // measure 60
0010
0000
0000
0000
,  // measure 61
1000
0000
0100
0000
,  // measure 62
1000
0000
0000
0000
,  // measure 63
0010
0000
0001
0000
,  // measure 64
0020
0030
0100
0000
,  // measure 65
1000
0000
0001
0000
,  // measure 66
0100
0000
0000
0000
,  // measure 67
0001
0000
1000
0000
,  // measure 68
0100
0000
0010
0000
,  // measure 69
0001
0000
1000
0000
,  // measure 70
0100
0000
1000
0000
,  // measure 71
0001
0000
0010
0001
,  // measure 72
2000
0000
0001
3001
;
