#TITLE:Pumpin' Religion;
#SUBTITLE:;
#ARTIST:Sharkey;
#TITLETRANSLIT:;
#SUBTITLETRANSLIT:;
#ARTISTTRANSLIT:;
#CREDIT:;
#BANNER:religion.png;
#BACKGROUND:religion-bg.png;
#LYRICSPATH:;
#CDTITLE:;
#MUSIC:religion.ogg;
#OFFSET:0.000;
#SAMPLESTART:22.606;
#SAMPLELENGTH:12.000;
#SELECTABLE:YES;
#BPMS:0.000=180.225;
#STOPS:;
#BGCHANGES:;

//---------------dance-single - Renard----------------
#NOTES:
     dance-single:
     Renard:
     Challenge:
     11:
     0.884,0.785,0.592,0.415,0.247:
0000
0000
0000
0000
,
1000
0001
0100
0010
1000
0010
0100
0001
,
0010
0000
0100
0010
0100
0000
0010
0001
0010
0000
0001
1000
0001
0000
1000
0000
,
0010
0100
0001
0100
0010
1000
0100
0010
,
0100
0000
0010
0100
0010
0000
0100
1000
0100
0000
1000
0001
1000
0000
0001
1000
,
0001
0100
0010
1000
0010
0100
0001
1000
,
0010
0000
1000
0010
1000
0000
0001
0100
0001
0000
0010
0001
0010
0000
0100
0010
,
0100
1000
0010
0100
0001
0100
0010
1000
,
0100
0000
1000
0100
1000
0000
0001
0010
0001
0000
1000
0001
1000
0000
0001
1000
,
0010
0100
0001
0100
0010
1000
0100
0010
,
0001
0010
0100
1000
0010
0100
0001
0100
,
1000
0100
0010
0001
0010
1000
0100
0001
,
0100
0010
0001
0010
1000
0010
0100
1000
,
0100
0001
0100
1000
0010
0001
0010
0100
,
1000
0100
0001
0010
0100
1000
0100
0001
,
0100
1000
0100
0010
0001
0010
0001
1000
,
0010
0100
0001
0010
0100
0010
0002
0000
,
1003
0100
1100
0100
0010
0001
0011
0001
,
0100
0010
0110
0010
1000
0100
1100
0100
,
0010
0001
0011
0001
1000
0010
1010
0010
,
0100
0001
0101
0001
0100
0010
0110
0000
,
0001
0010
0011
0010
0100
1000
1100
1000
,
0010
0100
0110
0100
0001
0010
0011
0010
,
0100
1000
1100
1000
0001
0100
0101
0100
,
0010
1000
0100
0001
0100
0010
0001
0000
,
1011
0000
0000
2202
,
3313
0000
0000
0000
0000
0000
0202
0020
,
1333
0000
0000
0000
2200
0000
0000
0002
,
3313
1111
0000
0000
,
0201
0000
0000
2000
,
3301
0000
0000
0000
0000
0000
2200
0020
,
3331
0000
0000
0000
1011
0000
0000
0002
,
0203
2300
3200
0302
0203
0002
2000
0020
,
3333
0000
0000
0000
,
1000
0000
0001
0000
0100
0010
1000
0001
0100
0000
0010
1000
0002
0000
0000
0000
,
0103
0000
0000
0100
0010
0000
1000
0000
0100
0000
0000
0100
0010
0000
0001
0000
,
0010
0000
0000
0010
0100
0000
1000
0000
0001
0000
0100
0010
1000
0000
0010
0100
,
0001
0000
0000
0001
0100
0000
0010
0000
1000
0000
0000
1000
0010
0000
0100
0000
,
0001
0000
0010
0100
1000
0000
0100
0010
0001
0000
0010
0100
1000
0000
0001
0100
,
0010
0000
0000
0010
1000
0000
1000
0000
0010
0000
0000
0100
0001
0000
0001
0000
,
0100
0000
0000
0010
1000
0000
1000
0000
0010
0000
0000
0100
0001
0000
0001
0000
,
0010
0000
0000
0100
1000
0000
0000
1000
0001
0000
0000
0010
0100
0000
1000
0000
,
0001
0000
0100
0000
0010
0000
1000
0000
0001
0000
0100
0010
0100
0000
0010
0000
,
1000
0010
0100
0000
0001
0000
0100
0000
0010
0000
1000
0000
0100
0000
0010
0000
,
0001
0010
0100
0000
1000
0000
0001
0000
1000
0000
0010
0000
0100
0000
0001
0000
,
0100
0010
1000
0000
0010
0000
0100
0000
0001
0000
0010
0000
0100
0000
1000
0000
,
0001
0100
0010
0000
1000
0000
0010
0000
0100
0000
0001
0000
1000
0000
0100
0000
,
0010
0100
0010
0000
0001
0000
1000
0000
0010
0000
0100
0000
0001
0000
1000
0000
,
0010
0100
0010
0000
0100
0000
0001
0000
1000
0000
0010
0000
1000
0000
0001
0000
,
1000
0001
1000
0000
0001
0000
0100
0000
0010
0100
0010
0000
1000
0000
0010
0000
,
1000
0000
0002
0000
0103
0010
1000
0001
0100
0000
0010
1000
0020
0000
0000
0000
,
0130
0001
0101
0000
0100
0010
0110
0000
,
0010
1000
1010
0000
1000
0100
1100
0000
,
0100
0010
0110
0000
0010
0001
0011
0000
,
0001
1000
1001
1000
0010
1000
1010
0010
,
0100
0001
0101
0000
0001
0010
0011
0000
,
0010
0100
0110
0000
0100
1000
1100
0000
,
1000
0001
0100
0010
1000
0100
0001
0100
,
0010
0001
0010
1000
0010
0100
1000
0010
,
0100
0010
0110
0000
0010
0100
0101
0000
,
0001
1000
1100
0000
1000
0100
0110
0000
,
0010
0001
0011
0000
0001
1000
1001
0000
,
1001
0000
1000
1010
0000
0010
0110
0000
,
0100
0001
0010
0100
0010
1000
0010
0100
,
0010
0001
0100
0010
1000
0010
1010
0000
,
0110
0000
0100
0101
0000
0001
0011
0000
,
0010
0100
1000
0001
0100
0010
1000
0010
,
2010
0000
0000
0000
0000
3000
2010
3000
,
2200
0000
0000
0011
0000
0001
3310
0000
,
0201
0000
0000
0000
0020
0000
0000
1000
,
1000
0000
0001
0330
0000
0000
0000
0000
,
0202
0000
0000
1010
,
1313
0000
0000
2002
0000
0010
3013
0000
,
1010
1001
2200
0000
,
3311
0000
0000
0000
1000
0001
1000
0000
0001
0000
0100
0010
2000
0000
3002
0000
,
0200
0000
0000
0303
;

//---------------dance-single - Renard----------------
#NOTES:
     dance-single:
     Renard:
     Hard:
     9:
     0.725,0.703,0.701,0.049,0.010:
0000
0000
0000
0000
,
1000
0001
0100
1000
0100
0000
0100
0001
,
0000
0001
0010
1000
0010
0001
1000
0010
,
0100
0001
0100
1000
0100
0001
0010
0100
,
0000
0100
0010
1000
0010
0001
0010
0001
,
0100
0010
0100
1000
0100
0001
0100
0010
,
0000
0010
1000
0010
0001
0010
0100
1000
,
0100
0001
0010
0100
1000
0100
0001
0100
,
0000
0100
0010
0001
0010
1000
0010
0001
,
0010
0100
1000
0100
1000
0010
0000
0010
,
0100
0001
0100
0010
1000
0010
0000
1000
,
0100
0010
0001
0010
0100
0010
0000
0100
,
1000
0010
0100
0001
0100
0010
0000
0010
,
1000
0100
0010
0001
0010
0100
0000
0100
,
1000
0010
0100
0001
0100
0010
0000
0010
,
1000
0010
0100
0001
0100
0010
0000
0000
,
1000
0001
1000
0100
0010
0002
0000
0000
,
1003
0001
0000
0101
0000
0110
0000
1010
,
0000
1001
0000
1100
0000
0100
0010
0001
,
0010
0100
0000
0110
0000
1100
0000
1001
,
0000
0001
0100
0010
0000
1000
0010
0100
,
0000
0001
0100
0010
1000
0010
0000
1001
,
0000
1100
0000
0011
0000
1100
0000
0001
,
1000
0010
0100
0001
0100
0010
0000
0010
,
1000
0100
0010
0001
0010
0100
0000
0100
,
0110
0000
0000
0011
,
1100
0000
0000
0000
0000
0000
1100
0110
,
0101
0000
0000
0000
0110
0000
0000
1100
,
1010
1001
0000
0101
,
0110
0000
0000
0101
,
1001
0000
0000
0000
0000
0000
1001
0101
,
0011
0000
0000
0000
0110
0000
0000
1100
,
0110
0000
0011
0000
0001
1000
0010
0100
,
0002
0000
0000
0000
,
1003
0010
0100
0001
0100
0010
1000
0000
,
0010
0100
0001
0010
0100
1000
0000
1000
,
0010
0100
0001
0100
0010
1000
1010
0000
,
0010
1000
0100
0010
0001
0010
0000
0010
,
0100
1000
0001
0100
0010
1000
1001
0000
,
0001
0100
0010
1000
0100
0010
0000
0010
,
0100
1000
0010
0100
0001
1000
1001
0000
,
0001
1000
0010
0100
0001
0100
0000
0100
,
0010
1000
0010
0100
0001
0010
0100
1000
,
0001
1000
0010
0100
0001
0100
0000
0100
,
0010
1000
0100
0010
0001
1000
1001
0000
,
0001
1000
0010
0100
0001
0010
0000
0010
,
0100
1000
0001
0100
0010
1000
1010
0000
,
0010
1000
1001
0000
0001
0100
0101
0000
,
0001
0010
0110
0000
0100
1000
1001
0000
,
1000
0010
0100
0001
0010
0200
0000
0000
,
1300
0010
0100
0001
0100
1000
0200
0000
,
0301
0100
0101
0000
0000
0100
0110
0000
,
0010
0000
1000
0000
1010
0000
0000
0000
0000
1000
0100
0000
1000
0000
0000
0000
,
0100
0010
0010
0000
0000
0001
0001
0000
,
0010
0100
1000
0010
0100
0000
1001
0000
,
1000
0010
1010
0000
0000
0010
0110
0000
,
0100
0000
0001
0000
0101
0000
0000
0000
0000
0001
0010
0000
0001
0000
0000
0000
,
0010
0100
0100
0000
0000
1000
1000
0000
,
0100
0010
0001
0100
0010
0000
1010
0000
,
0001
0100
0010
0100
1000
0100
0001
0100
,
0010
0100
1000
0100
0001
0100
0001
0100
,
0001
0010
0100
0010
1000
0010
0001
0010
,
0100
0010
1000
0010
0100
0010
0001
0010
,
0001
0100
1000
0100
0010
0100
0001
0100
,
0010
0100
1000
0100
0001
0100
0010
0100
,
0001
0010
0100
0010
1000
0010
0100
0010
,
0001
1000
0010
0100
0001
0010
0200
0000
,
1300
0000
0000
1010
,
1001
0000
0000
0101
0000
0000
0110
0000
,
1001
0000
0000
0000
1100
0000
0000
1001
,
0011
1100
0000
1001
,
0101
0000
0000
0110
,
1100
0000
0000
0110
0000
0101
1001
1010
,
1100
1010
0101
0011
,
0018
0000
0001
0010
0100
1000
0010
0100
,
0001
0000
0000
0000
;

//---------------dance-single - Renard----------------
#NOTES:
     dance-single:
     Renard:
     Medium:
     6:
     0.406,0.481,0.010,0.000,0.000:
0000
0000
0000
0000
,
1000
1000
0001
0001
,
0100
0010
1000
0100
,
0010
0010
0001
0001
,
1000
0001
0010
0100
,
1000
1000
0001
0001
,
0100
0010
0100
0010
,
1000
1000
0001
0001
,
0010
0100
0010
0100
,
1000
0000
1000
0010
0000
0100
0000
0000
,
0001
0000
0001
0010
0000
0100
0000
0000
,
1000
0000
1000
0010
0000
0100
0000
0000
,
0001
0000
0001
0010
0000
0100
0000
0000
,
1000
0000
1000
0010
0000
0100
0000
0000
,
0001
0000
0001
0010
0000
0100
0000
0000
,
1000
0000
0000
0001
0000
0000
0100
0000
,
0010
0000
0000
0000
,
1000
0000
0010
1000
0000
0010
0000
0000
,
0100
0000
0001
0100
0000
0000
0001
0000
,
0010
0000
0001
0010
0000
0001
0000
0000
,
1000
0000
0100
1000
0000
0000
0100
0000
,
1000
0000
0010
1000
0000
0010
0000
0000
,
0100
0000
0001
0100
0000
0000
0001
0000
,
1000
0000
0000
0100
0000
0000
0000
0000
,
0010
0001
0010
0001
0010
0001
0000
0000
,
0010
0000
0000
0010
,
0100
0000
0000
0100
,
1000
0000
0010
0000
,
0100
0001
0000
1000
,
0100
0000
0000
0000
,
0010
0000
0000
0000
0000
0000
0001
1000
,
0001
0000
0000
0100
0010
0000
0000
1000
,
0100
0010
0001
1000
,
1001
0000
0000
0000
,
0000
0000
0000
0000
,
0001
0100
0001
0100
0001
0100
0000
0000
,
0001
1000
0001
1000
0001
1000
0000
0000
,
0100
1000
0100
1000
0100
1000
0000
0000
,
0001
0010
0001
0010
0001
0010
0000
0000
,
0001
1000
0001
1000
0001
1000
0000
0000
,
0010
1000
0010
1000
0010
1000
0000
0000
,
0100
0000
0100
1000
0000
1000
0000
0000
,
0001
0000
0001
0010
0000
0010
0000
0000
,
0001
0010
0001
0010
0001
0010
0000
0000
,
0100
1000
0100
1000
0100
1000
0000
0000
,
0010
1000
0010
1000
0010
1000
0000
0000
,
0001
0100
0001
0100
0001
0100
0000
0000
,
0010
1000
0010
1000
0010
1000
0000
0000
,
0100
1000
0100
1000
0100
1000
0000
0000
,
0001
0010
0001
0010
0001
0010
0000
0000
,
0001
0100
0001
0100
0001
0100
0000
0000
,
0010
0000
0100
0001
,
1000
0000
0100
0010
,
0001
0000
0010
0100
,
1000
0000
0010
0100
,
0001
0000
1000
0100
,
0010
0000
0001
0010
,
0100
0000
0000
1000
0000
0000
0000
0000
,
0010
0000
0000
0100
0000
0000
0001
0000
,
1000
0001
0100
0001
,
1000
0001
0100
0001
,
1000
0100
1000
0001
,
0010
0100
1000
0010
,
0100
0001
0100
0001
,
1000
0010
1000
0010
,
1000
0100
0010
0001
,
1000
0010
1000
0001
,
0100
0000
0000
0100
,
0010
0000
0000
1000
,
0010
0000
0000
0010
1000
0000
0000
1000
,
0010
0100
0000
0001
,
1000
0000
0000
0100
,
0010
0000
0000
0000
0000
0001
0010
0100
,
1000
1000
0001
0100
,
0010
1000
0010
0100
,
0001
0000
0000
0000
;

//---------------dance-single - Renard----------------
#NOTES:
     dance-single:
     Renard:
     Easy:
     3:
     0.395,0.444,0.365,0.197,0.000: // measure 1
0000
0000
0000
0000
,  // measure 2
1000
1000
0001
0001
,  // measure 3
0100
0000
0100
0000
,  // measure 4
0001
0001
1000
1000
,  // measure 5
0100
0000
0100
0000
,  // measure 6
1000
1000
0001
0001
,  // measure 7
0010
0000
0010
0000
,  // measure 8
0001
0001
1000
1000
,  // measure 9
0010
0000
0010
0000
,  // measure 10
1000
0001
0200
0000
,  // measure 11
0301
1000
0200
0000
,  // measure 12
1300
0001
0020
0000
,  // measure 13
0031
1000
0020
0000
,  // measure 14
1030
0001
0200
0000
,  // measure 15
0301
1000
0200
0000
,  // measure 16
2300
0000
3002
0000
,  // measure 17
0023
0000
0000
0000
,  // measure 18
0031
1000
0001
0010
,  // measure 19
0001
1000
0001
0010
,  // measure 20
0001
1000
0001
0010
,  // measure 21
0001
1000
0001
1000
,  // measure 22
0001
1000
0001
0100
,  // measure 23
0001
1000
0001
0100
,  // measure 24
0001
0000
1000
0000
,  // measure 25
0100
0000
0010
0000
,  // measure 26
1001
0000
0000
0110
,  // measure 27
1001
0000
0000
0110
,  // measure 28
1001
0000
0110
0000
,  // measure 29
1001
1001
0000
2000
,  // measure 30
3001
0000
0000
0000
,  // measure 31
0110
0000
0000
0000
,  // measure 32
1001
0000
0110
0000
,  // measure 33
1001
0110
1001
0110
,  // measure 34
1001
0000
0000
0000
,  // measure 35
2000
0000
0000
0000
,  // measure 36
3001
0001
1000
1000
,  // measure 37
0001
0001
1000
1000
,  // measure 38
0100
0100
0010
0010
,  // measure 39
0100
0100
0010
0010
,  // measure 40
0001
0001
1000
1000
,  // measure 41
0001
0001
1000
1000
,  // measure 42
0001
0001
1000
1000
,  // measure 43
0001
1000
0001
1000
,  // measure 44
0010
0010
0100
0100
,  // measure 45
0010
0100
0010
0100
,  // measure 46
0010
0010
0100
0100
,  // measure 47
0010
0100
0010
0100
,  // measure 48
0001
0001
1000
1000
,  // measure 49
0001
1000
0001
1000
,  // measure 50
0100
0100
1000
1000
,  // measure 51
0002
0000
0000
0000
,  // measure 52
0013
0000
0010
0100
,  // measure 53
2000
0000
3010
0100
,  // measure 54
0002
0000
0013
0001
,  // measure 55
2000
0000
3100
0010
,  // measure 56
0002
0000
1003
0010
,  // measure 57
0200
0000
0310
1000
,  // measure 58
0200
0000
0310
0001
,  // measure 59
2002
0000
0000
3003
,  // measure 60
0000
1000
0000
0001
0000
1000
0000
0001
,  // measure 61
0000
1000
0000
0001
0000
1000
0000
0001
,  // measure 62
0000
0100
0000
0010
0000
0100
0000
0010
,  // measure 63
0000
0100
0000
0010
0000
0100
0000
0010
,  // measure 64
0000
1000
0000
0001
0000
1000
0000
0001
,  // measure 65
0000
1000
0000
0001
0000
1000
0000
0001
,  // measure 66
0000
0100
0000
0010
0000
0100
0000
0010
,  // measure 67
0000
0000
0000
0000
,  // measure 68
1001
0000
0000
0110
,  // measure 69
1001
0000
0110
0000
,  // measure 70
1001
0000
0110
0000
,  // measure 71
1001
1001
0000
0110
,  // measure 72
1001
0000
0000
0110
,  // measure 73
1001
0000
0110
0000
,  // measure 74
1001
0000
0110
0000
,  // measure 75
1001
0110
1001
0110
,  // measure 76
1001
0000
0000
0000
;
