#TITLE:Pro-Test;
#SUBTITLE:;
#ARTIST:Skinny Puppy;
#TITLETRANSLIT:;
#SUBTITLETRANSLIT:;
#ARTISTTRANSLIT:;
#CREDIT:;
#BANNER:pro.png;
#BACKGROUND:pro-bg.png;
#LYRICSPATH:;
#CDTITLE:;
#MUSIC:pro.ogg;
#OFFSET:0.000;
#SAMPLESTART:27.097;
#SAMPLELENGTH:12.000;
#SELECTABLE:YES;
#BPMS:0.000=124.000,20.000=62.000,21.000=124.000,99.000=248.000,107.000=124.000,137.000=62.000,138.000=124.000;
#STOPS:;
#BGCHANGES:;

//---------------dance-single - Renard----------------
#NOTES:
     dance-single:
     Renard:
     Challenge:
     10:
     0.774,0.752,0.516,0.089,0.917:
0000
0000
0000
0000
,
0000
0000
0000
0000
,
0001
0000
0100
0001
0100
0000
0001
1000
0001
0000
1000
0100
1000
0000
0001
0010
,
0001
0000
1000
0010
1000
0000
0010
1000
0001
0000
1000
0000
0001
1000
0001
1000
,
0001
0000
0100
0010
1000
0000
0100
0010
0001
0000
0010
0000
0110
0000
0100
1000
,
0020
0000
0000
0000
0030
0000
0010
0000
1001
0000
0000
0000
0001
0010
0100
1000
,
0001
0000
1000
0000
0010
0100
0001
0100
0010
1000
0000
0000
0100
0010
0001
0010
,
0100
0000
1000
0000
0001
1000
0010
0100
0001
0100
0000
0000
0010
1000
0001
0100
,
0010
0000
1000
0000
0010
0100
0001
0100
0000
0010
0000
0000
1000
0010
0100
0001
,
0000
0100
0010
0000
2002
0000
0000
0000
0000
0000
3003
0000
0001
0100
0010
0000
,
1010
0000
1000
0000
0100
0010
0001
0010
0100
0100
0000
1000
0010
0000
1000
0000
,
1010
0000
0010
0100
0001
0010
0100
0000
0110
0000
0100
1000
0010
0000
1000
0000
,
1010
0000
0010
0100
0001
0100
0010
0100
0110
0000
0010
1000
0100
1000
0001
0000
,
1001
0000
0001
0100
0000
0000
0110
0000
1001
0000
0110
0000
0100
1000
0010
0100
,
0001
0100
0010
0000
0000
0000
1010
0000
0000
1001
0000
0000
1000
0100
0010
0001
,
0010
0100
1000
0000
0001
0000
1000
0010
0100
0000
0001
0000
0100
0010
1000
0100
,
0010
0001
0010
0100
1000
0000
1001
0000
0000
0110
0000
0000
0010
1000
0001
0010
,
0100
1000
0001
0100
0010
0000
0110
0000
0000
1001
0000
0000
1000
0001
0100
0010
,
1000
0100
0010
0000
0100
0000
1100
0000
1000
0001
0000
1000
0001
0100
0010
1000
,
0100
0000
0010
0100
1000
0001
0010
0000
0100
1000
0001
0000
0100
0010
1000
0001
,
0100
0010
1000
0100
0010
0000
0011
0000
1000
0100
0000
1000
0010
0000
0100
0001
,
0100
0000
0010
0000
1000
0010
1000
0010
0100
0001
0010
0100
1000
0000
0001
0100
,
0010
0000
1000
0000
0100
0000
1100
0000
0000
1001
0000
0000
0001
0000
0100
0010
,
1000
0000
0100
0000
0010
0000
0110
0000
1000
0100
0000
1000
0010
0100
0001
0010
,
0100
0000
1000
0000
1000
0000
1100
0000
1000
1010
0000
0010
2020
0000
0000
0000
,
0000
0000
0000
0000
,
0000
0000
0000
0000
0000
0000
0000
0000
3030
0000
0000
0000
0001
0100
0010
1000
,
0100
0000
1000
0000
0010
0100
0001
0010
0100
0000
0110
0000
0100
1000
0010
0100
,
0001
0000
0101
0000
0001
1000
0100
0010
0001
0000
0011
0000
0010
0100
1000
0001
,
1000
0000
1001
0000
0001
0100
0010
1000
0100
0000
1100
0000
1000
0010
0100
0001
,
0000
0010
0100
1000
0000
0000
0001
0000
0000
1001
0000
0000
0001
0100
0010
0000
,
0110
0000
0010
1000
0100
1000
0001
0000
1001
0000
0001
0100
0010
1000
0100
0000
,
1100
0000
1000
0000
0010
0100
0001
0010
0100
0010
0000
0010
0100
1000
0010
1000
,
0001
0000
1000
0001
0100
0010
1000
0000
1010
0000
1000
0010
0100
0001
0010
0100
,
0000
0100
1000
0000
1001
0000
0000
0000
1000
0001
0100
0010
0110
0000
0010
1000
,
0100
0010
0001
0010
0011
0000
0010
0100
1000
0001
1000
0001
1001
0000
0001
0100
,
0010
1000
0100
0010
0110
0000
0100
0010
0100
1000
0010
0100
0101
0000
0100
0010
,
1000
0100
0010
0000
0110
0000
0100
1000
0100
1000
0010
0100
0001
0100
0001
1000
,
0000
0000
0001
0000
0000
0101
0000
0000
0001
1000
0100
0010
0001
0000
0010
0100
,
1000
0001
0010
0000
0110
0000
0100
1000
0010
0100
0001
0000
0101
0000
0001
0100
,
0010
1000
0100
1000
0001
0000
0001
0100
0010
1000
0010
0000
1010
0000
1000
0100
,
0010
0001
0010
0000
0011
0000
0010
0100
1000
0001
1000
0010
0000
0100
0001
0000
,
2020
0000
0000
0000
0000
0000
0030
0000
0001
0000
0000
0100
0000
0000
0010
0000
,
0000
0000
0010
0000
0000
0010
0000
0000
0200
0000
0000
0001
0000
0000
0010
0000
,
0000
0000
0001
0000
0000
0010
0300
0000
0002
0000
0000
0010
0000
0000
0100
0000
,
0000
0000
0010
0000
0000
0100
3000
0000
0200
0000
0000
1000
0000
0000
0010
0000
,
0000
0000
1000
0000
0000
0010
0303
0000
0101
0000
0000
0000
1010
0000
0000
1000
,
0100
0010
0001
0010
0100
1000
0001
0010
0100
0000
0000
0100
1000
0000
0000
1000
,
0010
0000
0000
0010
0100
0000
0000
0100
0001
0000
0100
0000
0110
0000
0010
1000
,
0100
0010
0100
0000
0100
1000
0000
1000
0010
0000
0100
0001
0100
0010
1000
0100
,
1000
0000
0001
0000
1000
0001
0000
0100
0010
0000
0010
0000
1010
0000
1000
0100
,
0010
0001
0010
0000
0011
0000
0010
0100
1000
0000
1000
0010
0100
0000
0100
0001
,
0010
0000
0010
0100
1000
0000
1000
0001
1000
0000
0001
0000
0110
0000
0010
1000
,
0100
1000
0100
0000
0100
1000
0000
1000
0010
0100
0001
0010
0100
0000
1000
0001
,
0100
0010
1010
0000
0000
1001
0000
0000
0101
0000
0000
0000
0000
0000
0000
0000
;

//---------------dance-single - Renard----------------
#NOTES:
     dance-single:
     Renard:
     Hard:
     8:
     0.533,0.509,0.365,0.027,0.432:
0000
0000
0000
0000
,
0000
0000
0000
0000
,
0000
0000
0000
0000
,
0000
0000
0000
0000
,
1000
0000
0001
0100
0001
0000
1000
0000
0100
0000
0010
0000
0011
0000
0000
0000
,
0010
0000
0000
0000
0110
0000
0100
1000
,
0010
0000
0100
0000
0001
0000
1000
0100
1000
0100
0000
0000
1000
0000
0001
0000
,
0010
0000
0100
0000
1000
0000
0010
0100
0010
0100
0000
0000
0001
0010
0001
0000
,
1000
0000
0010
0000
0100
0010
0100
0000
0010
0000
0100
0000
0001
0000
0001
1000
,
0000
1000
0010
0000
0200
0000
0000
0000
0000
0000
0000
0000
0301
0000
1000
0000
,
0100
0000
0010
0000
0001
0010
0001
0010
0001
0010
0000
0000
0100
0000
1000
0000
,
0010
0000
0100
0000
0001
1000
0001
1000
0001
0000
1000
0000
0001
0000
0010
0000
,
0100
0000
1000
0000
0010
0100
0001
0100
0010
0000
1000
0000
0100
0010
0001
0000
,
0010
0000
0100
1000
0000
0000
0010
0000
0010
0000
0010
0000
0100
0000
0000
0100
,
0001
0000
0100
0000
0000
0000
0110
0000
0000
0110
0000
0000
0010
0000
0000
1000
,
0100
0000
0010
0000
0001
0000
0000
1000
0010
0000
0100
0000
0001
0000
0010
0000
,
0100
0000
1000
0000
0010
0000
0110
0000
0000
0110
0000
0000
0100
0000
0001
0000
,
0010
0000
0100
0000
1000
0000
0110
0000
0000
0110
0000
0000
0010
0000
0000
0010
,
1000
0000
0100
0000
0010
0000
0001
0000
0000
0001
0000
0000
0010
0000
0100
0000
,
1000
0000
0010
0100
0010
0000
0100
0001
0100
0000
0001
1000
0001
0000
1000
0000
,
0100
0000
0010
0000
0001
0000
1000
0000
0000
1001
0000
0000
0001
0000
0010
0000
,
0100
0000
1000
0000
0001
0000
1000
0000
0000
1001
0000
0000
0001
0000
0000
0001
,
0100
0000
0010
0000
0000
0000
0110
0000
0000
0110
0000
0000
0010
0000
0000
0010
,
1000
0000
0100
0000
0000
0000
0110
0000
0000
0110
0000
0000
0010
0000
0000
0010
,
0001
0000
1000
0000
0000
0000
0110
0000
0000
0110
0000
0000
2002
0000
0000
0000
,
0000
0000
0000
0000
,
0000
0000
0000
0000
0000
0000
0000
0000
3003
0000
0000
0000
1000
0000
1000
0001
,
0000
0000
0110
0000
0010
0000
0010
1000
0000
0000
0110
0000
0010
0000
0001
1000
,
0000
0000
0101
0000
0001
0000
1000
0100
0000
0000
1100
0000
1000
0000
0001
0010
,
0000
0000
0011
0000
0010
0000
0010
0100
0000
1000
0000
0000
0010
0000
0010
0100
,
0000
0100
0001
0000
0000
0000
1001
0000
0000
1001
0000
0000
1000
0000
0001
0100
,
0001
0000
0100
0000
0010
0000
1000
0010
1000
0010
0000
0000
1000
0000
0100
0000
,
0010
0000
0001
0000
1000
0000
0010
0100
0010
0100
0000
0000
0001
0000
0001
0010
,
0000
0100
0000
0000
1000
0000
1000
0010
0000
0100
0000
0000
0001
0010
0100
1000
,
0000
0010
0100
0000
1001
0000
0000
0000
1000
0000
0000
1000
0100
0000
0010
0000
,
0001
0000
1000
0000
1001
0000
0000
0000
0001
0000
0000
0001
0010
0000
0100
0000
,
1000
0000
0010
0000
0110
0000
0000
0000
0010
1000
0010
1000
0000
0010
0000
0000
,
0100
0001
0100
0001
0000
0100
0000
0000
0001
0000
1000
0001
1000
0000
0001
0100
,
0000
0000
0110
0000
0000
0110
0000
0000
0010
0000
1000
0000
0100
0000
0010
0000
,
0001
0000
1000
0001
1000
0000
0001
0000
0010
0000
0100
0000
1000
0000
0001
1000
,
0001
0000
0100
0010
0100
0000
0010
0000
1000
0000
1000
0010
0000
0100
0000
0000
,
0001
0000
0001
0010
0000
0100
0000
0000
1000
0000
1000
0010
0000
0010
0100
0000
,
0001
0000
0010
0000
0000
0010
0000
0000
0100
0000
0000
0100
1000
0000
0010
0000
,
0000
0000
0100
0000
0000
0100
0000
0000
0001
0000
0000
0010
0000
0000
0100
0000
,
0000
0000
1000
0000
0000
1000
0000
0000
0100
0000
0000
0100
0010
0000
0001
0000
,
0000
0000
1000
0000
0000
1000
0000
0000
0001
0000
0000
0010
0000
0000
0100
0000
,
0000
0000
1000
0000
0000
1000
0000
0000
0001
0000
0000
0001
0100
0000
0010
0000
,
0000
0000
0110
0000
0000
1010
0000
0000
1000
0000
0100
0000
0010
0000
0001
0000
,
1000
0000
0010
0100
0010
0000
0100
0001
0100
0000
0001
0000
0010
0000
0100
0000
,
1000
0000
1100
0000
0000
0011
0000
0000
0010
0000
0100
0000
1000
0000
0010
0000
,
0100
0000
0101
0000
0000
1010
0000
0000
1000
0000
0100
0000
0010
0000
0001
0000
,
0010
0000
0100
1000
0100
0000
1000
0000
1100
0000
0000
0000
0110
0000
0000
0000
,
0010
0001
0100
0000
0001
0100
0010
1000
,
0010
0000
0100
0000
0000
0101
0000
0000
0001
0000
0100
0000
0010
0000
1000
0000
,
0100
0000
1100
0000
0000
0011
0000
0000
1001
0000
0000
0000
0000
0000
0000
0000
;

//---------------dance-single - Renard----------------
#NOTES:
     dance-single:
     Renard:
     Medium:
     6:
     0.334,0.340,0.142,0.142,0.000:
0000
0000
0000
0000
,
0000
0000
0000
0000
,
0000
0000
0000
0000
,
0000
0000
0000
0000
,
1000
0000
1001
0000
0000
0001
0100
0000
,
0110
0000
1010
1000
,
0010
0000
0100
0001
0100
0000
0001
0000
,
0010
0000
0100
1000
0100
1000
0001
0010
,
0001
0000
1000
0010
1000
0000
0001
0000
,
0100
0000
2020
0000
0000
3030
1000
0100
,
0010
0000
0001
0010
0100
0000
1000
0010
,
0100
0000
0001
0010
0100
0000
1000
0001
,
1000
0000
0010
0100
0010
0000
1000
0010
,
0100
0002
2000
0000
0000
3003
1000
0000
,
1000
0100
0000
0110
0000
0010
0001
1000
,
0010
0000
0100
0001
0100
0000
0010
1000
,
0100
0010
0000
0110
0000
0010
0100
1000
,
0010
0100
0001
0000
0100
0000
0010
0000
,
1000
0100
0000
0110
0000
0100
1000
0000
,
0010
0100
0001
0100
,
0010
0000
1000
0010
1000
0000
0010
0000
,
1000
0000
0010
1000
0000
1000
0010
0000
,
0010
0000
0000
0100
,
0001
1000
0100
0010
0001
0000
1000
0000
,
1000
0000
0000
0000
0001
0010
0200
0000
,
0000
0000
0000
0000
,
0000
0000
0300
1000
,
1000
0000
0010
0100
0001
0010
0100
0000
,
0100
0000
0010
0001
1000
0010
0100
0000
,
0100
0000
0001
1000
0001
1000
0100
0000
,
0100
0020
0000
0000
0000
0000
0031
0000
,
0001
0000
0010
0100
1000
0000
0001
0000
,
0001
0000
0010
0100
0010
0000
0001
0000
,
0001
0010
0001
0000
0001
1000
0100
0010
,
0001
1000
0001
0000
1000
0000
1001
0000
,
0001
0100
0010
0000
1000
0000
1001
0000
,
0001
0100
0010
0000
1000
0000
1001
0000
,
0001
0100
0010
0000
1000
0000
1001
0000
,
0001
0100
0010
0000
0001
0000
1001
0000
,
1000
0100
0010
0000
0001
0000
1001
0000
,
1000
0100
0010
0000
0001
0000
1001
0000
,
1000
0100
0010
0000
0001
0000
1001
0000
,
0001
0000
0200
0000
,
0000
0010
0000
0000
0010
0000
0000
0000
,
0000
0001
0000
0000
1000
0000
0000
0000
,
0000
0001
0000
0000
0010
0000
0000
0000
,
0000
0000
0310
0000
0010
0100
0001
1000
,
0100
0010
0001
1000
0002
0000
0203
0000
,
0320
2030
3200
0000
,
0310
0001
0010
0000
0100
0000
1000
0000
,
0010
0100
0001
0000
0100
0000
0010
0000
,
1000
0100
0010
0000
0002
0000
0000
0000
,
2003
3020
0230
0000
,
0000
0000
0301
0000
1000
0100
0010
0001
,
0010
0100
1000
0000
1001
0000
0000
0000
;

//---------------dance-single - Renard----------------
#NOTES:
     dance-single:
     Renard:
     Easy:
     2:
     0.234,0.243,0.116,0.178,0.000: // measure 1
0000
0000
0000
0000
,  // measure 2
0000
0000
0000
0000
,  // measure 3
0000
0000
0000
0000
,  // measure 4
0000
0000
0000
0000
,  // measure 5
1000
0001
0100
0100
,  // measure 6
0002
0000
1003
0100
,  // measure 7
0100
0010
0010
0001
,  // measure 8
1000
0001
0001
0100
,  // measure 9
0000
0010
0000
1000
,  // measure 10
0100
0020
0000
0031
,  // measure 11
0010
0001
0010
0100
,  // measure 12
1000
0100
1000
0010
,  // measure 13
0000
0100
0000
0001
,  // measure 14
1000
0002
0000
1003
,  // measure 15
0001
0000
1001
0001
,  // measure 16
1000
1000
0001
0002
,  // measure 17
0000
1003
0100
0002
,  // measure 18
0000
0103
1000
0020
,  // measure 19
0000
0000
0000
1030
,  // measure 20
0002
0203
0320
2030
,  // measure 21
0000
3000
0100
0010
,  // measure 22
0001
1000
0001
0100
,  // measure 23
0000
0110
0000
0010
,  // measure 24
0000
1010
0000
1000
,  // measure 25
0000
1100
0000
2002
,  // measure 26
0000
0000
0000
0000
,  // measure 27
0000
0000
3003
1000
,  // measure 28
1000
0001
0001
1000
,  // measure 29
1000
0001
0001
0100
,  // measure 30
0100
0001
0001
1000
,  // measure 31
1000
0020
0000
1030
,  // measure 32
1000
0001
0001
0100
,  // measure 33
0001
1000
0100
1000
,  // measure 34
1000
0001
0001
0010
,  // measure 35
0001
2000
3001
0001
,  // measure 36
0100
0100
0001
0001
,  // measure 37
0100
0100
0010
0010
,  // measure 38
1000
1000
0010
1000
,  // measure 39
1010
0000
1000
1000
,  // measure 40
0100
0100
0010
0010
,  // measure 41
0001
0001
1000
1000
,  // measure 42
0100
0100
0010
0001
,  // measure 43
2000
0000
0002
0000
,  // measure 44
0000
3000
0200
0000
,  // measure 45
0000
0003
0020
0000
,  // measure 46
0000
0300
2000
0000
,  // measure 47
0000
3030
1001
0101
,  // measure 48
0000
0101
0001
1000
,  // measure 49
0100
0010
0001
0000
,  // measure 50
0000
1000
0100
0000
,  // measure 51
0000
1000
1100
0000
,  // measure 52
0000
1010
1001
0000
,  // measure 53
0000
1100
1000
0001
,  // measure 54
0100
0001
0010
0100
,  // measure 55
0010
0002
1003
0000
;
