#TITLE:Prince of Darkness;
#SUBTITLE:;
#ARTIST:Renard;
#TITLETRANSLIT:;
#SUBTITLETRANSLIT:;
#ARTISTTRANSLIT:;
#CREDIT:;
#BANNER:prince.png;
#BACKGROUND:prince-bg.png;
#LYRICSPATH:;
#CDTITLE:;
#MUSIC:prince.ogg;
#OFFSET:0.000;
#SAMPLESTART:19.576;
#SAMPLELENGTH:12.000;
#SELECTABLE:YES;
#BPMS:0.000=110.000,32.500=220.000,41.000=440.000,57.000=220.000,65.000=440.000,81.000=220.000,89.000=440.000,105.000=220.000,113.000=440.000,129.000=220.000,296.000=439.999,312.000=220.000,320.000=440.000,336.000=110.000,337.500=220.000,340.500=330.000,345.000=440.000,361.000=220.000;
#STOPS:32.000=1.364
,32.500=0.409
,287.000=0.273
;
#BGCHANGES:;
#GENRE:Chaotic Beats;

//---------------dance-single - Renard----------------
#NOTES:
     dance-single:
     Renard:
     Challenge:
     14:
     0.980,1.000,1.000,0.072,0.371: // measure 1
0000
0000
0000
0000
,  // measure 2
0000
0000
0000
0000
,  // measure 3
1000
0000
0000
0000
0000
0000
0001
0100
0001
0000
0000
0000
1001
0000
0000
0000
1010
0000
0010
0000
0100
0000
0000
0000
0001
0000
1000
0000
1001
0000
0000
0000
,  // measure 4
0101
0000
0110
0000
1000
0100
0010
0100
0000
0000
1001
0000
0010
1000
0001
1000
,  // measure 5
0001
0000
0001
0000
0100
0000
0010
0000
1000
0000
0000
0000
1000
0000
0000
0000
1000
0000
1000
0001
0100
0000
0010
0000
1000
0000
0001
0000
1001
0000
0000
0000
,  // measure 6
0001
0000
0100
0000
0001
0000
0100
0000
0101
0000
0000
0000
0101
0000
0000
0000
1000
0000
0010
1000
0010
0000
1000
0000
0001
0000
1000
0000
1001
0000
0000
0000
,  // measure 7
0001
0000
1000
0000
0010
0000
0100
0000
0110
0000
0000
0000
1010
0000
0000
0000
0001
0000
0100
0010
0100
0000
0001
0000
1000
0000
0010
0000
0110
0000
0000
0000
,  // measure 8
1010
1000
0001
0100
1001
0100
0010
1000
1010
0000
1001
0000
1100
0000
1010
0000
,  // measure 9
2002
3003
1001
0000
1000
0000
0001
0000
0100
0000
0001
1000
0001
0000
0000
0000
,  // measure 10
1001
0000
1100
0000
0010
0001
1001
0000
,  // measure 11
0001
0100
0101
0000
0000
0000
0001
0000
,  // measure 12
1001
0000
1000
1100
,  // measure 13
0000
1000
1001
0000
,  // measure 14
0001
0100
0001
0000
0000
1001
0000
0000
,  // measure 15
1100
0000
0000
0000
1001
0000
1000
0000
0010
0000
1000
0001
1000
0000
0000
0000
,  // measure 16
1001
0000
0011
0000
0100
1000
1001
0000
,  // measure 17
1000
0010
1010
0000
0000
0000
1000
0000
,  // measure 18
1001
0000
0001
0011
,  // measure 19
0000
0001
1001
0000
,  // measure 20
1000
0010
1000
0000
0000
1001
0000
0000
,  // measure 21
0011
0000
0000
0000
1001
0000
0001
0000
0100
0000
0010
1000
0010
0000
0100
0000
,  // measure 22
0001
0000
2001
0000
0010
0010
0010
0000
,  // measure 23
3100
1001
0000
0001
,  // measure 24
0101
0000
0000
0000
0010
1000
0010
0000
,  // measure 25
0100
0001
1000
0100
,  // measure 26
0010
0001
0010
0000
0000
0100
0000
0000
,  // measure 27
1000
0000
0000
0000
0001
0000
0100
0000
0010
0000
1000
0010
1000
0000
0010
0000
,  // measure 28
1010
0101
0011
1100
,  // measure 29
0001
0010
0011
0000
0000
0000
1000
0000
,  // measure 30
1010
0000
0010
0110
,  // measure 31
0000
0100
0101
0000
,  // measure 32
0001
1000
0001
0000
0000
0100
0000
0000
,  // measure 33
0010
0000
1010
0000
0101
0000
0001
0010
,  // measure 34
0000
0000
0100
1000
0100
0000
1000
0000
0001
0000
0000
0000
0100
0001
0100
0000
,  // measure 35
0001
0000
0000
0000
1100
0000
0000
0000
0011
0000
0000
0000
1000
0001
1000
0000
,  // measure 36
0000
0101
0000
0100
0110
0000
0010
1000
,  // measure 37
0000
0000
0010
0100
0101
0000
0000
0000
1010
0000
0000
0000
1000
0000
0100
0000
,  // measure 38
0000
0000
0010
0001
0010
0000
0001
0000
1000
0000
0000
0000
0010
1000
0010
0000
,  // measure 39
1000
0000
0000
0000
0011
0000
0000
0000
1100
0000
0000
0000
0001
1000
0001
0000
,  // measure 40
0000
1010
0000
0010
0110
0000
0100
0001
,  // measure 41
0000
0000
0010
0001
0011
0000
0000
0000
1100
0000
0000
0000
0100
0000
0001
0000
,  // measure 42
0000
0000
1000
0010
1000
0000
0010
0000
0100
0000
0000
0000
1000
0100
1000
0000
,  // measure 43
0100
0000
0000
0000
1010
0000
0000
0000
0101
0000
0000
0000
0010
0100
0010
0000
,  // measure 44
0000
1100
0000
1000
1001
0000
0001
0010
,  // measure 45
0000
0000
0001
1000
1100
0000
0000
0000
0011
0000
0000
0000
0010
0000
1000
0000
,  // measure 46
0000
0000
0001
0100
0001
0000
0100
0000
0010
0000
0000
0000
0001
0010
0001
0000
,  // measure 47
0010
0000
0000
0000
0101
0000
0000
0000
1010
0000
0000
0000
0100
0010
0100
0000
,  // measure 48
0000
0011
0000
0001
1001
0000
1000
0100
,  // measure 49
0000
0000
1000
0001
1000
0000
0001
0000
0100
0000
0010
0000
0110
0000
0000
0000
,  // measure 50
0010
1000
0000
0001
0100
0010
1000
0001
,  // measure 51
1000
0100
0010
0001
0010
0100
0110
0000
,  // measure 52
0100
1000
0000
0001
1000
0001
1000
0001
,  // measure 53
1000
0000
0010
0100
0001
0100
0110
0000
,  // measure 54
0010
1000
0000
0100
0010
0001
0011
0000
,  // measure 55
0010
0100
1000
0001
0100
0010
0110
0000
,  // measure 56
1010
1001
0202
0000
0000
0000
1313
0000
,  // measure 57
0000
0000
0001
0100
0010
1000
0010
1000
,  // measure 58
0100
0010
0001
0010
0100
1000
0001
0100
,  // measure 59
0001
0100
0001
0100
0010
0000
1000
0000
0100
0000
0010
0000
0001
0000
0010
0000
,  // measure 60
0100
1000
0001
0100
0010
1000
0001
0100
,  // measure 61
0001
0100
0001
0100
0001
0000
0100
0000
0010
0000
1000
0000
0100
0000
0010
0000
,  // measure 62
0001
0010
0100
1000
0001
0100
0010
1000
,  // measure 63
0100
1000
0100
1000
0100
0000
1000
0000
0010
0000
0100
0000
0001
0000
0100
0000
,  // measure 64
0010
0100
0010
0100
0010
0000
1000
0000
0100
0000
0010
0000
0001
0000
0010
0000
,  // measure 65
0100
0100
1000
0010
0100
0001
0100
0001
,  // measure 66
0010
0100
1000
0100
0010
0001
1000
0010
,  // measure 67
1000
0010
1000
0010
0100
0000
0001
0000
0010
0000
0100
0000
1000
0000
0100
0000
,  // measure 68
0010
0001
1000
0010
0100
0001
1000
0010
,  // measure 69
1000
0010
1000
0010
1000
0000
0010
0000
0100
0000
0001
0000
0010
0000
0100
0000
,  // measure 70
1000
0100
0010
0001
1000
0010
0100
0001
,  // measure 71
0010
0001
0010
0001
0010
0000
0001
0000
0100
0000
0010
0000
1000
0000
0010
0000
,  // measure 72
0100
0001
0202
0000
0000
0000
1313
0000
,  // measure 73
0010
0000
0100
0000
1000
0000
0100
0010
0100
0000
0000
0000
0110
0000
0000
0000
,  // measure 74
1010
0000
0001
0100
0110
0000
0100
1000
,  // measure 75
1100
0000
0100
0110
,  // measure 76
0000
0010
1010
0000
,  // measure 77
0010
0000
0110
0000
0000
0000
0100
1000
,  // measure 78
0100
0000
0000
0110
0000
0000
1010
0000
,  // measure 79
0110
0000
0010
0000
0001
0000
0010
0100
0010
0000
0000
0000
0110
0000
0000
0000
,  // measure 80
0101
0000
1000
0010
0110
0000
0010
0001
,  // measure 81
0011
0000
0010
0110
,  // measure 82
0000
0100
0101
0000
,  // measure 83
0100
0000
0110
0000
0000
0000
0010
0001
,  // measure 84
0010
0000
0000
0110
0000
0000
0101
0000
,  // measure 85
0001
0100
0010
1010
0000
1000
0100
0000
0010
0000
0001
0000
0011
0000
0000
0000
,  // measure 86
0010
0000
0100
0000
0000
1000
0000
0000
0001
0000
0000
0101
0000
0000
0000
0000
,  // measure 87
0000
0001
0000
0000
0100
0000
0000
0000
0010
0000
0000
0000
1000
0000
0000
0000
,  // measure 88
1010
0000
0010
1000
,  // measure 89
0001
0100
0010
1000
,  // measure 90
0100
0000
0010
0000
0001
0010
0100
0000
,  // measure 91
1000
0001
0100
0000
0000
0000
0000
0000
;
