#TITLE:Powerhaus;
#SUBTITLE:;
#ARTIST:Azrael;
#TITLETRANSLIT:;
#SUBTITLETRANSLIT:;
#ARTISTTRANSLIT:;
#CREDIT:;
#BANNER:haus.png;
#BACKGROUND:haus-bg.png;
#LYRICSPATH:;
#CDTITLE:;
#MUSIC:haus.ogg;
#OFFSET:0.000;
#SAMPLESTART:11.143;
#SAMPLELENGTH:12.000;
#SELECTABLE:YES;
#BPMS:0.000=172.000;
#STOPS:;
#BGCHANGES:;

//---------------dance-single - Renard----------------
#NOTES:
     dance-single:
     Renard:
     Hard:
     9:
     0.607,0.699,0.626,0.000,0.454:
0000
0000
0000
0000
,
0000
0000
0000
0000
,
0000
0000
0000
0000
,
0000
0000
0000
0000
,
1000
0000
0000
0101
0000
0000
0000
0000
0001
0010
0000
0000
,
0100
0000
0000
1001
0000
0100
0000
0000
0000
1010
0000
0000
,
0001
0000
0000
1100
0000
0000
0000
0000
0001
0010
0000
0000
,
0110
0000
1001
0000
0110
0000
0100
0010
1000
0001
0000
0000
,
1100
0000
0000
0011
0000
0001
0010
0000
0000
1100
0000
1000
,
0010
0000
0000
0101
0000
0001
1000
0000
0100
0010
0000
0000
,
0011
0000
0000
0110
0000
0100
1000
0000
0000
1010
0000
0100
,
0001
0000
0000
0011
0000
0010
0100
0000
1000
0001
0000
0000
,
0110
0000
0000
1001
0000
1000
0100
0000
0000
0011
0000
0010
,
0100
0000
0000
1001
0000
0001
0100
0000
0010
1000
0000
0000
,
1001
0000
0000
1100
0000
0010
0001
0000
0000
0110
0000
0100
,
1000
0000
0101
0000
1010
0000
1000
0100
0010
0001
0000
0000
,
1001
0000
0000
0110
0000
0010
1000
0000
0000
0101
0000
0001
,
1000
0000
0000
1100
0000
0010
0001
0000
1000
0100
0000
0000
,
0011
0000
0000
1100
0000
0001
1000
0000
0000
0110
0000
0010
,
1000
0000
0000
0101
0000
0001
1000
0000
1000
0001
0000
0000
,
1100
0000
0000
0011
0000
0001
0010
0000
0000
0110
0000
0100
,
1000
0000
0000
1001
0000
0001
0100
0000
0010
1000
0000
0000
,
1100
0000
0000
1001
0000
0001
0100
0000
0000
0110
0000
0010
,
1000
0100
0010
0001
0010
0100
1000
0001
0010
0100
0000
0000
,
1000
0000
0000
0100
0000
0000
0010
0000
0001
0010
0000
0000
,
0100
1000
0001
0001
,
0100
0010
1000
0010
,
0100
0100
0001
0001
,
1000
0000
0000
0100
0000
0000
0010
0000
0001
1000
0000
0000
,
0001
0001
0100
0100
,
0010
0010
1000
0100
,
0010
0010
0001
1000
,
0001
0000
0000
0100
0000
0010
1000
0000
0010
1000
0000
0000
,
0100
0010
0010
0001
,
0001
1000
0001
0100
,
0010
1000
0100
0010
,
0001
0000
1000
0000
0000
0010
0100
0000
0001
0000
0000
1001
,
0000
1000
0100
0010
,
0001
0000
1000
0100
0000
0010
0001
0000
0000
1000
0000
0000
,
0110
0000
0000
0000
,
1000
0000
0011
0000
0100
1000
1010
0000
,
0100
0000
1001
0000
0010
0100
0110
0000
,
0100
0000
1010
0100
0000
0001
0110
0000
,
1001
0110
1001
0110
,
1100
0000
0011
0100
0000
1000
0110
0000
,
0001
0000
1010
0100
0000
0001
0110
0000
,
1001
0000
0110
1000
0000
0100
0011
0000
,
0010
0100
1000
0001
0100
0000
1010
0000
,
1001
0000
1000
0100
0010
0000
0011
0010
,
0100
0000
1100
1000
0010
0100
0001
0000
,
1000
0000
0011
0100
1000
0000
0101
1000
,
0010
0000
0100
0001
0010
0100
1000
0000
,
1100
0000
0001
0010
0100
0000
1000
0010
,
0100
0000
0001
0100
0010
0000
1100
0000
,
0110
0000
0100
0001
0010
0000
0100
0010
,
0001
0000
0001
0000
1000
0000
1000
0000
0001
0000
0000
0100
0000
0000
0010
1000
,
0001
0000
0000
0000
,
0000
0000
0000
0000
0000
0000
0000
0000
0010
0100
0000
0000
,
1000
0000
0000
0100
0000
0100
0010
0000
0000
0001
0000
0001
,
1000
0000
0000
0001
0000
0100
0010
0100
0010
0100
0000
0000
,
0010
0000
0000
1000
0000
0100
0010
0000
0000
0001
0000
0010
,
0100
0000
0000
1000
0000
0001
0100
0010
0100
0010
0000
0000
,
1000
0000
0000
0100
0000
1000
0001
0000
0000
0010
0000
0001
,
1000
0000
0000
0001
0000
0100
0010
1000
0010
1000
0000
0000
,
0001
0000
0000
1000
0000
0100
1000
0000
0000
0001
0000
0010
,
0001
0000
0000
1000
0000
0001
0100
0010
0100
0010
0000
0000
,
1000
0000
0000
0100
0000
1000
0100
0000
0000
0010
0000
0100
,
0010
0000
0000
0001
0000
1000
0001
0100
0010
1000
0000
0000
,
0001
0000
0000
1000
0000
0100
1000
0000
0000
0001
0000
0010
,
0001
0000
0000
1000
0000
0010
0100
0001
1000
0001
0000
0000
,
1000
0000
0000
0100
0000
0010
0001
0000
0000
1000
0000
0001
,
0010
0000
0000
0100
0000
1000
0001
0100
0010
1000
0000
0000
,
0001
0000
0000
0100
0000
0001
1000
0000
0000
0100
0000
0010
,
0001
0000
0000
1000
0000
0001
0100
0010
1000
0001
0000
0000
,
0100
0000
0000
0010
0000
1000
0100
0000
0010
0001
0000
0000
,
1000
0100
0010
0001
,
1000
0001
0100
0010
,
1001
0000
0000
0000
;

//---------------dance-single - Renard----------------
#NOTES:
     dance-single:
     Renard:
     Medium:
     6:
     0.397,0.454,0.381,0.100,0.000:
0000
0000
0000
0000
,
0000
0000
0000
0000
,
0000
0000
0000
0000
,
0000
0000
0000
0000
,
1000
0101
0000
1001
,
1000
0011
0000
1001
,
0001
0110
0000
1001
,
1000
1000
0001
0110
,
1000
1000
0001
0100
,
0001
0100
0010
0010
,
1000
0100
0010
0001
,
0010
0001
1000
1000
,
0001
0100
0010
1000
,
0010
1000
0001
0001
,
0100
0010
1000
0001
,
0100
0010
1000
0001
,
0100
0001
0000
1001
,
1000
0100
0000
1001
,
0001
0010
0000
1001
,
0010
0100
0010
1001
,
0100
1001
0000
1001
,
0010
1001
0000
1001
,
1000
0100
0010
0001
,
1000
1000
0001
0110
,
0010
0010
0200
0000
,
0301
1000
0200
0000
,
0310
0010
0002
0000
,
1003
0001
0200
0000
,
0310
0010
1000
0100
,
0010
0010
0001
0000
,
0100
0100
0010
1000
,
0002
0000
2003
0000
,
3010
0010
0200
0000
,
0301
0000
1000
0000
,
0100
0100
0020
0000
,
0031
0000
1000
0000
,
0001
0100
0020
0000
,
2030
0000
3100
0000
,
0010
0001
1000
0001
,
0200
0000
0000
0000
,
0310
0110
0000
1001
,
1000
0100
0010
0001
,
1000
0000
0001
0100
0000
0000
1010
0000
,
1000
0000
0100
0010
0000
0000
1001
0000
,
0001
0000
0100
0010
0000
0000
1001
0000
,
1000
0000
0100
0010
0000
0000
1001
0000
,
0001
0000
0010
0100
0000
0000
1001
0000
,
1000
0000
0100
0000
0010
0001
0010
0000
,
0001
0000
0110
0000
0000
1000
0001
0000
,
0100
0000
0010
0000
0000
1000
0001
0000
,
1000
0011
0000
1000
,
0001
0000
0100
0000
0000
0010
1000
0000
,
0001
0000
0100
0000
0000
0010
1000
0000
,
0100
0000
0010
0000
0000
0001
0010
0000
,
0100
0000
1000
0000
0000
0001
0100
0000
,
0001
1000
0100
0100
,
1001
0000
0000
0000
,
0000
0000
0000
0110
,
1000
1000
0001
0010
,
0001
0100
0001
1000
,
0001
0001
1000
0100
,
1000
0010
1000
0001
,
0100
0100
0010
1000
,
0010
0100
0001
1000
,
0001
1000
0100
0010
,
0001
0001
1000
1000
,
0010
0110
0000
1001
,
1000
1100
0000
0011
,
0100
1001
0000
1010
,
0100
1001
1100
1001
,
1000
0101
0000
1001
,
1000
0011
0000
1001
,
0100
1010
0000
0101
,
0001
1000
0100
0010
,
0001
0001
0010
0100
,
1000
1000
0100
0010
,
0001
0001
0100
0010
,
1000
0000
0000
0000
;

//---------------dance-single - Renard----------------
#NOTES:
     dance-single:
     Renard:
     Easy:
     2:
     0.313,0.350,0.127,0.000,0.000: // measure 1
0000
0000
0000
0000
,  // measure 2
0000
0000
0000
0000
,  // measure 3
0000
0000
0000
0000
,  // measure 4
0000
0000
0000
0000
,  // measure 5
1000
0001
0000
0100
,  // measure 6
0001
1000
0000
0100
,  // measure 7
1000
0001
0000
0100
,  // measure 8
0001
1000
0100
0010
,  // measure 9
0001
0001
1000
1000
,  // measure 10
0010
0010
0100
0100
,  // measure 11
0001
0001
1000
1000
,  // measure 12
0100
0100
0010
0010
,  // measure 13
0001
0001
0010
0010
,  // measure 14
0100
0100
1000
1000
,  // measure 15
0010
0100
0010
0000
,  // measure 16
1000
0001
1000
0010
,  // measure 17
0100
0100
0001
0000
,  // measure 18
1000
0000
0100
0000
,  // measure 19
0010
0010
0001
0000
,  // measure 20
1000
0000
0001
0000
,  // measure 21
0100
0100
0010
0000
,  // measure 22
1000
0000
0100
0000
,  // measure 23
1000
1000
0100
0000
,  // measure 24
0010
0000
0001
1000
,  // measure 25
0001
0001
0100
0100
,  // measure 26
0001
0001
0010
0010
,  // measure 27
0001
0001
0100
0100
,  // measure 28
0001
0010
0001
0000
,  // measure 29
1000
1000
0100
0100
,  // measure 30
1000
1000
0010
0010
,  // measure 31
1000
0001
0100
0001
,  // measure 32
1000
1000
0001
0001
,  // measure 33
1000
0100
1000
0000
,  // measure 34
0100
0000
1000
0000
,  // measure 35
0001
0010
0001
0000
,  // measure 36
0010
0000
0001
0000
,  // measure 37
0100
0001
0100
0000
,  // measure 38
0001
0000
0100
0000
,  // measure 39
0001
1000
0100
0000
,  // measure 40
1001
0000
0000
0000
,  // measure 41
1000
0001
0100
0110
,  // measure 42
0000
1001
0000
0110
,  // measure 43
1000
0100
0010
1001
,  // measure 44
0000
0110
0000
1001
,  // measure 45
1000
0001
1000
0001
,  // measure 46
0000
0110
0000
1001
,  // measure 47
1000
0100
0010
0001
,  // measure 48
0000
0110
0000
1001
,  // measure 49
1000
0100
0000
0100
,  // measure 50
0010
0001
0000
0001
,  // measure 51
0100
0010
0000
0010
,  // measure 52
1000
0100
0000
0100
,  // measure 53
0010
0001
0000
0001
,  // measure 54
1000
0010
0000
0010
,  // measure 55
0100
0001
0100
0001
,  // measure 56
1000
0000
0001
0000
,  // measure 57
0110
0000
0000
0000
,  // measure 58
0000
0000
0000
1001
,  // measure 59
1000
1000
0100
0010
,  // measure 60
0100
0010
0100
0010
,  // measure 61
0001
0001
0100
0010
,  // measure 62
0100
0010
0100
0000
,  // measure 63
1000
1000
0010
0000
,  // measure 64
0100
0000
0001
0000
,  // measure 65
0010
0010
0100
0000
,  // measure 66
1000
0000
0001
0000
,  // measure 67
1000
0001
1000
0001
,  // measure 68
1000
0001
1000
0001
,  // measure 69
1000
0001
1000
0001
,  // measure 70
1000
0001
1000
0000
,  // measure 71
0010
0100
0010
0100
,  // measure 72
0010
0100
0010
0100
,  // measure 73
0010
0100
0010
0100
,  // measure 74
0010
0000
0100
0000
,  // measure 75
1001
0000
0100
0000
,  // measure 76
0001
0000
1000
0000
,  // measure 77
0100
0000
0010
0001
,  // measure 78
0100
0000
0000
0000
;
