#TITLE:Pink Rhapsody;
#SUBTITLE:;
#ARTIST:Kitsune²;
#TITLETRANSLIT:;
#SUBTITLETRANSLIT:;
#ARTISTTRANSLIT:;
#CREDIT:;
#BANNER:pink.png;
#BACKGROUND:pink-bg.png;
#LYRICSPATH:;
#CDTITLE:;
#MUSIC:pink.ogg;
#OFFSET:0.000;
#SAMPLESTART:15.360;
#SAMPLELENGTH:12.000;
#SELECTABLE:YES;
#BPMS:0.000=125.000;
#STOPS:;
#BGCHANGES:;

//---------------dance-single - Renard----------------
#NOTES:
     dance-single:
     Renard:
     Hard:
     8:
     0.517,0.534,0.221,0.025,0.196:
0000
0000
0000
0000
,
0000
0000
0000
0000
,
0000
0000
0000
0000
,
0000
0000
0000
0000
,
1000
0001
1000
0100
0010
0000
0011
0000
,
0110
0000
0100
1000
0010
0000
0010
0100
,
0001
0100
0001
1000
0100
0000
1100
0000
,
0110
0000
0100
1000
0001
0000
0001
0100
,
0001
0100
0010
1000
0010
1000
0100
0000
,
0110
0000
0010
0001
0010
0000
0100
1000
,
0001
0000
1001
0000
1000
0010
1010
0000
,
1001
0000
1000
0100
0010
0001
0010
0100
,
1000
0000
0011
0000
0100
1000
0001
0000
,
1001
0000
0100
0010
1010
0000
1000
0100
,
1100
0000
0000
0000
0100
0000
0010
0000
0001
0000
0000
0000
0010
0100
0000
0100
,
1000
0010
0100
0001
0100
0000
0110
0000
,
0010
0000
0000
1000
0000
0000
0001
0000
0000
0100
0000
0000
0001
0000
0000
1000
0000
0000
0100
0000
0010
0000
0001
0000
,
0010
0100
1000
0000
0010
0100
0001
0000
,
0100
0000
0000
0010
0000
0000
1000
0000
0000
0010
0100
0001
,
0100
0000
0010
0000
0100
0001
1000
0000
,
0100
0000
0000
0000
0000
0000
0010
0000
0000
0000
0000
0000
0001
0000
0000
0010
0000
0000
0100
0000
1000
0000
0001
0000
,
0010
0100
1000
0010
0100
0000
0101
0000
,
0110
0000
0000
0000
0000
0000
0010
0000
0000
0000
0000
0000
1000
0000
0000
0100
0000
0000
0010
0000
0001
0000
0010
0000
,
0100
1000
0010
1000
0001
0000
1001
0000
,
0001
0000
0100
0000
0001
0100
0001
0000
1000
0000
0100
0000
1000
0100
1000
0000
,
0010
0000
1000
0000
0010
1000
0010
0000
1000
0000
0001
0000
1000
0001
1000
0000
,
0001
0000
0010
0000
0001
0010
0001
0000
0100
0000
0001
0000
0100
0001
0100
0000
,
0010
0000
0100
0000
0010
0100
0010
0000
1000
0000
0010
0000
1000
0010
1000
0000
,
0100
0000
1000
0000
0100
1000
0100
0000
0010
0000
0001
0000
0010
0001
0010
0000
,
0001
0000
0100
0000
0001
0100
0001
0000
0100
0000
0010
0000
0100
0010
0100
0000
,
0010
0000
1000
0000
0010
1000
0010
0000
1000
0000
0100
0000
1000
0100
1000
0000
,
0001
1000
0001
0100
0001
0010
0001
1001
,
0100
0110
0000
0010
1000
0100
0010
0001
,
0010
0000
0100
0000
1000
0000
0001
0000
0100
0000
0010
0000
1000
0010
1000
0010
,
1000
0010
0100
0001
0010
0100
1000
0100
,
1000
0000
0001
0000
0010
0000
0100
0000
1000
0000
0001
0000
0010
0001
0010
0001
,
0010
0100
1000
0001
0100
0010
1000
0010
,
0100
0000
0001
0000
1000
0000
0100
0000
0010
0000
0001
0000
1000
0001
1000
0001
,
1000
0001
0100
0010
1000
0100
0010
0001
,
0010
0000
0100
0000
1000
0000
0001
0000
0010
0000
0100
0000
1000
0001
1000
0002
,
2000
0000
0000
0000
,
0000
0000
3003
0000
;

//---------------dance-single - Renard----------------
#NOTES:
     dance-single:
     Renard:
     Challenge:
     9:
     0.519,0.534,0.221,0.025,0.196:
0000
0000
0000
0000
,
0000
0000
0000
0000
,
0000
0000
0000
0000
,
0000
0000
0000
0000
,
1000
0001
1000
0100
0010
0000
0011
00MM
,
0110
0MM0
0100
1000
0010
0000
0010
0100
,
0001
0100
0001
1000
0100
0000
1100
MM00
,
0110
0MM0
0100
1000
0001
0000
0001
0100
,
0001
0100
0010
1000
0010
1000
0100
0000
,
0110
0MM0
0010
0001
0010
0000
0100
1000
,
0001
0000
1001
M00M
1000
0010
1010
M0M0
,
1001
100M
1000
0100
0010
0001
0010
0100
,
1000
0000
0011
00MM
0100
1000
0001
0000
,
1001
M00M
0100
0010
1010
M0M0
1000
0100
,
1100
0000
MM00
0000
0100
0000
0010
0000
0001
0000
0000
0000
0010
0100
0000
0100
,
1000
0010
0100
0001
0100
0000
0110
0MM0
,
0010
0000
0000
10M0
0000
0000
M001
0000
0000
010M
0000
0000
0M01
0000
0000
100M
0000
0000
M100
0000
0010
0M00
0001
0000
,
0010
01M0
1M00
M000
0010
01M0
0M01
000M
,
0100
0000
0000
0M00
0000
0000
0010
0000
0000
00M0
0000
0000
1000
0000
0000
M000
0000
0000
0010
0000
0100
00M0
0001
0000
,
0100
0M00
0010
00M0
0100
0M01
100M
M000
,
0100
0000
0000
0M00
0000
0000
0010
0000
0000
00M0
0000
0000
0001
0000
0000
001M
0000
0000
01M0
0000
1000
0M00
0001
0000
,
0010
01M0
1M00
M010
01M0
0M00
0101
0M0M
,
0110
0000
0000
0MM0
0000
0000
0010
0000
0000
00M0
0000
0000
1000
0000
0000
M100
0000
0000
0M10
0000
0001
00M0
0010
0000
,
0100
1M00
M010
10M0
M001
000M
1001
M00M
,
0001
0000
0100
0000
0001
0100
0M01
0000
1000
0000
0100
0000
1000
0100
1M00
0000
,
0010
0000
1000
0000
0010
1000
M010
0000
1000
0000
0001
0000
1000
0001
100M
0000
,
0001
0000
0010
0000
0001
0010
00M1
0000
0100
0000
0001
0000
0100
0001
010M
0000
,
0010
0000
0100
0000
0010
0100
0M10
0000
1000
0000
0010
0000
1000
0010
10M0
0000
,
0100
0000
1000
0000
0100
1000
M100
0000
0010
0000
0001
0000
0010
0001
001M
0000
,
0001
0000
0100
0000
0001
0100
0M01
0000
0100
0000
0010
0000
0100
0010
01M0
0000
,
0010
0000
1000
0000
0010
1000
M010
0000
1000
0000
0100
0000
1000
0100
1M00
0000
,
0001
100M
M001
010M
0M01
001M
00M1
1001
,
M1MM
M11M
MMMM
0010
10M0
M100
0M10
00M1
,
001M
0000
01M0
0000
1M00
0000
M001
0000
010M
0000
0M10
0000
10M0
M010
10M0
M010
,
10M0
M010
01M0
0M01
001M
01M0
1M00
M100
,
1M00
0000
M001
0000
001M
0000
01M0
0000
1M00
0000
M001
0000
001M
00M1
001M
00M1
,
001M
01M0
1M00
M001
010M
0M10
10M0
M010
,
01M0
0000
0M01
0000
100M
0000
M100
0000
0M10
0000
00M1
0000
100M
M001
100M
M001
,
100M
M001
010M
0M10
10M0
M100
0M10
00M1
,
001M
0000
01M0
0000
1M00
0000
M001
0000
001M
0000
01M0
0000
1M00
M001
100M
M002
,
2000
0000
0000
0000
,
0000
0000
3003
0000
;

//---------------dance-single - Renard----------------
#NOTES:
     dance-single:
     Renard:
     Medium:
     5:
     0.291,0.327,0.123,0.159,0.000:
0000
0000
0000
0000
,
0000
0000
0000
0000
,
0000
0000
0000
0000
,
0000
0000
0000
0000
,
1000
0000
0001
0010
0001
0000
1000
0000
,
0002
0000
0103
0000
,
0010
0000
1000
0100
1000
0000
0001
0000
,
0020
0000
0130
0000
,
2000
3100
0010
0011
,
2002
0003
0020
3030
,
1000
1010
0100
0001
,
0022
0000
0033
0000
,
0001
0010
0100
1000
,
2020
0030
0002
3003
,
1000
0001
0101
0011
,
0101
0000
0000
0000
,
0001
0000
0100
0000
0010
1000
0010
0000
,
1000
0100
0010
0001
,
0001
0000
0010
0000
0100
0000
1000
0010
,
0100
0001
0100
0010
,
0110
0000
0010
0000
1000
0100
0010
0000
,
0001
0010
0100
1000
,
0001
0001
0010
0010
,
0100
1000
0010
0100
,
0001
0100
0010
0100
0001
0000
0100
0000
,
0010
0000
1000
0000
,
0100
0010
0100
1000
0010
0000
0100
0000
,
0010
0000
0100
0000
,
0001
0010
0001
1000
0001
0000
0100
0000
,
0001
0000
1000
0000
,
0100
0010
0001
1000
0010
0000
0100
0000
,
0001
0000
1000
0000
,
0001
0010
0001
0000
1000
0000
0100
0000
,
0010
0001
0010
0000
0100
0000
0000
0000
,
1000
0010
1000
0000
0010
0000
0100
0000
,
0001
0100
0001
0000
1000
0000
0100
0000
,
0010
0001
0010
0000
0100
0000
1000
0000
,
0001
0010
0001
0000
1000
0000
0010
0000
,
0100
0001
0100
0000
0010
0000
1000
0000
,
0100
0010
0100
0000
0010
0000
0001
0000
,
2002
0000
0000
0000
,
3003
0000
0000
0000
;

//---------------dance-single - Renard----------------
#NOTES:
     dance-single:
     Renard:
     Easy:
     1:
     0.222,0.417,0.012,0.368,0.000: // measure 1
0000
0000
0000
0000
,  // measure 2
0000
0000
0000
0000
,  // measure 3
0000
0000
0000
0000
,  // measure 4
0000
0000
0000
0000
,  // measure 5
1000
0000
0001
1000
,  // measure 6
0001
0000
0001
0000
,  // measure 7
0100
0000
0010
0100
,  // measure 8
0010
0000
1000
0000
,  // measure 9
0020
0000
0230
0000
,  // measure 10
0302
0000
1003
0000
,  // measure 11
0002
0000
0023
0000
,  // measure 12
0230
0000
0000
0000
,  // measure 13
2300
0000
3020
0000
,  // measure 14
0230
0000
0301
0000
,  // measure 15
0002
0000
0203
0000
,  // measure 16
0302
0000
0003
0000
,  // measure 17
1000
1000
0100
0010
,  // measure 18
0002
0023
0230
2300
,  // measure 19
3200
0320
0032
0023
,  // measure 20
0230
2300
3200
0320
,  // measure 21
0031
0000
0010
0100
,  // measure 22
1000
0010
0100
0000
,  // measure 23
0001
0100
0010
0000
,  // measure 24
1000
0010
0100
0000
,  // measure 25
0001
0000
0001
1000
,  // measure 26
0100
0000
0100
0000
,  // measure 27
0010
0000
0001
1000
,  // measure 28
0010
0000
0100
0000
,  // measure 29
0001
0000
0010
0100
,  // measure 30
1000
0000
0001
0000
,  // measure 31
0100
0010
1000
0010
,  // measure 32
0100
0000
0001
0000
,  // measure 33
0010
0000
0100
0010
,  // measure 34
0002
0000
2003
0000
,  // measure 35
3010
0000
0100
0001
,  // measure 36
2000
0000
0100
0100
,  // measure 37
3100
0000
0010
0001
,  // measure 38
2000
0000
3002
0000
,  // measure 39
0013
0000
0100
1000
,  // measure 40
0020
0000
0130
0001
,  // measure 41
1001
0000
0000
0000
;
