#TITLE:Pink Fuzzy Bunnies;
#SUBTITLE:;
#ARTIST:Wonder*Boy;
#TITLETRANSLIT:;
#SUBTITLETRANSLIT:;
#ARTISTTRANSLIT:;
#CREDIT:;
#BANNER:pink.png;
#BACKGROUND:pink-bg.png;
#LYRICSPATH:;
#CDTITLE:;
#MUSIC:pink.ogg;
#OFFSET:-0.001;
#SAMPLESTART:9.100;
#SAMPLELENGTH:12.000;
#SELECTABLE:YES;
#BPMS:0.000=211.000,128.000=128.000,160.000=211.000,266.000=422.000,266.500=211.000,266.750=105.500,267.250=211.000,267.500=422.000,268.000=211.000;
#STOPS:;
#BGCHANGES:;

//---------------dance-single - Renard----------------
#NOTES:
     dance-single:
     Renard:
     Challenge:
     9:
     0.787,1.000,0.463,0.072,0.000:
0000
0000
0000
0000
,
0000
0000
0000
0000
,
0000
0000
0000
0000
,
0000
0000
0000
0000
,
1000
0000
1000
0100
0010
0000
0010
0001
,
0100
0100
0010
0010
1000
0000
0001
0000
,
0010
0100
1000
0100
0010
0001
0010
0100
,
1000
0001
0100
0010
,
1000
0010
0100
0001
0010
0100
1000
0100
,
0010
0001
0100
0010
0000
0000
1010
0000
,
1000
0100
0010
0001
0100
0010
1000
0100
,
0010
0100
1000
0010
0000
0000
1010
0000
,
1000
0010
0100
0001
0010
0100
1000
0001
,
0100
0010
1000
0010
0000
0000
1010
0000
,
1000
0100
1000
0100
0010
0100
0010
0100
,
0010
0001
0100
0010
1000
0100
1000
0000
,
1001
0000
0100
0010
1000
0000
0010
0100
,
0001
0001
0010
0010
0100
0000
1000
0000
,
0001
0010
0100
1000
0001
0010
0100
1000
,
0100
0010
0001
1000
0100
0000
0000
0000
,
1000
0000
0001
0100
0010
0000
1000
0010
,
0100
0100
0001
0001
0010
0000
0100
0000
,
1000
0100
0010
0001
0010
0100
1000
0001
,
1000
0001
0100
0010
,
1000
0010
1000
0000
0001
0100
0001
0000
,
1000
0100
1000
0000
0001
0010
0001
0000
,
1000
0010
1000
0000
0001
0100
0001
0000
,
1000
0100
1000
0000
0001
0010
0001
0000
,
1000
0100
1000
0000
0001
0010
0001
0000
,
1000
0010
1000
0000
0001
0100
0001
0000
,
1000
0100
0010
0001
0010
0100
1000
0001
,
0100
0010
1000
0100
0010
0001
1000
0000
,
2010
0000
0001
3000
0102
0000
1000
0003
,
0001
0100
0010
1000
0000
1001
1001
0000
,
2100
0000
0001
3000
0102
0000
1000
0003
,
1000
0001
0100
0010
0000
0110
1001
0000
,
1000
0100
0110
0010
0001
0100
0110
0010
,
1000
0100
0110
0110
0000
0010
0001
0000
,
1001
0100
1010
0100
1001
0100
1010
0100
,
1001
0110
1001
0110
0000
0110
1001
0000
,
1000
0001
0100
0010
0000
1000
0000
0100
,
0000
0010
0001
0010
0100
1000
0001
0100
,
0010
0000
0010
1000
0100
0010
0001
0010
,
0000
0010
0100
1000
0010
0100
0001
0100
,
0010
1000
0100
0010
0001
0010
0100
1000
,
0000
1000
0001
0010
0100
1000
0001
0100
,
0010
1000
0100
1000
0001
0010
0001
1000
,
0010
0100
0001
0010
0100
1000
0001
0000
,
0110
0000
1000
0010
0000
0110
0000
0101
,
0000
1010
0000
1001
0000
1000
0100
0000
,
0110
0000
0010
0001
0000
0110
0000
1100
,
0000
1001
0000
0100
0010
1000
0100
0000
,
0110
0000
0010
0001
0000
1010
0000
0101
,
0000
1010
0000
1001
0000
1000
0100
0000
,
0110
0000
0010
0001
0000
0110
0000
1100
,
0000
1000
0001
0100
0010
1000
0100
0000
,
1000
0100
0010
0001
0100
0010
1000
0100
,
0010
0001
0100
0010
1000
0100
0010
0001
,
0010
0100
1000
0001
0100
0010
1000
0100
,
0010
0001
0100
0010
1000
0100
0010
0100
,
1000
0001
0010
0100
1000
0001
0100
0010
,
1000
0100
0010
0001
0010
0100
1000
0010
,
0100
0001
0010
0100
1000
0100
0010
0001
,
0100
0010
1000
0100
0010
0001
0010
0000
,
0100
0000
0100
0000
1000
0010
1000
0010
,
1000
0000
0010
0100
0001
0000
0010
0100
,
1000
0010
0100
0002
0000
0000
0000
0000
,
1003
0000
0001
0100
0010
0000
1000
0100
,
0010
0001
0010
0100
1000
0000
0001
0000
,
0100
0010
1000
0100
0010
0100
1000
0001
,
0010
0100
0010
0001
1000
0000
1010
0000
,
1000
0001
0100
0010
1000
0100
0010
0001
,
0010
0100
1000
0001
0100
0000
0101
0000
,
0001
0100
0010
1000
0100
0010
0001
0100
,
0010
1000
0100
0010
0100
1000
0001
0010
,
0100
0010
0001
0100
1000
0100
0001
0010
,
1000
0010
0001
0010
0100
0001
0200
2000
,
0001
0000
0001
0000
0001
0010
0001
0000
,
0010
0001
0010
0001
0000
0001
3310
0000
;

//---------------dance-single - Renard----------------
#NOTES:
     dance-single:
     Renard:
     Hard:
     9:
     0.667,0.728,0.175,0.010,0.000:
0000
0000
0000
0000
,
0000
0000
0000
0000
,
0000
0000
0000
0000
,
0000
0000
0000
0000
,
1000
0000
0001
0100
0001
0000
1000
0100
,
1000
0001
0010
0001
,
1000
0010
1000
0000
0001
0100
0001
0000
,
1000
0100
0010
0001
,
1000
0001
1000
0000
0010
0100
0010
0000
,
0100
0001
1000
0100
0000
0000
0000
0000
,
1000
0001
1000
0000
0010
0100
0010
0000
,
0100
0001
0100
0001
0000
0000
1000
0000
,
0100
1000
0100
0000
1000
0001
1000
0000
,
0001
0010
0001
1000
0000
0000
0000
0000
,
0001
0100
0010
1000
,
0100
1000
0100
0000
1000
0000
0001
0000
,
0010
0000
0010
0001
1000
0000
0010
0100
,
0001
1000
0100
1000
0001
0000
1000
0000
,
0100
1000
0100
1000
0001
1000
0001
1000
,
0010
1000
0010
1000
0001
0000
0000
0000
,
1000
0000
0001
0100
0001
0000
1000
0100
,
1000
0001
0010
0001
1000
0000
0010
0000
,
1000
0001
1000
0001
0100
0010
0100
0010
,
1000
0001
0100
0001
,
1000
0100
1000
0000
0001
0010
0001
0000
,
1000
0100
1000
0000
0001
0010
0001
0000
,
1000
0100
1000
0000
0001
0010
0001
0000
,
1000
0100
1000
0000
0001
0010
0001
0000
,
0100
0001
0100
0000
0010
1000
0010
0000
,
0100
0001
0100
0000
0010
1000
0010
0000
,
0100
0001
0100
0010
1000
0100
0010
0001
,
0010
0100
1000
0001
0100
0010
1000
0000
,
1010
1001
0110
1001
,
1000
0100
0010
0001
0000
1001
1001
0000
,
0001
0100
0010
1000
0100
0010
0001
0000
,
0001
1000
0010
0100
0000
1001
0110
0000
,
0010
1000
0100
1000
0100
0010
0001
0010
,
0001
0010
0100
1000
0000
1001
1001
0000
,
1000
0100
0010
0001
0010
0100
1000
0010
,
0100
0001
0010
0100
1000
1100
1100
0000
,
1000
0001
0100
0001
0000
1000
0000
0100
,
0000
1000
0000
0001
0000
0100
0001
1000
,
0100
0000
1000
0001
0010
0001
1000
0001
,
0000
1000
0000
0001
0100
0000
0010
0000
,
1000
0000
0100
0010
0001
0010
0100
1000
,
0000
0001
0000
0100
0001
0000
1000
0000
,
0100
0010
0001
0010
0100
1000
0001
0100
,
0010
1000
0100
0010
0001
0010
0100
0000
,
1000
0000
1000
0001
0000
0100
0000
0010
,
0000
1000
0000
0100
0010
0001
0010
0000
,
0100
0000
1000
0001
0000
0100
0000
0010
,
0000
1000
0010
0100
0001
1000
0100
0000
,
1000
0000
0001
0010
0000
0001
0000
1000
,
0000
0010
0100
0001
1000
0100
1000
0000
,
0001
0000
0010
0001
1000
0010
0100
0001
,
1000
0100
1000
0001
1000
0000
0001
0000
,
1000
1000
0001
0001
,
0100
0010
0100
0010
0000
0000
0110
0000
,
0010
1000
0100
0010
,
0001
1000
0001
1000
0000
0000
1001
0000
,
1000
0010
0100
0001
,
1000
0100
1000
0001
0000
0000
1001
0000
,
1000
0000
0001
0100
0001
0000
1000
0100
,
1000
0000
0001
0010
0001
0000
1000
0000
,
0010
0000
0010
0000
0100
0010
0100
0000
,
1000
0000
0001
0100
0010
0000
1000
0010
,
0100
0001
1000
0020
0000
0000
0000
0030
,
1000
0000
0010
0100
0010
0000
0100
0001
,
1000
0001
1000
0100
1000
0000
0001
0000
,
0010
0001
0010
0001
0010
0001
0010
0001
,
0010
0100
0010
0100
0010
0000
0000
0000
,
0100
0000
1000
0100
1000
0000
0010
1000
,
0010
1000
0010
1000
0010
0000
1000
0000
,
0001
0100
0001
0100
0001
0100
0001
0100
,
0010
0100
0010
0100
0010
0100
0010
0100
,
0010
1000
0010
1000
0001
1000
0001
1000
,
0100
0010
0001
0010
0100
1000
0001
0000
,
0100
0000
0100
0000
0100
0010
1000
0000
,
0001
0100
0010
0000
1001
0000
0110
0000
;

//---------------dance-single - Renard----------------
#NOTES:
     dance-single:
     Renard:
     Medium:
     6:
     0.448,0.607,0.093,0.062,0.000:
0000
0000
0000
0000
,
0000
0000
0000
0000
,
0000
0000
0000
0000
,
0000
0000
0000
0000
,
1000
1000
0001
0001
,
1000
0001
1000
0001
,
0100
0010
1000
0100
,
0010
0000
0000
0000
,
0001
0010
0100
1000
,
0010
0000
0100
0010
0000
0000
0000
0000
,
0100
0001
0010
0100
,
1000
0000
0001
0100
0000
0000
0000
0000
,
0001
1000
0100
0010
,
0001
0000
1000
0010
0000
0000
0000
0000
,
0100
0001
1000
0100
,
0010
0010
0001
0001
,
1000
0010
0100
0001
,
0010
0100
1000
0001
,
0010
0010
0100
0100
,
0010
0001
1000
0000
,
0001
0100
0010
1000
,
0010
0100
0001
1000
,
0100
0100
0010
0010
,
0002
0000
0000
0000
,
0013
0010
0100
0100
,
0010
0010
0100
0100
,
0010
0010
0100
0100
,
0010
0010
0100
0100
,
0010
0010
0100
0100
,
0010
0010
0100
0100
,
0010
0100
0010
0100
,
1000
0001
0100
0010
,
1010
1010
1001
1001
,
1000
0001
1000
0001
0000
0000
0000
0000
,
1001
1001
0101
0101
,
0001
0010
0001
0010
0000
0000
0011
0000
,
0001
0010
0100
0000
0100
0010
0001
0000
,
1000
0100
0010
0000
0010
0100
1000
0000
,
0010
0100
0001
0000
0001
0100
0010
0000
,
1000
0010
0100
0000
0100
0010
1000
0000
,
0010
0010
0010
0010
,
0100
0100
0100
0100
,
0001
0000
1000
0100
,
0020
0000
0031
0010
,
0100
0100
1000
0010
,
0200
0000
0301
0010
,
0001
1000
0010
0100
,
0002
0000
0000
0000
,
1003
1000
1000
1000
,
1000
1000
1000
0001
,
0100
0100
0100
0100
,
0100
0100
0010
0010
,
1000
1000
1000
1000
,
1000
1000
1000
0001
,
0100
0100
0100
0100
,
0100
0100
0010
0010
,
1000
0010
1000
0010
,
0100
0000
0001
0100
0000
0000
0000
0000
,
0001
0010
0001
0010
,
0100
0000
1000
0100
0000
0000
0000
0000
,
1000
0010
1000
0010
,
0100
0000
0001
0100
0000
0000
0000
0000
,
0001
1000
0100
0010
,
0002
0000
0000
0000
,
1003
0000
1000
0000
1000
0000
1000
1000
,
0001
0001
0100
0010
,
1000
0100
0010
0001
0000
0000
0000
0000
,
1000
1000
0100
0100
,
0010
0010
0001
0001
,
0010
0100
1000
0001
,
0010
0100
2000
0000
,
3001
0010
0001
1000
,
0010
0100
0001
1000
,
0100
0010
0001
1000
,
0010
0100
0001
0010
,
0100
1000
0010
0100
,
0001
0010
0100
1000
,
0010
0000
1000
0000
0010
1000
0010
0000
,
1000
0010
1000
0010
0000
1000
0010
0000
;

//---------------dance-single - Renard----------------
#NOTES:
     dance-single:
     Renard:
     Easy:
     3:
     0.338,0.364,0.021,0.123,0.000: // measure 1
0000
0000
0000
0000
,  // measure 2
0000
0000
0000
0000
,  // measure 3
0000
0000
0000
0000
,  // measure 4
0000
0000
0000
0000
,  // measure 5
1000
0000
1000
0000
,  // measure 6
0001
1000
0001
0000
,  // measure 7
0100
0010
1000
0100
,  // measure 8
0010
0000
0000
0000
,  // measure 9
0001
0000
0001
0000
,  // measure 10
0010
0000
0010
0000
,  // measure 11
0100
0000
0100
0000
,  // measure 12
1000
0001
1000
0001
,  // measure 13
0010
0000
0010
0000
,  // measure 14
0100
0000
0100
0000
,  // measure 15
1000
0001
1000
0001
,  // measure 16
0100
0010
0100
0010
,  // measure 17
1000
1000
1000
1000
,  // measure 18
1000
1000
1000
1000
,  // measure 19
1000
1000
1000
1000
,  // measure 20
1000
1000
2000
0000
,  // measure 21
3001
0001
0001
0001
,  // measure 22
0001
0001
0001
0001
,  // measure 23
0001
0001
0001
0001
,  // measure 24
0002
0000
0000
0000
,  // measure 25
0103
0000
0100
0000
,  // measure 26
0100
0000
0100
0000
,  // measure 27
0010
0000
0010
0000
,  // measure 28
1000
0000
1000
0000
,  // measure 29
0100
0000
0100
0000
,  // measure 30
0010
0000
0010
0000
,  // measure 31
0001
0001
0001
0001
,  // measure 32
0010
0100
1000
0001
,  // measure 33
0100
0100
0100
0100
,  // measure 34
0001
1000
0200
0000
,  // measure 35
1300
1000
0001
0001
,  // measure 36
0100
0001
0010
0100
,  // measure 37
1000
1000
0100
0100
,  // measure 38
0010
0001
1000
0000
,  // measure 39
0001
0100
0001
1000
,  // measure 40
0100
0100
0100
0100
,  // measure 41
0010
0000
0010
0000
,  // measure 42
0001
0000
0001
0000
,  // measure 43
2000
0000
3100
0000
,  // measure 44
0010
0000
0001
0000
,  // measure 45
0100
0000
0100
0000
,  // measure 46
0001
0000
1000
0000
,  // measure 47
0100
0000
0010
0000
,  // measure 48
0002
0000
0000
0000
,  // measure 49
0013
0000
0010
0000
,  // measure 50
0010
0000
0100
1000
,  // measure 51
0010
0000
0010
0000
,  // measure 52
0100
0000
0001
1000
,  // measure 53
0100
0000
0100
0000
,  // measure 54
0010
0000
0001
1000
,  // measure 55
0001
0000
0100
0000
,  // measure 56
0010
0000
0010
0000
,  // measure 57
1000
1000
0010
0010
,  // measure 58
0100
0100
0002
0000
,  // measure 59
1003
1000
0100
0100
,  // measure 60
0010
0010
0002
0000
,  // measure 61
0013
0010
0100
0100
,  // measure 62
1000
1000
0020
0000
,  // measure 63
0130
0100
0001
0001
,  // measure 64
2000
0000
0000
0000
,  // measure 65
3100
0100
0100
0100
,  // measure 66
0010
0010
0010
0010
,  // measure 67
0010
0010
0020
0000
,  // measure 68
0031
0001
0010
0001
,  // measure 69
0010
0100
1000
0001
,  // measure 70
0100
0001
0100
0001
,  // measure 71
0100
0010
2000
0000
,  // measure 72
3010
0010
0010
0010
,  // measure 73
0100
0001
1000
0100
,  // measure 74
0010
0000
0010
0000
,  // measure 75
0001
0000
0001
0000
,  // measure 76
1000
0000
1000
0000
,  // measure 77
0002
0000
0000
0000
,  // measure 78
1000
0000
1000
0000
,  // measure 79
1003
0000
0110
0110
;
