#TITLE:Petrified;
#SUBTITLE:;
#ARTIST:Fort Minor;
#TITLETRANSLIT:;
#SUBTITLETRANSLIT:;
#ARTISTTRANSLIT:;
#CREDIT:;
#BANNER:petrified.png;
#BACKGROUND:petrified-bg.png;
#LYRICSPATH:;
#CDTITLE:;
#MUSIC:petrified.ogg;
#OFFSET:0.000;
#SAMPLESTART:26.142;
#SAMPLELENGTH:12.000;
#SELECTABLE:YES;
#BPMS:0.000=110.000;
#STOPS:96.000=0.545
;
#BGCHANGES:;

//---------------dance-single - Renard----------------
#NOTES:
     dance-single:
     Renard:
     Challenge:
     8:
     0.479,0.540,0.453,0.041,0.350: // measure 1
0000
0000
0000
0000
,  // measure 2
0000
0000
0000
0000
,  // measure 3
0000
0000
0000
0000
,  // measure 4
0000
0000
0000
0000
,  // measure 5
0000
0000
0000
0000
,  // measure 6
0000
0000
0000
0000
,  // measure 7
0000
0000
0000
0000
,  // measure 8
0000
0000
0000
1011
,  // measure 9
1000
0001
1001
0000
0000
0010
0110
0000
,  // measure 10
0001
0000
1000
0000
1100
0000
0000
1000
0000
0001
0100
0000
1001
0000
0000
0000
,  // measure 11
1000
0001
0011
0000
0000
1000
0110
0000
,  // measure 12
1000
0000
0001
0000
0011
0000
0000
0010
0000
0100
1000
0000
1001
0000
0000
0000
,  // measure 13
0001
0000
0100
0001
1000
0001
1000
0000
0100
0000
0010
0001
0000
0000
1001
0000
,  // measure 14
0001
0000
0100
0010
0000
0000
0110
0000
0010
0000
1000
0100
0000
0000
0010
0000
,  // measure 15
0100
0000
1000
0000
0001
0100
0000
0000
0010
0000
1000
0000
0001
0100
0000
0000
,  // measure 16
0010
0000
1000
0000
0001
0100
0000
0010
0000
0000
1000
0000
0001
0100
0000
0000
,  // measure 17
0001
0000
1000
0100
0010
0001
1000
0000
0001
0000
0100
0010
0000
0000
0110
0000
,  // measure 18
0010
0000
1000
0100
0000
0000
0110
0000
0010
0000
0001
1000
0000
0000
1001
0000
,  // measure 19
0001
0000
0100
0000
0010
1000
0000
0000
0001
0000
0100
0000
0010
1000
0000
0000
,  // measure 20
0100
0000
1000
0000
0001
0010
0000
0100
0000
0000
1000
0000
0001
0010
0000
0000
,  // measure 21
0001
1000
1001
0000
0000
0100
0110
0000
,  // measure 22
0010
0000
1000
0000
0001
0000
1000
0100
0000
0010
0001
0000
1000
0000
0001
0000
,  // measure 23
0100
0000
0001
0000
1001
0000
0000
0000
1000
0000
0100
0010
0001
0000
0010
0000
,  // measure 24
0100
0000
1000
0000
0001
0000
0100
0010
0000
1000
0010
0000
1001
0000
0000
0000
,  // measure 25
1000
0000
0001
0100
0001
0000
1000
0100
1000
0000
0000
0000
0001
0000
0010
0000
,  // measure 26
0100
0000
1000
0001
0000
0100
0001
0000
1001
0000
1000
0100
0010
0000
0001
0000
,  // measure 27
1000
0000
0000
0001
0101
0000
0001
1000
,  // measure 28
0100
0000
0000
1000
0000
0200
2000
0000
0001
0000
3300
0000
0100
0000
1000
0001
,  // measure 29
0010
0100
1000
0000
0001
0000
0010
0100
0000
0000
1000
0000
0001
0000
0010
0100
,  // measure 30
0000
0000
1000
0000
0001
0000
0010
0100
0000
0000
1000
0000
0001
0000
0100
0000
,  // measure 31
0010
1000
0000
0000
0001
0000
0100
0000
0010
1000
0000
0000
0001
0000
0100
0000
,  // measure 32
0010
1000
0000
0001
0000
0100
0010
0000
1000
0001
0000
0000
1000
0000
0100
0010
,  // measure 33
0001
0010
0100
0000
1000
0000
0001
0010
0000
0000
0110
0000
0100
0000
1000
0010
,  // measure 34
0000
0000
0110
0000
0100
0000
0001
0010
0000
0000
0110
0000
1001
0000
1001
0000
,  // measure 35
0010
0100
0000
0000
1001
0000
1001
0000
0100
0010
0000
0000
0110
0000
0110
0000
,  // measure 36
0001
1000
0000
0110
0000
0000
1001
0000
0100
0010
0000
0000
0110
0000
0000
0000
,  // measure 37
0101
0000
0110
0000
1100
0000
0100
0010
,  // measure 38
1000
0000
0100
0010
0000
0001
0010
0000
0100
0000
1000
0000
1100
0000
0000
0000
,  // measure 39
0101
0000
0110
0000
1100
0000
1000
0001
,  // measure 40
0100
0000
0010
1000
0000
0001
0100
0000
0010
0000
0100
0001
0010
0000
0000
0000
,  // measure 41
0110
0000
0100
1000
0001
0000
0000
0000
0101
0000
0000
0000
0001
0000
1000
0000
,  // measure 42
0100
0000
0010
0001
0000
1000
0010
0000
0110
0000
0000
0000
0010
0000
0000
0000
,  // measure 43
0101
0000
0000
0000
0001
0000
0100
0010
0100
0000
0010
0000
1000
0000
0100
0000
,  // measure 44
0010
0000
0001
0010
0000
0100
1000
0000
0202
0000
0000
0000
0303
0000
0000
0000
;

//---------------dance-single - Renard----------------
#NOTES:
     dance-single:
     Renard:
     Hard:
     7:
     0.366,0.383,0.103,0.010,0.206:
0000
0000
0000
0000
,
0000
0000
0000
0000
,
0000
0000
0000
0000
,
0000
0000
0000
0000
,
0000
0000
0000
0000
,
0000
0000
0000
0000
,
0000
0000
0000
0000
,
0000
0000
0000
1001
,
1000
0001
1001
0000
0000
0000
0110
0000
,
0010
0100
0110
0000
0000
0000
1001
0000
,
1000
0001
1001
0000
0000
0000
0110
0000
,
0010
0000
1000
0000
0001
0000
0000
1000
0000
0000
0001
0000
1000
0000
0000
0000
,
0001
0000
0100
0001
0100
0000
0001
0000
1000
0000
0000
0100
0000
0000
1000
0000
,
0001
0000
0000
0010
0000
0000
0001
0000
1000
0000
0000
0010
0000
0000
1000
0000
,
0001
0000
0001
0000
0100
0010
0000
0000
1000
0000
1000
0000
0100
0010
0000
0000
,
0001
0000
0001
0000
0100
0010
0000
1000
0000
0000
0001
0000
1000
0001
0000
0000
,
1000
0000
0001
0000
1000
0000
0001
0000
0100
0000
0010
0100
0000
0000
0010
0000
,
1000
0000
0001
1000
0000
0000
0001
0000
0100
0000
0010
0100
0000
0000
0010
0000
,
1000
0000
0001
0000
1000
0100
0000
0000
1000
0000
0001
0000
0010
0001
0000
0000
,
1000
0000
0001
0000
0100
0010
0000
1000
0000
0000
0001
0000
0100
0000
0000
0000
,
0010
0100
0001
0100
0010
1000
0100
0000
,
1000
0100
1000
0001
0100
0001
1000
0000
,
0001
0010
0001
1000
0001
0100
0010
0000
,
0010
1000
0100
0000
1000
0000
0001
0000
,
0110
0000
1001
0000
0110
0000
0010
1000
,
0001
0000
0100
0010
1000
0000
0001
1000
,
0100
0000
1000
0001
0010
0000
0001
1000
,
0010
0000
0000
1000
0000
0001
1000
0000
0001
0000
0000
0000
1000
0000
1000
0000
,
0001
0000
0001
0000
0100
0000
0100
0010
0000
0000
1000
0000
0001
0000
0001
0010
,
0000
0000
0100
0000
1000
0000
1000
0010
0000
0000
0100
0000
0001
0000
0001
0000
,
1000
0001
0000
0000
0100
0000
0100
0000
0010
0100
0000
0000
0001
0000
0001
0000
,
1000
0010
0000
0100
0000
0000
0001
0000
1000
0000
0000
0000
0100
0000
0010
0000
,
0001
0000
1000
0000
0001
0000
1000
0001
0000
0000
0000
0000
0100
0000
0010
0100
,
0000
0000
0000
0000
0001
0000
1000
0001
0000
0000
0000
0000
1000
0000
0100
0000
,
0010
0000
0001
0010
0100
0000
1000
0010
,
0100
0000
0000
0001
0000
0000
1000
0000
0001
0000
0000
0000
1000
0000
0000
0000
,
0001
0000
0100
0010
0100
0000
0010
0100
0010
0000
0000
0000
1000
0000
0001
0000
,
0100
0000
0000
0010
0000
0000
1000
0000
0001
0000
0000
0000
0100
0000
0000
0000
,
0010
0000
1000
0001
1000
0000
0010
0100
0010
0000
0000
0000
1000
0000
0001
0000
,
0100
0000
0000
0001
0000
0000
1000
0000
0100
0000
0010
0000
0001
0000
0000
0000
,
1000
0000
0001
0100
0001
0000
0000
0000
1000
0000
0000
0000
0100
0000
0010
0000
,
0001
0000
0000
1000
0000
0000
0001
0000
0100
0000
0010
0000
1000
0000
0000
0000
,
0001
0000
1000
0100
0010
0000
0001
1000
,
0010
0000
0000
0100
0000
0001
0100
0000
0020
0000
0000
0000
0030
0000
0000
0000
;

//---------------dance-single - Renard----------------
#NOTES:
     dance-single:
     Renard:
     Medium:
     4:
     0.232,0.270,0.041,0.021,0.021:
0000
0000
0000
0000
,
0000
0000
0000
0000
,
0000
0000
0000
0000
,
0000
0000
0000
0000
,
0000
0000
0000
0000
,
0000
0000
0000
0000
,
0000
0000
0000
0000
,
0000
0000
0000
0002
,
1003
0001
0100
0010
,
1000
0000
0100
0000
0010
0000
0001
1000
,
0001
0100
0010
1000
,
0001
0000
0010
0000
0100
0000
1000
0001
,
0100
0001
1000
0100
1000
0000
1000
0000
,
0001
0001
1000
1000
,
0001
0010
0001
0000
1000
0100
1000
0000
,
0001
0010
0001
0000
1000
0000
1000
0000
,
0001
0100
0001
0000
0001
0000
0001
0000
,
1000
0100
1000
0000
0001
0010
0001
0000
,
1000
1000
0000
0000
0001
0001
0000
0000
,
0100
0000
0100
0000
0000
0000
0000
0010
0000
0000
0010
0000
0000
0000
0000
0000
,
0100
0100
0001
0001
,
1000
0001
0100
1001
,
1000
0100
0010
0001
,
0010
0100
1000
0110
,
1001
1000
0001
1000
,
0001
0100
0010
1000
,
0001
0100
0001
1000
,
0100
1000
0011
0100
,
1000
0000
0001
0100
0001
0000
1000
0100
,
1000
0000
0001
0010
0001
0000
1000
0000
,
0000
0001
0000
0100
,
0000
0000
0000
0010
0000
0000
0010
0000
0000
0000
0000
0000
0100
0000
0000
0000
,
0100
0001
0000
1000
,
0000
0000
0001
0000
0000
0000
0010
0010
,
0000
0000
0100
0100
0000
0000
1000
1000
,
0000
0000
0000
0001
0000
0000
0001
0000
0100
0000
0000
0000
0001
0000
0000
0000
,
1000
0000
0100
1000
0100
0000
1000
0000
,
0001
0100
0001
0010
,
0000
0001
1000
0000
0000
0000
0001
0000
,
0100
0000
0010
0000
1000
0001
0100
0000
,
0000
0001
1000
0000
0000
0000
0100
0000
,
0010
0001
1000
0001
,
0000
0100
0010
0000
0000
0000
1000
0000
,
0010
0000
0000
0100
0000
0000
0001
0000
2000
0000
0000
0000
3000
0000
0000
0000
;

//---------------dance-single - Renard----------------
#NOTES:
     dance-single:
     Renard:
     Easy:
     2:
     0.201,0.270,0.041,0.051,0.000:
0000
0000
0000
0000
,
0000
0000
0000
0000
,
0000
0000
0000
0000
,
0000
0000
0000
0000
,
0000
0000
0000
0000
,
0000
0000
0000
0000
,
0000
0000
0000
0000
,
0000
0000
0000
0001
,
1000
1000
1000
1000
,
0001
0100
0001
0100
,
0001
0001
0001
0001
,
1000
0100
1000
0100
,
0010
0001
1000
1001
,
0001
0101
0100
0110
,
0010
0010
0000
0000
0010
0010
0000
0000
,
0010
0010
0000
0000
0010
0010
0000
0000
,
1000
0100
0010
0000
,
0001
0000
0010
0000
,
0100
0100
0000
0000
0100
0100
0000
0000
,
0100
0100
0000
0000
0100
0100
0000
0000
,
1000
0001
1000
0001
,
0100
0010
0100
0001
,
0100
0010
1000
0100
,
0010
0000
0001
0000
1000
0001
1000
0000
,
1001
0001
0001
1000
,
1000
0001
0100
0010
,
0010
0010
0010
0100
,
0010
0100
0010
1000
,
0001
1000
0000
0001
,
0000
0000
1000
0000
0000
0000
0001
0001
,
0000
0000
0001
0001
0000
0000
1000
1000
,
0000
0000
1000
1000
0000
0000
0001
0000
,
0100
0010
0000
0010
,
0000
0010
0000
0100
,
0000
0000
0100
0000
0000
0000
0100
0100
,
0000
0000
0100
0100
0000
0000
0000
0000
,
0100
0000
0100
0200
,
0001
0010
0010
0310
,
0010
0000
0010
0020
,
1000
0100
1000
1030
,
0000
1000
1000
2000
,
0000
0100
0001
3001
,
0000
0001
0001
0002
,
1000
0100
0020
0033
;
