#TITLE:Party Up;
#SUBTITLE:;
#ARTIST:DMX;
#TITLETRANSLIT:;
#SUBTITLETRANSLIT:;
#ARTISTTRANSLIT:;
#CREDIT:;
#BANNER:;
#BACKGROUND:;
#LYRICSPATH:;
#CDTITLE:;
#MUSIC:party.ogg;
#OFFSET:0.000;
#SAMPLESTART:9.427;
#SAMPLELENGTH:12.000;
#SELECTABLE:YES;
#BPMS:0.000=101.000,143.500=202.000,144.500=101.000;
#STOPS:;
#BGCHANGES:;
#GENRE:Hip Hop;

//---------------dance-single - Renard----------------
#NOTES:
     dance-single:
     Renard:
     Challenge:
     9:
     0.637,0.566,0.836,0.012,0.372:
0000
0000
0000
0000
,
0000
0000
0000
0000
,
0101
0000
0000
0110
0000
0000
1010
0000
1100
0000
0000
1100
0000
0000
1001
0000
,
1001
0000
0000
0001
1000
0000
0000
0010
1000
0000
0000
0100
1000
0001
0000
0000
,
0001
0000
0010
0100
1000
0000
0001
0000
0100
0000
0010
0000
1010
0000
1000
0100
,
1000
0000
0001
0000
1001
0000
0001
0100
0001
0000
1000
0000
1001
0000
0001
0000
,
0100
0000
0010
1000
0010
0000
1000
0000
1100
0000
0011
0000
1001
0000
0001
0100
,
0010
0000
1000
0000
1001
0000
1000
0100
0010
0000
0001
0000
1001
0000
0001
0100
,
0010
1000
0100
0010
0100
1100
0011
0000
,
1100
0000
1000
0010
0100
0000
0001
0000
0100
0000
0001
0000
0011
0000
0010
0000
,
0100
0000
1000
0010
0100
0000
0001
0000
0101
0000
1001
0000
1100
0000
1000
0000
,
1001
0010
1001
0100
1001
0010
1001
0001
,
0001
0100
0010
1000
0100
0010
0001
0010
0100
1000
0001
0100
0000
0000
0000
0000
,
0010
0000
1000
0001
0100
0000
0001
0000
0001
0000
1001
0000
0101
0000
0000
0000
,
0001
0000
0100
0000
0110
0000
0010
1000
0100
0000
0010
0000
0110
0000
1000
0000
,
0010
0100
0001
0100
0010
1000
0100
0010
0001
0010
0100
1000
0001
0000
0101
0000
,
0001
0000
0100
0000
0010
0000
1000
0000
0010
1000
0001
0000
1001
0000
1001
0000
,
0101
0000
0100
0000
0010
1000
0100
0000
0010
0000
0100
0000
1100
0000
1001
0000
,
0001
0000
0100
0010
1000
0000
0010
0000
1001
0000
1000
0000
1100
0000
0000
0000
,
0011
0000
0000
0010
0100
0000
1000
0000
1100
0000
1001
0000
1010
0000
1001
0000
,
1001
0000
0000
0001
0100
0000
0010
0000
1010
0000
1100
0000
1001
0000
0000
0000
,
0001
0000
0100
0010
1000
0000
0100
0000
1000
0000
0100
0000
0101
0000
0100
0000
,
1100
0000
1000
0010
0100
0000
0001
0000
0100
0000
0001
0000
1100
0000
0001
0000
,
1000
0000
0010
0100
0001
0000
0010
0000
0110
0000
1100
0000
1001
0000
1100
0000
,
1001
0000
1000
0001
0100
0000
0010
0000
1000
0000
0001
0000
1100
0000
1000
0010
,
0100
0000
0001
0010
0100
1000
0001
0000
0100
0000
0010
0000
1000
0010
0100
0001
,
0100
0000
0010
1000
0100
0000
0010
0001
0010
0000
0100
0000
1100
0000
1000
0000
,
0010
0100
0001
0100
0010
0000
1000
0000
1001
0000
1100
0000
1001
0000
0011
0000
,
1001
0000
0001
0100
0010
0000
1000
0000
1100
0000
1001
0000
1001
0000
0001
0000
,
0100
0010
1000
0100
0010
0000
0000
0000
0001
0010
0100
1000
0010
0000
0000
0000
,
0010
0000
0100
0001
0100
0000
0010
0000
1010
0000
1001
0000
1100
0000
0000
0000
,
1000
0100
0010
0001
0010
0000
0000
0000
0010
0100
1000
0010
0100
0000
0000
0000
,
0001
0000
0100
0010
1000
0000
0100
0000
0010
0000
0001
0000
1001
0000
0000
0000
,
0001
0100
0010
0000
1001
0000
0000
0000
1000
0100
0010
0000
1001
0000
0000
0000
,
1000
0000
0100
1000
0010
0000
0100
0000
0001
0000
1000
0000
1001
0000
0001
0000
,
0100
0001
1000
0000
0100
0010
0001
0000
0010
0000
0100
0000
1000
0002
0000
0000
,
0000
0003
0000
0000
0000
0000
0000
0000
;

//---------------dance-single - Renard----------------
#NOTES:
     dance-single:
     Renard:
     Hard:
     8:
     0.499,0.524,0.708,0.035,0.134:
0000
0000
0000
0000
,
0000
0000
0000
0000
,
0001
0000
0000
1000
0000
0000
0001
0000
1000
0000
0000
0001
0000
0000
1000
0000
,
0010
0000
0000
0010
0100
0000
0000
0100
0010
0000
0000
0010
0100
0010
0000
0000
,
1000
0010
0100
0001
1001
1001
1001
0000
,
1000
0001
0010
0000
0001
1000
0010
0000
,
1000
0001
1000
0001
0110
0110
0110
0000
,
1000
0010
0010
0000
0100
0010
0010
0000
,
1000
0000
0001
1000
0001
0000
0100
0000
0010
0000
1000
0000
1001
0000
0000
0000
,
0110
0110
0110
0000
1001
1001
1001
0000
,
0001
1000
0100
0010
0001
0001
0001
0000
,
1000
1000
1000
0000
0010
0100
0010
0000
,
1000
0000
0000
1000
0000
0000
1000
0000
0000
0000
1000
0000
1000
0000
0000
0000
,
0001
0000
0000
0001
0100
0000
0001
0000
0100
0000
0001
0000
0100
0000
0000
0000
,
0010
0000
0000
0010
1000
0000
0010
0000
1000
0000
0100
0000
0010
0000
0000
0000
,
0001
0000
0000
0001
0010
0000
0100
0000
1000
0000
0001
0000
1000
0000
0001
0000
,
0100
0000
0000
0100
0010
0000
1000
0000
0010
0000
1000
0000
0010
0000
0000
0000
,
1000
0000
0000
1000
0100
0000
0010
0000
0001
0000
0010
0000
0001
0000
0000
0000
,
0001
0000
0000
0001
1000
0000
0001
0000
0100
0000
0010
0000
1000
0000
0000
0000
,
0001
0000
0000
0001
1000
0000
0001
0000
1000
0000
0001
0000
1000
0000
1000
0000
,
0001
0000
0000
0001
0100
0000
0010
0000
1000
0000
0100
0000
1100
0000
0000
0000
,
1000
0000
0001
0010
0001
0000
0100
0000
0001
0000
1000
0000
1001
0000
0000
0000
,
0001
0000
0000
0100
0001
0000
0010
0000
0002
0000
1003
0000
1001
0000
0000
0000
,
1000
0010
0100
0001
1000
1000
0001
0001
,
1000
0000
0000
1000
0001
0000
0100
0000
0010
0000
1000
0000
1001
0000
1000
0000
,
0100
0000
0010
0001
0010
0000
0100
0000
1000
0000
0001
0000
1001
0000
0001
0000
,
0100
0000
0010
0000
1000
0000
0010
0000
1000
0001
1000
0000
1001
0000
0001
0000
,
0110
0000
0000
1001
0000
0000
0110
0000
1001
0000
1001
0000
0110
0000
0110
0000
,
1000
0010
0100
0001
1001
1001
1001
0000
,
1100
1100
1100
0000
0011
0011
0011
0000
,
0101
1100
0110
0101
1100
0110
0101
0000
,
1000
0100
0001
0000
1000
0010
0001
0000
,
1100
0110
0101
1100
0110
0101
1100
0000
,
1000
0010
1010
0000
0001
0100
0101
0000
,
0110
1100
0101
0110
1100
0101
0110
0000
,
0110
0000
0000
0000
1010
0000
0000
0000
0011
0000
0000
0000
2000
0002
0000
0000
,
0000
3003
0000
0000
0000
0000
0000
0000
0000
0000
0000
0000
0000
0000
0000
0000
;

//---------------dance-single - Renard----------------
#NOTES:
     dance-single:
     Renard:
     Medium:
     5:
     0.347,0.356,0.151,0.023,0.064:
0000
0000
0000
0000
,
0000
0000
0000
0000
,
1000
0000
0000
1000
0000
0000
1000
0000
1000
0000
0000
1000
0000
0000
1000
0000
,
1000
1000
1000
1000
,
0001
0100
0010
1000
0001
1000
0001
0000
,
1000
1000
0001
0001
,
1000
0100
0010
0001
1000
0001
1000
0000
,
0001
0001
1000
1000
,
0001
1000
0100
0010
0001
1000
1001
0000
,
0001
0001
1001
1000
,
0001
0010
0100
1000
0001
1000
0001
0000
,
1000
1001
0001
1001
,
0001
0000
0000
1000
0000
0000
0001
0000
0000
0000
0001
0000
0001
0000
0000
0000
,
1000
0000
0000
0001
0000
0000
1000
0000
0000
0000
0001
0000
0001
0000
0000
0000
,
0100
0000
0000
0010
0000
0000
1000
0000
0000
0000
0010
0000
0010
0000
0000
0000
,
1000
0000
0000
0100
0000
0000
0010
0000
0001
0000
0010
0000
0001
0000
0000
0000
,
0100
0000
0000
0001
0000
0000
0100
0000
0000
0000
0001
0000
1000
0000
0000
0000
,
0001
0000
0000
1000
0000
0000
0100
0000
0000
0000
1000
0000
0010
0000
0000
0000
,
1000
0000
0000
0001
0000
0000
0100
0000
0000
0000
0001
0000
1000
0000
0000
0000
,
0001
0000
0000
1000
0000
0000
0001
0000
0100
0000
0010
0000
0100
0000
0000
0000
,
0010
1000
0010
0100
0001
0000
1001
0000
,
1000
0100
0010
0001
1000
0000
1001
0000
,
0001
0100
0001
1000
0100
1000
1001
0000
,
0001
0100
0001
1000
0001
1000
1001
0000
,
1000
1000
0001
0000
0100
0100
0010
0000
,
1000
1000
0100
0000
0010
0010
0001
0000
,
0100
0100
0001
0100
0000
0100
0010
0000
,
1000
0000
0000
0001
0000
0000
1000
0000
0001
0000
1000
0000
0001
0000
1000
0000
,
0001
1000
0010
0100
0001
1000
0001
0000
,
1000
1000
1000
0000
0001
0001
0001
0000
,
0001
1000
0010
0100
0001
0010
0100
0000
,
1000
0001
1000
0000
0010
0100
0010
0000
,
1000
0000
0010
0100
0001
0000
1001
0000
,
1000
1001
0001
1001
,
0001
0100
0010
1000
0001
1000
0001
0000
,
1001
0000
0110
0000
1000
0002
2000
0000
,
0000
3003
0000
0000
0000
0000
0000
0000
0000
0000
0000
0000
0000
0000
0000
0000
;

//---------------dance-single - Renard----------------
#NOTES:
     dance-single:
     Renard:
     Easy:
     2:
     0.236,0.210,0.035,0.023,0.000: // measure 1
0000
0000
0000
0000
,  // measure 2
0000
0000
0000
0000
,  // measure 3
0001
0000
0000
0001
1000
0000
0000
1000
,  // measure 4
0001
1000
0001
1000
,  // measure 5
0010
0010
0100
0100
,  // measure 6
0001
0001
1000
1000
,  // measure 7
0001
0010
0100
1000
,  // measure 8
0001
0001
1000
1000
,  // measure 9
0001
1000
0001
1001
,  // measure 10
0001
0001
1000
1000
,  // measure 11
0010
0100
0010
0100
,  // measure 12
0010
0010
0100
0100
,  // measure 13
0010
0000
1000
0000
,  // measure 14
0001
0000
0100
0000
0001
1000
0001
0000
,  // measure 15
1000
0001
0100
0001
,  // measure 16
1000
0000
0001
0000
1000
0010
1000
0000
,  // measure 17
0001
1000
0100
0010
,  // measure 18
0001
0010
0100
1000
,  // measure 19
0001
0001
0100
0100
,  // measure 20
0001
0000
0000
0000
1000
0001
1000
0001
,  // measure 21
1000
1000
0010
0010
,  // measure 22
0100
0100
0001
0001
,  // measure 23
1000
1000
0100
0100
,  // measure 24
1000
0000
0001
0000
1000
0001
1000
0000
,  // measure 25
0001
0001
0100
0100
,  // measure 26
0001
0001
1000
1000
,  // measure 27
0100
0100
1000
1000
,  // measure 28
0010
0000
1000
0000
0001
1000
0001
0000
,  // measure 29
1000
0001
0100
0001
,  // measure 30
1000
0100
1000
0000
0001
0000
0000
0000
,  // measure 31
1000
0001
0100
0001
,  // measure 32
0010
0001
0010
0000
0001
0000
0000
0000
,  // measure 33
1000
0010
1000
1001
,  // measure 34
0001
0000
0100
0001
,  // measure 35
1000
0000
0100
1100
,  // measure 36
1000
0001
2000
0002
,  // measure 37
0000
3003
0000
0000
0000
0000
0000
0000
;
