#TITLE:Paradoxx;
#SUBTITLE:;
#ARTIST:666;
#TITLETRANSLIT:;
#SUBTITLETRANSLIT:;
#ARTISTTRANSLIT:;
#CREDIT:;
#BANNER:paradoxx.png;
#BACKGROUND:paradoxx-bg.png;
#LYRICSPATH:;
#CDTITLE:;
#MUSIC:paradoxx.ogg;
#OFFSET:0.000;
#SAMPLESTART:70.588;
#SAMPLELENGTH:12.000;
#SELECTABLE:YES;
#BPMS:0.000=136.000;
#STOPS:;
#BGCHANGES:;

//---------------dance-single - Renard----------------
#NOTES:
     dance-single:
     Renard:
     Challenge:
     9:
     0.618,0.547,0.227,0.108,0.488:
0000
0000
0000
0000
,
0000
0000
0000
0000
0000
0000
0001
0001
,
0100
0000
0010
1000
0010
0000
0100
0000
0001
0000
0010
0001
0010
0000
0001
0000
,
0010
0100
1000
0001
1001
0000
1010
0000
,
0101
0000
0010
1000
0101
0000
0010
0000
,
0101
0100
0110
0010
1010
0000
1001
0000
,
0001
0000
0100
0000
0010
0000
0000
0000
1000
0000
0000
0010
0000
0000
1000
0000
,
0010
0000
0100
0000
0001
0000
0000
0000
0001
0000
0000
0001
0000
0000
0001
0000
,
0010
0000
0100
0000
1000
0000
0000
0000
0001
0000
0000
0010
0000
0000
0001
0000
,
1000
0000
0010
0000
0100
0000
0000
0000
0001
0000
0000
0001
0000
0000
0001
0000
,
1000
0000
0001
0000
1000
0000
0000
0000
0001
0000
0000
0001
0000
0000
0001
0000
,
1000
0000
0001
0000
1000
0000
0000
0000
0001
0000
0000
0001
0000
0000
0001
0000
,
0100
0000
0010
0000
0100
0000
0000
0000
0010
0000
0000
0010
0000
0000
0010
0000
,
1000
1000
0001
0001
0100
0110
0110
0110
,
0010
0000
1000
0000
0001
0000
0100
0000
0010
0000
0000
1000
0000
0010
0100
0001
,
0100
0000
0010
0000
1000
0000
0100
0000
0010
0000
0000
0001
0000
0010
0100
0010
,
0100
0000
1000
0000
0010
0000
0100
0000
0001
0000
0000
0100
0000
0010
1000
0010
,
1000
0001
0100
0001
2002
0000
3113
0000
,
0001
0000
0100
0000
0010
0000
1000
0000
0001
0000
0000
0001
0000
0100
0010
0100
,
0010
0000
1000
0000
0100
0000
0010
0000
0001
0000
0000
0001
0000
0010
0100
0010
,
0100
0000
1000
0000
0010
0000
0100
0000
0001
0000
0000
1000
0000
0100
0010
0100
,
0010
0100
1000
0010
0220
0000
0331
0000
,
0100
0100
0100
0100
0200
0000
0000
0000
,
0301
0000
1000
0000
0001
1000
0000
0010
0000
0100
0000
0010
0100
0000
0010
0000
,
1000
0000
0100
0000
0010
0100
0000
0010
0000
0001
0000
0010
0001
0000
0010
0000
,
0001
0000
1000
0000
0001
1000
0000
0001
0000
1000
0000
0001
1000
0000
0001
0000
,
0100
0000
0010
0000
0100
0010
0000
1000
0000
0010
0000
0100
0001
0000
0100
0000
,
0001
0000
1000
0000
0100
0010
0000
0001
0000
0010
0000
0100
1000
0000
0001
0000
,
0010
0000
0100
0000
1000
0100
0000
0010
0000
0001
0000
1000
0010
0000
0100
0000
,
0001
0000
0100
0000
0010
1000
0000
0001
0000
0100
0000
0010
1000
0000
0001
0000
,
0100
0010
1000
0001
0100
0001
1001
0000
,
1000
0000
0010
0000
1000
0000
0000
0000
0001
0000
0000
0001
0000
0000
0001
0000
,
0100
0000
0010
0000
1000
0000
0000
0000
0010
0000
0000
0010
0000
0000
0010
0000
,
1000
0000
0100
0000
0010
0000
0000
0000
0100
0000
0000
0100
0000
0000
0100
0000
,
0010
0000
0001
0000
0100
0000
0000
0000
1000
0000
0000
1000
0000
0000
1000
0000
,
0100
0000
0001
0000
0010
0000
0000
0000
0100
0000
0000
0100
0000
0000
0100
0000
,
1000
0000
0010
0000
0100
0000
0000
0000
0010
0000
0000
0010
0000
0000
0010
0000
,
0100
0000
0001
0000
0010
0000
0000
0000
0001
0000
0000
0001
0000
0000
0001
0000
,
0010
0000
1000
0000
0010
0000
0001
0000
0100
0000
0010
0000
1000
0010
1000
0000
,
0000
0000
0000
0000
0000
0011
0110
1100
,
1000
0000
0001
0000
0100
0000
0010
0000
1000
0000
0000
1000
0000
0010
0100
0001
,
0010
0000
0100
0000
1000
0000
0001
0000
0010
0000
0000
0010
0000
0001
1000
0010
,
0100
0000
0001
0000
0100
0000
0010
0000
1000
0000
0000
1000
0000
0001
0010
0100
,
1000
0010
0100
0001
0202
0000
1313
0000
,
0001
0000
0100
0000
0010
0000
1000
0000
0100
0000
0000
0010
0000
0100
1000
0010
,
0100
0000
0001
0000
0100
0000
0010
0000
1000
0000
0000
1000
0000
0100
0010
0100
,
0010
0000
0010
0000
1000
0000
0001
0000
0100
0000
0000
0100
0000
0010
0100
0001
,
0010
0100
1000
0010
0220
0000
0331
0000
,
0010
0000
0100
0000
0001
0000
0100
0000
0010
0000
0000
0010
0000
1000
0100
1000
,
0100
0000
0010
0000
0001
0000
0100
0000
0010
0000
0000
0010
0000
1000
0001
1000
,
0001
0000
1000
0000
0010
0000
0100
0000
0001
0000
0000
0001
0000
0010
0100
0010
,
0100
1000
0010
0100
0220
0000
1331
0000
,
0010
0000
0100
0000
0001
0000
0010
0000
0001
0000
0000
0001
0000
1000
0100
0010
,
0001
0000
0010
0000
0100
0000
1000
0000
0001
0000
0000
0001
0000
0001
0010
0100
,
1000
0000
0010
0000
0100
0000
0001
0000
0100
0000
0000
0100
0000
0100
0010
1000
,
0001
0100
0010
1000
0001
0000
0000
0000
;

//---------------dance-single - Renard----------------
#NOTES:
     dance-single:
     Renard:
     Hard:
     8:
     0.537,0.467,0.138,0.010,0.281:
0000
0000
0000
0000
,
0000
0000
0000
0000
,
1001
0000
0010
0100
0001
0000
1001
0000
,
1000
0100
0010
0001
1000
0000
1001
0000
,
0001
0100
0010
1000
0100
0010
0110
0000
,
0010
0100
1000
0010
0100
0000
0101
0000
,
0100
0000
0010
0000
1000
0000
0000
0000
0100
0000
0000
0100
0000
0000
0100
0000
,
0010
0000
0001
0000
0100
0000
0000
0000
0010
0000
0000
0010
0000
0000
0010
0000
,
1000
0000
0100
0000
0010
0000
0000
0000
0100
0000
0000
0100
0000
0000
0100
0000
,
0010
0000
0001
0000
0100
0000
0000
0000
0010
0000
0000
0010
0000
0000
0010
0000
,
1000
0000
0100
0000
1000
0000
0000
0000
0010
0000
0000
0010
0000
0000
0010
0000
,
0100
0000
0001
0000
0010
0000
0000
0000
0100
0000
0000
0100
0000
0000
0100
0000
,
1000
0000
0010
0000
0100
0000
0000
0000
0010
0000
0000
0010
0000
0000
0100
0000
,
0001
1000
0100
0010
0001
1000
1000
1000
,
0001
0000
0100
0000
0010
0000
1000
0000
0100
0000
0000
0010
0000
0000
0001
0010
,
0001
0000
0010
0000
0100
0000
1000
0000
0010
0000
0000
0100
0000
0000
0001
0100
,
0001
0000
0100
0000
0010
0000
1000
0000
0100
0000
0000
0010
0000
0000
0001
0010
,
0001
0010
0100
1000
0001
0000
1001
0000
,
1000
0000
0010
0000
0100
0000
0001
0000
1000
0000
0000
0100
0000
0000
1000
0001
,
1000
0000
0001
0000
0100
0000
0010
0000
1000
0000
0000
0001
0000
0000
0010
0100
,
0010
0000
0100
0000
1000
0000
0010
0000
0100
0000
0000
0001
0000
0000
0100
0001
,
0100
0010
1000
0100
0010
0000
0110
0000
,
0100
1000
0001
0100
0010
0000
0000
0000
,
1000
0000
0010
0000
0100
0000
0000
0001
0000
1000
0000
0000
0100
0000
0010
0000
,
0001
0000
0010
0000
0100
0000
0000
1000
0000
0010
0000
0000
0100
0000
0001
0000
,
0010
0000
0100
0000
0010
0000
0000
0001
0000
1000
0000
0000
0001
0000
0100
0000
,
0010
0000
1000
0000
0100
0000
0000
0010
0000
0001
0000
0000
0010
0000
0100
0000
,
1000
0001
0100
0010
0000
1000
0010
0000
,
0100
0001
0010
0000
0100
0000
1000
0000
,
0010
0100
0001
0100
0010
1000
0100
0010
,
0001
0010
0100
1000
0010
0100
0010
0000
,
0100
0000
0001
0000
0100
0000
0000
0000
0010
0000
0000
0010
0000
0000
0010
0000
,
0100
0000
0001
0000
0100
0000
0000
0000
0010
0000
0000
0010
0000
0000
0010
0000
,
0100
0000
0001
0000
0100
0000
0000
0000
0010
0000
0000
0010
0000
0000
0010
0000
,
0100
0000
0001
0000
0100
0000
0000
0000
0010
0000
0000
0010
0000
0000
0010
0000
,
1000
0000
0100
0000
1000
0000
0000
0000
0010
0000
0000
0010
0000
0000
0010
0000
,
1000
0000
0100
0000
1000
0000
0000
0000
0010
0000
0000
0010
0000
0000
0010
0000
,
1000
0100
1000
0000
0010
1000
0010
0000
,
0100
0001
0010
0100
1000
0010
0100
0001
,
1001
0000
0000
0000
0000
0110
0110
0110
,
0010
0000
0100
0000
0001
0000
1000
0000
0100
0000
0000
0010
0000
0000
0001
0010
,
0001
0000
0010
0000
0100
0000
1000
0000
0010
0000
0000
0100
0000
0000
0010
1000
,
0010
0000
1000
0000
0100
0000
0010
0000
0001
0000
0000
1000
0000
0000
0001
1000
,
0001
0100
0010
1000
0100
0000
1100
0000
,
1000
0000
0100
0000
0010
0000
0001
0000
1000
0000
0000
0010
0000
0000
0100
0001
,
0100
0000
0010
0000
1000
0000
0100
0000
0010
0000
0000
0001
0000
0000
0010
0100
,
0010
0000
0100
0000
1000
0000
0010
0000
0100
0000
0000
0001
0000
0000
0100
0001
,
0100
0001
0010
0100
0010
0000
0011
0000
,
0001
0000
0010
0000
0100
0000
1000
0000
0001
0000
0000
0100
0000
0000
0010
0100
,
0010
0000
1000
0000
0100
0000
0010
0000
0001
0000
0000
1000
0000
0000
0010
1000
,
0010
0000
1000
0000
0010
0000
0100
0000
0001
0000
0000
0010
0000
0000
0001
1000
,
0001
0100
0010
0100
0001
0000
0101
0000
,
0001
0000
0100
0000
0010
0000
1000
0000
0100
0000
0000
0010
0000
0000
0001
0010
,
0100
0000
1000
0000
0001
0000
0100
0000
0010
0000
0000
0100
0000
0000
0001
0100
,
0010
0000
1000
0000
0010
0000
0100
0000
0010
0000
0000
1000
0000
0000
0100
1000
,
0010
0100
0001
0100
0020
0000
0030
0000
;

//---------------dance-single - Renard----------------
#NOTES:
     dance-single:
     Renard:
     Medium:
     6:
     0.351,0.356,0.099,0.020,0.000:
0000
0000
0000
0000
,
0000
0000
0000
0000
,
1000
0000
1000
0001
1000
0000
0000
0000
,
0001
1000
0001
1000
0001
0000
0000
0000
,
1000
0000
0001
0100
0001
1000
0000
0000
,
0001
0010
0100
1000
0001
0000
0000
0000
,
1000
1000
0001
0001
,
1000
1000
0001
0001
,
1000
1000
0001
0001
,
1000
1000
0001
0000
,
0100
0100
0010
0010
,
0100
0100
0010
0010
,
0100
0100
0010
0010
,
1000
0000
0000
0000
0000
0001
0001
0001
,
1000
0100
0010
0001
1000
0000
0000
0000
,
0001
0010
0100
1000
0001
0000
0000
0000
,
1000
0100
0010
0001
1000
0000
0000
0000
,
0001
0010
0100
0000
1001
0000
1001
0000
,
1000
0100
0010
0000
0001
0000
0000
0000
,
0010
0100
1000
0000
0001
0000
0000
0000
,
1000
0100
0010
0000
0001
0000
0000
0000
,
0010
0100
1000
0000
0001
0000
0000
0000
,
1000
0100
0010
0001
1000
0000
0000
0000
,
0001
0001
0010
0010
,
0100
0100
1000
1000
,
0010
0010
0100
0100
,
0001
0001
1000
1000
,
0100
0100
0010
0010
,
0001
0001
0010
0010
,
0100
1000
0010
0100
,
0001
0100
0010
1000
0100
0000
0010
0000
,
0001
0010
0001
0000
0000
0000
0000
0000
,
1000
0100
1000
0000
0000
0000
0000
0000
,
0001
0100
0001
0000
0000
0000
0000
0000
,
1000
0010
1000
0000
0000
0000
0000
0000
,
0001
0100
0001
0000
1000
0100
1000
0000
,
0001
0010
0001
0000
1000
0010
1000
0000
,
0001
0100
0001
0000
1000
0100
1000
0000
,
0001
0010
0001
0000
1000
0010
1000
0000
,
1001
0000
0000
0000
0000
0001
0001
0001
,
1000
0100
0010
0001
1000
0000
0000
0000
,
0001
0010
0100
1000
0001
0000
0000
0000
,
1000
0100
0010
0001
1000
0000
0000
0000
,
0001
0010
0100
1000
0002
0000
0000
0000
,
1003
0100
0010
0001
1000
0000
0000
0000
,
0001
0010
0100
1000
0001
0000
0000
0000
,
1000
0100
0010
0001
1000
0000
0000
0000
,
0001
0010
0100
1000
0002
0000
0000
0000
,
1003
0001
0100
0110
,
0010
1000
0100
0110
,
0010
0001
0100
0110
,
0010
1000
0100
0110
,
0010
0001
1000
0110
,
0010
0100
0001
0110
,
0100
1000
0010
0110
,
0100
0000
0001
0010
0001
0000
0000
0000
;

//---------------dance-single - Renard----------------
#NOTES:
     dance-single:
     Renard:
     Easy:
     2:
     0.299,0.328,0.118,0.059,0.000: // measure 1
0000
0000
0000
0000
,  // measure 2
0000
0000
0000
0000
,  // measure 3
1000
0001
0100
0110
,  // measure 4
0010
2000
3100
1100
,  // measure 5
1000
0002
0013
0200
,  // measure 6
1300
0010
0100
0001
,  // measure 7
1000
1000
0001
0000
,  // measure 8
1000
1000
0001
0000
,  // measure 9
1000
1000
0001
0000
,  // measure 10
1000
1000
0001
0000
,  // measure 11
0010
0010
0100
0000
,  // measure 12
0010
0010
0100
0000
,  // measure 13
0010
0010
0100
0000
,  // measure 14
2000
0000
0000
3010
,  // measure 15
1000
1000
0010
0010
,  // measure 16
1000
1000
0010
0010
,  // measure 17
1000
1000
0010
0010
,  // measure 18
1000
0010
1010
1010
,  // measure 19
0001
0001
0100
0100
,  // measure 20
0001
0001
0100
0100
,  // measure 21
0001
0001
0100
0100
,  // measure 22
0001
0100
0202
0303
,  // measure 23
1000
0000
0000
0000
,  // measure 24
0001
0001
0010
0100
,  // measure 25
1000
1000
0100
0010
,  // measure 26
0001
0001
0010
0100
,  // measure 27
1000
0100
0010
0001
,  // measure 28
0010
0010
0100
0100
,  // measure 29
1000
1000
0100
0100
,  // measure 30
0010
0001
0010
0100
,  // measure 31
1000
0001
1000
0001
,  // measure 32
0100
0100
0010
0000
,  // measure 33
0100
0100
0010
0000
,  // measure 34
1000
1000
0010
0000
,  // measure 35
0100
0100
0001
0000
,  // measure 36
0010
0010
0100
0100
,  // measure 37
1000
1000
0001
0001
,  // measure 38
1000
0100
0010
0001
,  // measure 39
1000
0010
0100
0001
,  // measure 40
1001
0000
0000
0000
,  // measure 41
1000
0100
1000
0100
,  // measure 42
1000
0100
1000
0100
,  // measure 43
1000
0100
1000
0100
,  // measure 44
1000
1000
1100
1100
,  // measure 45
0010
0001
0010
0001
,  // measure 46
0010
0001
0010
0001
,  // measure 47
0010
0001
0010
0001
,  // measure 48
0010
0010
0011
0000
,  // measure 49
0001
0100
0001
0100
,  // measure 50
0001
0100
0001
0100
,  // measure 51
0001
0100
0001
0100
,  // measure 52
0001
0001
0101
0101
,  // measure 53
0010
1000
0010
1000
,  // measure 54
0010
1000
0010
1000
,  // measure 55
0010
1000
0010
0010
,  // measure 56
0100
0100
0110
0000
;
