#TITLE:Painkiller;
#SUBTITLE:;
#ARTIST:Freestylers & Pendulum;
#TITLETRANSLIT:;
#SUBTITLETRANSLIT:;
#ARTISTTRANSLIT:;
#CREDIT:;
#BANNER:painkiller.png;
#BACKGROUND:painkiller-bg.png;
#LYRICSPATH:;
#CDTITLE:;
#MUSIC:painkiller.ogg;
#OFFSET:0.000;
#SAMPLESTART:56.322;
#SAMPLELENGTH:12.000;
#SELECTABLE:YES;
#BPMS:0.000=87.355,26.000=174.710;
#STOPS:;
#BGCHANGES:;

//---------------dance-single - Renard----------------
#NOTES:
     dance-single:
     Renard:
     Hard:
     9:
     0.627,0.847,0.222,0.011,0.200:
0000
0000
0000
0000
0000
0000
0000
0000
0001
0000
0100
0010
1000
0000
0000
1000
,
0100
0010
0001
0000
0011
0000
0010
0100
1000
0000
0001
0000
1000
0000
0010
0100
,
0001
0100
0010
0000
0101
0000
0100
0010
1000
0000
0000
1000
0100
0000
0010
0001
,
0000
0001
0010
0000
1100
0000
0010
0000
0001
0000
1000
0010
0100
0001
0100
0010
,
0000
1000
0010
1000
0001
1000
0010
1000
0100
0000
0100
0010
0001
0000
0010
0100
,
1000
0001
1000
0000
1010
0000
0001
0100
0010
0000
1000
0010
1001
0000
1000
0100
,
0010
0001
0010
0000
1001
0000
0001
0000
1000
0000
0000
0000
1000
0000
0001
0000
,
0000
0001
0100
0000
0100
0010
0000
0010
,
1000
0000
1000
0100
0100
0010
0001
0010
,
0100
0100
1000
0010
0100
0001
0100
0010
,
1000
0000
0100
0000
0010
0000
0001
0000
0010
0000
0000
0000
0100
0000
0000
0100
,
1000
0010
0100
0001
0100
0010
1000
0100
,
0010
0000
0000
0001
0010
0000
0100
0000
0010
0000
0000
0000
0100
0000
0000
0100
,
1000
0010
0100
0001
0100
0010
1000
0001
,
1000
0000
0100
0000
1100
0000
0000
0000
0100
0000
0000
0000
0010
0000
0000
0010
,
0001
0010
0100
1000
0001
0010
0100
1000
,
0001
0000
0100
0000
0010
0000
0000
0000
1000
0000
0000
0000
0010
0000
0000
0010
,
0100
0001
0100
0010
1000
0100
0010
0000
,
0001
0000
0010
0000
0100
0000
1000
0001
1000
0000
0000
0000
0101
0000
0000
0000
,
0010
0000
1100
0000
0010
0001
0100
1000
,
0100
0000
0110
0000
0010
1000
0100
0010
,
0001
0010
0100
0000
1000
0001
0100
0010
,
1000
0000
1001
0000
0001
0010
0100
1000
,
0001
1000
0010
0000
0100
0001
0100
0010
,
1000
0000
1100
0000
0001
0010
0100
0000
,
1000
0010
0100
0000
0001
0100
0010
1000
,
0001
0000
1001
0000
0001
0100
0001
0100
,
0010
0100
0010
0000
0010
1000
0010
1000
,
0100
1000
0100
0000
0100
0010
0001
0000
,
0010
0100
1000
0000
0001
0100
0010
0000
,
1000
0010
0100
0000
0001
0100
0010
0100
,
0001
0010
0100
0000
1000
0100
0010
0100
,
1000
0010
0100
0000
0001
0000
0100
0010
,
0000
2000
0100
0000
0010
0010
0001
0001
,
0100
0000
0100
0000
3001
0000
0000
0000
0001
0000
0000
0000
0100
0000
0000
0100
,
0010
1000
0100
0010
0000
0011
0000
0100
,
1000
0000
0001
0000
0100
0000
0000
0000
0010
0000
0000
0000
1010
0000
0000
0010
,
0100
0001
0010
0100
0000
1100
0000
0001
,
0010
0000
0100
0000
1000
0000
0000
0000
0001
0000
0000
0000
1001
0000
0000
1000
,
0010
0100
0001
0100
0000
0110
0000
0010
,
1000
0000
0100
0000
0010
0000
0000
0000
0010
0000
0000
0000
0011
0000
0000
0010
,
0100
1000
0001
0010
0000
0110
0000
0100
,
1000
0001
0100
0000
0001
0000
0100
0000
,
0010
0000
1000
0100
0010
0000
0001
0010
,
0000
0000
0100
1000
0001
0000
0010
0000
,
0001
0000
1000
0000
0010
0000
0100
0001
,
0000
0100
0010
0000
1000
0000
0000
1000
,
0010
0000
0100
0001
0010
0000
0010
0100
,
0000
0100
1000
0010
0100
0000
0100
0001
,
0000
0001
1000
0100
0010
0001
0010
0100
,
1000
0100
0001
0010
1000
0000
0100
1000
,
0010
0000
0100
0000
0001
0000
0100
0000
0000
0000
0100
0000
0010
0000
0000
0010
,
1000
0100
0010
0001
0010
0000
0100
1000
,
0001
0100
0010
1000
0010
0000
1000
0000
,
0001
0000
0100
0001
0100
0000
0000
0000
0010
0000
1000
0000
0100
0000
0010
0000
,
0000
0000
0010
0000
0001
0000
0010
0000
0000
0000
0100
0000
1000
0000
0000
1000
,
0010
0000
0100
0000
0001
0000
0100
0000
0010
0000
0000
0000
1000
0000
0001
0100
,
0010
1000
0100
1001
0000
0000
0000
0000
;

//---------------dance-single - Renard----------------
#NOTES:
     dance-single:
     Renard:
     Medium:
     6:
     0.419,0.454,0.116,0.053,0.000:
0000
0000
1000
1001
,
0001
0100
0110
0000
0010
0000
1010
0000
,
1000
0100
0010
0001
0020
0000
0130
0000
,
1000
0010
0100
0100
0010
0000
1000
0100
,
0010
0001
1000
0001
0100
0000
0110
0000
,
0010
1000
1100
0000
1000
0000
0011
0000
,
0001
1000
1010
0000
1000
0000
1000
0000
,
0001
0001
0100
0100
,
0010
0010
1000
0100
,
0010
0000
0001
0000
0010
0000
0100
1000
,
0100
1000
0001
1000
0001
0000
0100
0000
,
0010
1000
0010
1000
0000
0010
0000
0000
,
1000
0001
0100
0001
,
1000
0100
1000
0001
0000
1000
0000
0000
,
0001
0100
0010
1000
,
0100
1000
0100
1000
0000
0001
0000
0000
,
0010
0001
1000
0010
,
0100
0010
0100
0001
0000
0000
0100
0000
,
0001
1000
0100
1100
,
1000
0000
1100
0000
1000
0000
0001
0100
,
0001
0100
0001
0001
,
0010
0000
0010
0000
0100
1000
0100
0000
,
1000
1001
1000
0001
,
0100
0000
0001
0000
0100
0010
0100
0000
,
0010
0000
0010
0000
1000
0100
1000
0000
,
0001
0000
1000
0000
0001
0100
0001
0000
,
1000
1000
0001
0010
,
0100
1000
0100
0000
1000
0000
0001
0000
,
0100
0010
0100
0000
0010
0000
1000
0000
,
0010
0000
0100
0000
0001
1000
0001
0000
,
1000
0000
1000
0000
0001
0100
0001
0000
,
1000
0100
0010
0001
,
0010
0000
0100
0000
1000
0000
0100
1000
,
0000
0100
1000
0000
0100
0000
1000
0000
,
0001
0000
0100
0001
0100
0000
0001
1000
,
0000
0100
0000
0010
0000
0001
0000
0010
,
0100
0010
0100
0010
0100
0000
1000
0001
,
0000
0000
0100
0010
,
1000
0000
0010
0100
0001
0000
0100
0010
,
0000
1000
0000
0100
0000
0010
0000
0001
,
0010
0000
0100
1000
0001
0000
0100
0001
,
0000
1000
0100
1000
0001
0000
0010
0001
,
1000
0001
1000
0000
0001
0000
0100
0000
,
0010
0000
1000
0000
0010
0000
0100
0001
,
0000
1000
0100
0010
,
0001
0010
0100
1000
,
0010
0000
0100
0000
0001
0000
0001
0100
,
0000
0100
0010
0000
1000
0000
1000
0010
,
0000
0010
0100
0000
0020
0000
0000
0000
,
2030
0000
3200
0000
,
0320
0000
0000
0000
0031
0000
0010
0100
,
0000
1000
0000
0010
0000
0000
0100
0000
,
0001
0000
0100
0000
0010
0000
1000
0001
,
0000
1000
0000
0001
0000
0000
0000
0000
,
0100
0000
0010
0000
1000
0000
0100
0010
,
0000
0001
0000
1000
0000
0000
0000
0000
,
0001
0000
0010
0000
0100
0000
1000
0100
,
0000
1000
0000
1001
0000
0000
0000
0000
;

//---------------dance-single - Renard----------------
#NOTES:
     dance-single:
     Renard:
     Easy:
     3:
     0.329,0.454,0.074,0.127,0.000: // measure 1
0000
0000
1000
1000
,  // measure 2
0001
1001
0001
0001
,  // measure 3
1000
1001
2000
3200
,  // measure 4
0320
0032
1003
1001
,  // measure 5
0001
1001
2000
3001
,  // measure 6
0010
0110
2000
3001
,  // measure 7
0010
0110
1000
0001
,  // measure 8
1000
0001
1000
0001
,  // measure 9
1000
0001
1000
0001
,  // measure 10
1000
0001
1000
1000
,  // measure 11
0001
0001
1000
1000
,  // measure 12
0100
0010
0001
0001
,  // measure 13
0010
0001
0010
0010
,  // measure 14
0100
1000
0001
0001
,  // measure 15
0100
0001
1000
1000
,  // measure 16
0100
0010
0001
0001
,  // measure 17
0010
0001
1000
1000
,  // measure 18
0010
0100
0001
0001
,  // measure 19
1000
0100
0010
0010
,  // measure 20
0001
0001
1000
0001
,  // measure 21
1000
1000
0100
0100
,  // measure 22
1000
1000
0001
0010
,  // measure 23
0100
0100
1000
1000
,  // measure 24
0001
0001
0010
0010
,  // measure 25
0001
0001
1000
1000
,  // measure 26
0010
0010
0100
0100
,  // measure 27
0001
0001
1000
1000
,  // measure 28
0100
0100
0010
0001
,  // measure 29
1000
0001
0100
0100
,  // measure 30
0010
0010
1000
0100
,  // measure 31
0010
0010
0001
1000
,  // measure 32
0001
0100
0010
1000
,  // measure 33
0100
0100
0000
0010
,  // measure 34
0000
0001
1000
0100
,  // measure 35
1000
0001
0010
0010
,  // measure 36
0100
1000
0001
0000
,  // measure 37
0001
0000
0010
0100
,  // measure 38
1000
0001
0100
0000
,  // measure 39
0100
0000
0001
1000
,  // measure 40
0100
0010
0001
0000
,  // measure 41
0001
0000
0010
0100
,  // measure 42
1000
0001
0100
0000
,  // measure 43
0100
0001
1000
0000
,  // measure 44
0100
0000
0010
0000
,  // measure 45
0001
0000
0010
0000
,  // measure 46
0100
0000
1000
0000
,  // measure 47
0001
0010
0200
0000
,  // measure 48
0000
0000
2300
0000
,  // measure 49
0000
0000
3020
0000
,  // measure 50
0230
0000
0302
0000
,  // measure 51
2003
0000
3100
0010
,  // measure 52
0000
0010
0001
1000
,  // measure 53
0001
0100
0010
1000
,  // measure 54
0000
1000
0010
0100
,  // measure 55
0001
1000
0100
0010
,  // measure 56
0000
0010
0001
1000
,  // measure 57
0010
0100
0001
1000
,  // measure 58
0100
0000
0000
1001
0000
0000
0000
0000
;
